Depeche Mode - Suffer Well (2006)

Download Now

Depeche Mode - Suffer Well (2006)

Depeche Mode - Suffer Well (2006)
EAC | Flac(Image) + Cue + Log & MP3 CBR 320Kbps
Universal Music | Russia | ~ 508 or 178 Mb | Scans(png) -> 45 Mb
Synth-pop

~ Compilation, Unofficial Release ~



Tracklist:

01. A Pain That I'm Used To (Extreme Remix) [05:07]
02. John The Revelator (Strange Mix) [03:41]
03. Suffer Well (Single Version) [02:54]
04. The Sinner In Me (Instrumental) [07:54]
05. Precious (DW Serge Mix) [08:35]
06. Macrovision (Diversited) [04:30]
07. I Want It All (Sub Mix) [06:01]
08. Nothing's Impossible (Re Jack) [05:18]
09. Introspectre (Equalizations Mix) [03:14]
10. Damaged People (Reality Mix) [05:01]
11. Lillian (Long Mix) [07:32]
12. The Darkest Star (Digital Beat Mix) [07:35]
13. Free (Small Town Boy Mix) [07:55]

Exact Audio Copy V1.0 beta 3 from 29. August 2011

EAC extraction logfile from 6. April 2013, 12:17

Depeche Mode / Suffer Well

Used drive : TEAC CD-W552G Adapter: 0 ID: 1

Read mode : Secure
Utilize accurate stream : Yes
Defeat audio cache : Yes
Make use of C2 pointers : No

Read offset correction

: 6
Overread into Lead-In and Lead-Out : No
Fill up missing offset samples with silence : Yes
Delete leading and trailing silent blocks : No
Null samples used in CRC calculations : Yes
Used interface
: Native Win32 interface for Win NT & 2000

Used output format : User Defined Encoder
Selected bitrate : 896 kBit/s
Quality : High
Add ID3 tag : No
Command line compressor : C:\Program Files\Exact Audio Copy\Flac\flac.exe
Additional command line options : -8 -V -T "Date=%year%" -T "Genre=%genre%" -T "COMMENT=vsvserg™ LosslesS © " %source%

TOC of the extracted CD Track | Start | Length | Start sector | End sector
--1 | 0:00.00 | 5:07.28 | 0 | 23052 2 | 5:07.28 | 3:41.12 | 23053 | 39639 3 | 8:48.40 | 2:54.46 | 39640 | 52735 4 | 11:43.11 | 7:54.12 | 52736 | 88297 5 | 19:37.23 | 8:35.37 | 88298 | 126959 6 | 28:12.60 | 4:30.07 | 126960 | 147216 7 | 32:42.67 | 6:01.02 | 147217 | 174293 8 | 38:43.69 | 5:18.57 | 174294 | 198200 9 | 44:02.51 | 3:14.55 | 198201 | 212805
10 | 47:17.31 | 5:01.70 | 212806 | 235450
11 | 52:19.26 | 7:32.11 | 235451 | 269361
12 | 59:51.37 | 7:35.72 | 269362 | 303558
13 | 67:27.34 | 7:56.00 | 303559 | 339258

Range status and errors

Selected range Filename D:\vsvserg-Rip\Depeche Mode - Suffer Well.wav Peak level 100.0 %
Extraction speed 6.4 X
Range quality 100.0 %
Test CRC A96E11C1
Copy CRC A96E11C1
Copy OK

No errors occurred


AccurateRip summary

Track 1 not present in database
Track 2 not present in database
Track 3 not present in database
Track 4 not present in database
Track 5 not present in database
Track 6 not present in database
Track 7 not present in database
Track 8 not present in database
Track 9 not present in database
Track 10 not present in database
Track 11 not present in database
Track 12 not present in database
Track 13 not present in database

None of the tracks are present in the AccurateRip database

End of status report

- CUETools DB Plugin V2.1.4

[CTDB TOCID: eaLDD0ARo3eYqm2US2UcDpX.tj0-] disk not present in database
Submit result: eaLDD0ARo3eYqm2US2UcDpX.tj0- has been uploaded

==== Log checksum F0BC96188F1F21C6497F53AA08C4DA0338722C8ECEEA1F69982375D14C8C3C75 ====

foobar2000 1.2.9 / Dynamic Range Meter 1.1.1
log date: 2015-10-10 17:48:03

Analyzed: Depeche Mode / Suffer Well

DR Peak RMS Duration Track

DR8 0.00 dB -11.03 dB 5:07 01-A Pain That I'm Used To (Extreme Remix)
DR9 0.00 dB -11.03 dB 3:41 02-John The Revelator (Strange Mix)
DR6 -3.50 dB -11.08 dB 2:55 03-Suffer Well (Single Version)
DR9 -0.01 dB -10.99 dB 7:54 04-The Sinner In Me (Instrumental)
DR9 0.00 dB -11.00 dB 8:35 05-Precious (DW Serge Mix)
DR6 -0.79 dB -11.01 dB 4:30 06-Macrovision (Diversited)
DR8 -0.12 dB -11.02 dB 6:01 07-I Want It All (Sub Mix)
DR6 -0.90 dB -11.03 dB 5:19 08-Nothing's Impossible (Re Jack)
DR7 0.00 dB -11.10 dB 3:15 09-Introspectre (Equalizations Mix)
DR9 0.00 dB -11.05 dB 5:02 10-Damaged People (Reality Mix)
DR8 0.00 dB -11.00 dB 7:32 11-Lillian (Long Mix)
DR8 0.00 dB -11.00 dB 7:36 12-The Darkest Star (Digital Beat Mix)
DR9 -0.17 dB -10.98 dB 7:56 13-Free (Small Town Boy Mix)

Number of tracks: 13
Official DR value: DR8

Samplerate: 44100 Hz
Channels: 2
Bits per sample: 16
Bitrate: 915 kbps
Codec: FLAC

[CUETools log; Date: 10.10.2015 17:43:02; Version: 2.1.4]
[CTDB TOCID: eaLDD0ARo3eYqm2US2UcDpX.tj0-] found.
Track | CTDB Status
1 | (1/1) Accurately ripped
2 | (1/1) Accurately ripped
3 | (1/1) Accurately ripped
4 | (1/1) Accurately ripped
5 | (1/1) Accurately ripped
6 | (1/1) Accurately ripped
7 | (1/1) Accurately ripped
8 | (1/1) Accurately ripped
9 | (1/1) Accurately ripped
10 | (1/1) Accurately ripped
11 | (1/1) Accurately ripped
12 | (1/1) Accurately ripped
13 | (1/1) Accurately ripped
[AccurateRip ID: 0021bc14-0156516f-bc11ab0d] found.
Track [ CRC | V2 ] Status
01 4494c65|2544a687 (0+1/1) Accurately ripped
02 [9776f1c1|f7f57444] (0+1/1) Accurately ripped
03 [8949f32e|0999a4f9] (0+1/1) Accurately ripped
04 [68bc65a2|5c5c6c96] (0+1/1) Accurately ripped
05 [20513685|93cb293b] (0+1/1) Accurately ripped
06 [7d7a0c6c|0d372fd2] (0+1/1) Accurately ripped
07 [276354b9|15e980b5] (0+1/1) Accurately ripped
08 [98fdd6f1|d6401617] (0+1/1) Accurately ripped
09 [ecc74432|ce172ab3] (0+1/1) Accurately ripped
10 [7d4420c5|b9b01b7c] (0+1/1) Accurately ripped
11 [8497661a|0ba3787b] (0+1/1) Accurately ripped
12 [dc9d9d15|c82ce964] (0+1/1) Accurately ripped
13 [3f28bfcd|7eabf1e7] (0+1/1) Accurately ripped

Track Peak [ CRC32 ] [W/O NULL] [ LOG ]
-- 100,0 [A96E11C1] [735EBA4A] CRC32
01 100,0 [A8DEFCDD] [2AAC2E0C]
02 100,0 [A7F89E9E] [FB2292BC]
03 66,8 [0F479E4F] [7B5B74F1]
04 99,8 [3CAE9077] [EBEF125F]
05 100,0 [8DFC90FE] [648CA0AB]
06 91,2 [E9AFA5A1] [05CD1933]
07 98,6 [0BE39A82] [3EB58603]
08 90,1 [71402FC7] [2EEDAA91]
09 100,0 [1C407F5A] [0AD9CE5E]
10 100,0 [3BD0401A] 319D2AC
11 100,0 12230A4 [50C96CF2]
12 100,0 [04205BA9] [28313AD1]
13 98,0 20622AB [F344A445]

Depeche Mode - Suffer Well (2006)

All thanks go to vsvserg



Download Depeche Mode - Suffer Well (2006):

DOWNLOAD LINKS
Buy Premium From My Links To Get Resumable Support & Max Speed & To Support Me


Links are Interchangeable - No Password - Single Extraction
Direct Download

Tags: Depeche, Suffer

Depeche Mode - Suffer Well (2006) Download via Hotfile Rapidshare Fileserve Megaupload & FileSonic, Depeche Mode - Suffer Well (2006) free torrent downloads included crack, serial, keygen.Depeche Mode - Suffer Well (2006) Fast Download via Rapidshare Hotfile Fileserve Filesonic Megaupload, Depeche Mode - Suffer Well (2006) Torrents and Emule Download or anything related.
Leave a Comment
Your Name:
E-Mail:
Add Comments:

Enter Code: