Gerry Mulligan - Mosaic Select 21: 1957-1958 (2006) [3CD Set] {Mosaic Records}

Download Now


Gerry Mulligan - Mosaic Select 21: 1957-1958 (2006) [3CD Set] {Mosaic Records}
Gerry Mulligan - Mosaic Select 21: 1957-1958 (2006) [3CD Set] {Mosaic Records}
EAC rip (secure mode) | FLAC (tracks)+CUE+LOG -> 1.27 Gb | MP3 @320 -> 523 Mb
Full Artwork @ 300 dpi (png) -> 104 Mb | 5% repair rar
© 2006 Mosaic Records / EMI | MS-021 | 24-bit remaster by Ron McMaster
Jazz / Cool / West Coast Jazz / Saxophone

"Gerry Mulligan was certainly busy in December 1957. During a two-week period, the baritonist recorded a reunion album with trumpeter Chet Baker, documented a set of his songs with an octet that featured five top saxophonists, recorded a very obscure set with a sextet that included four strings, and cut most of an album in which his quartet teamed up with singer Annie Ross. This limited-edition three-CD set contains all of the music plus alternate takes and the last part of the Ross album, which was recorded nine months later with trumpeter Art Farmer in Baker's spot. The reunion with Baker, one of only two times when Mulligan and the trumpeter got back together (the other was a 1970s concert), has some of the old magic of the famous 1951-1952 pianoless quartet."

Gerry Mulligan - Mosaic Select 21: 1957-1958 (2006) [3CD Set] {Mosaic Records}

"Surprisingly, Baker sounds reluctant to play behind Mulligan's solos, but the baritonist happily harmonizes behind the trumpeter. The saxophone date features Mulligan's songs arranged by Bill Holman and featuring Allen Eager (in his last high-quality date), Zoot Sims, Al Cohn, and Lee Konitz in excellent form. It is surprising that the Mulligan with strings set did not come out for decades, for the nine songs (which have Mulligan joined by violin, cello, guitar, bass, and drums) are given spirited and swinging treatments. Annie Ross Sings a Song of Mulligan was one of the singer's finest albums away from Lambert, Hendricks & Ross and she mixes in perfectly with the two versions of Mulligan's quartet. Collectors who do not already own most of this music are well advised to acquire this perfectly conceived reissue, a month in the life of the great Gerry Mulligan."


Gerry Mulligan - Mosaic Select 21: 1957-1958 (2006) [3CD Set] {Mosaic Records}


AAJ INFO

These four wide-ranging projects recorded in the space of two weeks glimpse the enormous palette from which Gerry Mulligan drew throughout his career.
Personnel dates:

(A) Chet Baker, trumpet; Gerry Mulligan, baritone sax; Henry Grimes, bass; Dave Bailey, drums.
Disc one (#1-8) originally issued as REUNION (World Pacific WP-1241)
Disc one #9 originally issued on THE PLAYBOY JAZZ ALL-STARS (Playboy PB 1958)
Disc one #10 originally issued on THE PLAYBOY JAZZ ALL-STARS (Playboy PB 1959)
Disc one #12 originally issued on Mosaic MR5-102
Disc one (#11, 13-16) originally issued on the CD version of REUNION (Pacific Jazz B2-46857)
Recorded on December 3, 11 & 17, 1957
Disc one # 1-9 are stereo, #10-16 are mono

(B) Lee Konitz, alto sax; Allen Eager, alto and tenor sax; Zoot Sims, alto and tenor sax; Al Cohn, tenor and baritone sax;
Gerry Mulligan, baritone sax; Freddie Green, guitar; Henry Grimes, bass; Dave Bailey, drums; Bill Homan, arranger.
Originally issued on the mono and stereo versions of THE GERRY MULLIGAN SONGBOOK, VOL. 1 (World Pacific WP-1237)
Recorded on December 4 & 5, 1957
Disc Two #1-7 are stereo, #8 & 9 are mono

(C) Gerry Mulligan, baritone sax; Paul Palmieri, guitar; Dick Wetmore, violin; Calo Scott, cello; Vinnie Burke, bass; Dave Bailey, drums.
All selections except "I Can't Get Started" were originally intended for release as STRINGTIME (World Pacific WP-1252)
Disc two (#10-13) were issued on the mono CD edition of THE GERRY MULLIGAN SONGBOOK (Pacific Jazz B2-33575)
Recorded on December 5, 1957
Disc three (#1-5) are previously unissued
This session is mono

Gerry Mulligan - Mosaic Select 21: 1957-1958 (2006) [3CD Set] {Mosaic Records}


(D) Annie Ross, vocal; Chet Baker, trumpet; Gerry Mulligan, baritone sax; Henry Grimes, bass; Dave Bailey, drums.
Disc three #16 originally issued on THE GENIUS OF GERRY MULLIGAN (Pacific Jazz ST 20140)
Disc three #17-21 originally issued on the CD edition of ANNIE ROSS SINGS A SONG OF MULLIGAN (Pacific Jazz B2-46852)
All other selections originally issued on ANNIE ROSS SINGS A SONG OF MULLIGAN (World Pacific WP-1253)
Recorded on December 11 & 17, 1957

(E) Annie Ross, vocal; Art Farmer, trumpet; Gerry Mulligan, baritone sax; Bill Crow, bass; Dave Bailey, drums.
All selections issued on ANNIE ROSS SINGS A SONG OF MULLIGAN (World Pacific WP-1253)

Gerry Mulligan - Mosaic Select 21: 1957-1958 (2006) [3CD Set] {Mosaic Records}


Tracks:
DISC ONE

01. Reunion (A)
02. When Your Lover Has Gone (A)
03. Star Dust (A)
04. My Heart Belongs To Daddy (A)
05. Jersey Bounce (A)
06. Surrey With The Fringe On Top (A)
07. Ornithology (A)
08. Trav'lin' Light (A)
09. People Will Say We're In Love (A)
10. Gee Baby, Ain't I Good To You (A)
11. The Song Is You (A)
12. Festive Minor (A)
13. I Got Rhythm (A)
14. Trav'lin' Light (alternate take) (A)
15. Gee Baby, Ain't I Good To You (alternate take) (A)
16. All The Things You Are (A)

DISC TWO
01. Four And One Moore (B)
02. Crazy Day (B)
03. Turnstile (B)
04. Sextet (B)
05. Disc Jockey Jump (full version) (B)
06. Venus De Milo (B)
07. Revelation (B)
08. Crazy Day (mono take) (B)
09. Turnstile (mono take) (B)
10. May-Reh (C)
11. The Preacher (C)
12. Good Bait (C)
13. Bags' Groove (C)

DISC THREE
01. Lullaby In Rhythm (C)
02. Body And Soul (C)
03. Out Of Nowhere (C)
04. I'll Remember April (C)
05. I Can't Get Started (C)
06. I Feel Pretty (E)
07. How About You? (D)
08. I've Grown Accustomed To His Face (E)
09. This Time The Dream's On Me (D)
10. Let There Be Love (D)
11. All Of You (E)
12. Give Me The Simple Life (E)
13. This Is Always (E)
14. Between The Devil And The Deep Blue Sea (D)
15. It Don't Mean A Thing If It Ain't Got That Swing (unedited version) (D)
16. The Lady's In Love With You (D)
17. My Old Flame (D
18. I Guess I'll Have To Change My Plans (D)
19. You Turned The Tables On Me (D)
20. This Is Always (first version) (D)
21. I've Grown Accustomed To His Face (first version) (D)
Recorded in probably September 1958

Exact Audio Copy V1.0 beta 1 from 15. November 2010

EAC extraction logfile from 25. May 2011, 20:16

Gerry Mulligan / Mosaic Select 21 CD 1

Used drive : HL-DT-STDVDRAM GSA-T50N Adapter: 0 ID: 1

Read mode : Secure
Utilize accurate stream : Yes
Defeat audio cache : Yes
Make use of C2 pointers : No

Read offset correction

: 667
Overread into Lead-In and Lead-Out : No
Fill up missing offset samples with silence : Yes
Delete leading and trailing silent blocks : No
Null samples used in CRC calculations : Yes
Used interface
: Native Win32 interface for Win NT & 2000
Gap handling
: Appended to previous track

Used output format : User Defined Encoder
Selected bitrate : 320 kBit/s
Quality : High
Add ID3 tag : No
Command line compressor : C:\Program Files\Exact Audio Copy\Flac\flac.exe
Additional command line options : -8 -V -T "ARTIST=%a" -T "TITLE=%t" -T "ALBUM=%g" -T "DATE=%y" -T "TRACKNUMBER=%n" -T "TOTALTRACKS=%x" -T "GENRE=%m" -T "ALBUMARTIST=%v" -T "ALBUM ARTIST=%v" -T "COMMENT=EAC Secure Mode, Test & Copy, AccurateRip, FLAC -8" %s

TOC of the extracted CD Track | Start | Length | Start sector | End sector
--1 | 0:00.00 | 4:07.41 | 0 | 18565 2 | 4:07.41 | 5:09.26 | 18566 | 41766 3 | 9:16.67 | 4:44.10 | 41767 | 63076 4 | 14:01.02 | 4:13.34 | 63077 | 82085 5 | 18:14.36 | 4:27.24 | 82086 | 102134 6 | 22:41.60 | 4:41.71 | 102135 | 123280 7 | 27:23.56 | 5:12.25 | 123281 | 146705 8 | 32:36.06 | 3:42.34 | 146706 | 163389 9 | 36:18.40 | 3:43.44 | 163390 | 180158
10 | 40:02.09 | 3:39.60 | 180159 | 196643
11 | 43:41.69 | 3:24.19 | 196644 | 211962
12 | 47:06.13 | 4:11.34 | 211963 | 230821
13 | 51:17.47 | 6:01.45 | 230822 | 257941
14 | 57:19.17 | 4:34.71 | 257942 | 278562
15 | 61:54.13 | 3:33.63 | 278563 | 294600
16 | 65:28.01 | 6:47.04 | 294601 | 325129

Track 1 Filename D:\Fiamma\Gerry Mulligan - Mosaic Select 21 (2006) [FLAC] (EMI 3 CD)\CD 1\01 - Reunion.wav Pre-gap length 0:00:02.00 Peak level 86.4 %
Extraction speed 2.5 X
Track quality 100.0 %
Test CRC AA62505B
Copy CRC AA62505B
Track not present in AccurateRip database
Copy OK

Track 2 Filename D:\Fiamma\Gerry Mulligan - Mosaic Select 21 (2006) [FLAC] (EMI 3 CD)\CD 1\02 - When Your Lover Has Gone.wav Pre-gap length 0:00:01.49 Peak level 98.8 %
Extraction speed 2.8 X
Track quality 100.0 %
Test CRC 68995F8A
Copy CRC 68995F8A
Track not present in AccurateRip database
Copy OK

Track 3 Filename D:\Fiamma\Gerry Mulligan - Mosaic Select 21 (2006) [FLAC] (EMI 3 CD)\CD 1\03 - Star Dust.wav Pre-gap length 0:00:02.29 Peak level 98.7 %
Extraction speed 3.0 X
Track quality 100.0 %
Test CRC 37D5C2E1
Copy CRC 37D5C2E1
Track not present in AccurateRip database
Copy OK

Track 4 Filename D:\Fiamma\Gerry Mulligan - Mosaic Select 21 (2006) [FLAC] (EMI 3 CD)\CD 1\04 - My Heart Belongs To Daddy.wav Pre-gap length 0:00:02.26 Peak level 98.7 %
Extraction speed 3.2 X
Track quality 100.0 %
Test CRC BB27AC5B
Copy CRC BB27AC5B
Track not present in AccurateRip database
Copy OK

Track 5 Filename D:\Fiamma\Gerry Mulligan - Mosaic Select 21 (2006) [FLAC] (EMI 3 CD)\CD 1\05 - Jersey Bounce.wav Pre-gap length 0:00:02.11 Peak level 95.6 %
Extraction speed 3.0 X
Track quality 99.9 %
Test CRC 8F1686C5
Copy CRC 8F1686C5
Track not present in AccurateRip database
Copy OK

Track 6 Filename D:\Fiamma\Gerry Mulligan - Mosaic Select 21 (2006) [FLAC] (EMI 3 CD)\CD 1\06 - Surrey With The Fringe On Top.wav Pre-gap length 0:00:02.18 Peak level 95.5 %
Extraction speed 3.6 X
Track quality 100.0 %
Test CRC 77BC322F
Copy CRC 77BC322F
Track not present in AccurateRip database
Copy OK

Track 7 Filename D:\Fiamma\Gerry Mulligan - Mosaic Select 21 (2006) [FLAC] (EMI 3 CD)\CD 1\07 - Ornithology.wav Pre-gap length 0:00:02.05 Peak level 93.3 %
Extraction speed 3.9 X
Track quality 100.0 %
Test CRC 9F1A370F
Copy CRC 9F1A370F
Track not present in AccurateRip database
Copy OK

Track 8 Filename D:\Fiamma\Gerry Mulligan - Mosaic Select 21 (2006) [FLAC] (EMI 3 CD)\CD 1\08 - Trav'lin Light.wav Pre-gap length 0:00:02.20 Peak level 94.8 %
Extraction speed 3.8 X
Track quality 100.0 %
Test CRC E62B19AB
Copy CRC E62B19AB
Track not present in AccurateRip database
Copy OK

Track 9 Filename D:\Fiamma\Gerry Mulligan - Mosaic Select 21 (2006) [FLAC] (EMI 3 CD)\CD 1\09 - People Will Say We're In Love.wav Pre-gap length 0:00:02.22 Peak level 87.7 %
Extraction speed 4.0 X
Track quality 100.0 %
Test CRC 2ECDFAB3
Copy CRC 2ECDFAB3
Track not present in AccurateRip database
Copy OK

Track 10 Filename D:\Fiamma\Gerry Mulligan - Mosaic Select 21 (2006) [FLAC] (EMI 3 CD)\CD 1\10 - Gee Baby, Ain't I Good To You.wav Pre-gap length 0:00:02.18 Peak level 79.0 %
Extraction speed 3.6 X
Track quality 99.9 %
Test CRC 23AD2F18
Copy CRC 23AD2F18
Track not present in AccurateRip database
Copy OK

Track 11 Filename D:\Fiamma\Gerry Mulligan - Mosaic Select 21 (2006) [FLAC] (EMI 3 CD)\CD 1\11 - The Song Is You.wav Pre-gap length 0:00:04.41 Peak level 85.5 %
Extraction speed 4.2 X
Track quality 100.0 %
Test CRC 9E4EB51A
Copy CRC 9E4EB51A
Track not present in AccurateRip database
Copy OK

Track 12 Filename D:\Fiamma\Gerry Mulligan - Mosaic Select 21 (2006) [FLAC] (EMI 3 CD)\CD 1\12 - Festive Minor.wav Pre-gap length 0:00:02.20 Peak level 87.0 %
Extraction speed 4.5 X
Track quality 100.0 %
Test CRC 97018678
Copy CRC 97018678
Track not present in AccurateRip database
Copy OK

Track 13 Filename D:\Fiamma\Gerry Mulligan - Mosaic Select 21 (2006) [FLAC] (EMI 3 CD)\CD 1\13 - I Got Rhythm.wav Pre-gap length 0:00:02.53 Peak level 88.3 %
Extraction speed 4.4 X
Track quality 99.9 %
Test CRC 6051DFD8
Copy CRC 6051DFD8
Track not present in AccurateRip database
Copy OK

Track 14 Filename D:\Fiamma\Gerry Mulligan - Mosaic Select 21 (2006) [FLAC] (EMI 3 CD)\CD 1\14 - Trav'lin Light (Alt Take).wav Pre-gap length 0:00:02.28 Peak level 86.2 %
Extraction speed 4.3 X
Track quality 99.9 %
Test CRC B30323D5
Copy CRC B30323D5
Track not present in AccurateRip database
Copy OK

Track 15 Filename D:\Fiamma\Gerry Mulligan - Mosaic Select 21 (2006) [FLAC] (EMI 3 CD)\CD 1\15 - Gee Baby, Ain't I Good To Y ou (alt take).wav Pre-gap length 0:00:02.62 Peak level 86.2 %
Extraction speed 4.1 X
Track quality 99.9 %
Test CRC 1F2EF0A3
Copy CRC 1F2EF0A3
Track not present in AccurateRip database
Copy OK

Track 16 Filename D:\Fiamma\Gerry Mulligan - Mosaic Select 21 (2006) [FLAC] (EMI 3 CD)\CD 1\16 - All The Things You Are.wav Pre-gap length 0:00:01.57 Peak level 91.0 %
Extraction speed 5.3 X
Track quality 100.0 %
Test CRC 19C6C661
Copy CRC 19C6C661
Track not present in AccurateRip database
Copy OK

None of the tracks are present in the AccurateRip database

No errors occurred

End of status report

==== Log checksum 0578535BA6D2DE138DFC77018E828506B9A07BB0136F05CAE74A7816475D8713 ====

Exact Audio Copy V1.0 beta 1 from 15. November 2010

EAC extraction logfile from 25. May 2011, 22:11

Gerry Mulligan / Mosaic Select 21 CD 2

Used drive : HL-DT-STDVDRAM GSA-T50N Adapter: 0 ID: 1

Read mode : Secure
Utilize accurate stream : Yes
Defeat audio cache : Yes
Make use of C2 pointers : No

Read offset correction

: 667
Overread into Lead-In and Lead-Out : No
Fill up missing offset samples with silence : Yes
Delete leading and trailing silent blocks : No
Null samples used in CRC calculations : Yes
Used interface
: Native Win32 interface for Win NT & 2000
Gap handling
: Appended to previous track

Used output format : User Defined Encoder
Selected bitrate : 320 kBit/s
Quality : High
Add ID3 tag : No
Command line compressor : C:\Program Files\Exact Audio Copy\Flac\flac.exe
Additional command line options : -8 -V -T "ARTIST=%a" -T "TITLE=%t" -T "ALBUM=%g" -T "DATE=%y" -T "TRACKNUMBER=%n" -T "TOTALTRACKS=%x" -T "GENRE=%m" -T "ALBUMARTIST=%v" -T "ALBUM ARTIST=%v" -T "COMMENT=EAC Secure Mode, Test & Copy, AccurateRip, FLAC -8" %s

TOC of the extracted CD Track | Start | Length | Start sector | End sector
--1 | 0:00.00 | 4:24.37 | 0 | 19836 2 | 4:24.37 | 7:05.05 | 19837 | 51716 3 | 11:29.42 | 4:12.08 | 51717 | 70624 4 | 15:41.50 | 4:19.02 | 70625 | 90051 5 | 20:00.52 | 4:34.49 | 90052 | 110650 6 | 24:35.26 | 5:09.25 | 110651 | 133850 7 | 29:44.51 | 5:01.24 | 133851 | 156449 8 | 34:46.00 | 7:06.60 | 156450 | 188459 9 | 41:52.60 | 7:56.19 | 188460 | 224178
10 | 49:49.04 | 6:04.21 | 224179 | 251499
11 | 55:53.25 | 6:28.51 | 251500 | 280650
12 | 62:22.01 | 4:40.38 | 280651 | 301688
13 | 67:02.39 | 3:57.45 | 301689 | 319508

Track 1 Filename D:\Fiamma\Gerry Mulligan - Mosaic Select 21 (2006) [FLAC] (EMI 3 CD)\CD 2\01 - Four and One Moore.wav Pre-gap length 0:00:02.00 Peak level 98.9 %
Extraction speed 2.5 X
Track quality 100.0 %
Test CRC 8F892112
Copy CRC 8F892112
Accurately ripped (confidence 2) [A46B5F08]
Copy OK

Track 2 Filename D:\Fiamma\Gerry Mulligan - Mosaic Select 21 (2006) [FLAC] (EMI 3 CD)\CD 2\02 - Crazy Day.wav Pre-gap length 0:00:02.39 Peak level 98.9 %
Extraction speed 2.7 X
Track quality 99.9 %
Test CRC BA7159B1
Copy CRC BA7159B1
Accurately ripped (confidence 2) [5E3D8939]
Copy OK

Track 3 Filename D:\Fiamma\Gerry Mulligan - Mosaic Select 21 (2006) [FLAC] (EMI 3 CD)\CD 2\03 - Turnstile.wav Pre-gap length 0:00:02.40 Peak level 98.9 %
Extraction speed 3.1 X
Track quality 100.0 %
Test CRC A6531194
Copy CRC A6531194
Accurately ripped (confidence 2) [DC471261]
Copy OK

Track 4 Filename D:\Fiamma\Gerry Mulligan - Mosaic Select 21 (2006) [FLAC] (EMI 3 CD)\CD 2\04 - Sextet.wav Pre-gap length 0:00:02.47 Peak level 98.9 %
Extraction speed 3.3 X
Track quality 100.0 %
Test CRC B05E167D
Copy CRC B05E167D
Accurately ripped (confidence 2) [04639FE7]
Copy OK

Track 5 Filename D:\Fiamma\Gerry Mulligan - Mosaic Select 21 (2006) [FLAC] (EMI 3 CD)\CD 2\05 - Disc Jockey Jump (full version).wav Pre-gap length 0:00:03.10 Peak level 98.9 %
Extraction speed 3.5 X
Track quality 100.0 %
Test CRC 72AC8A5A
Copy CRC 72AC8A5A
Accurately ripped (confidence 2) [0C219E5A]
Copy OK

Track 6 Filename D:\Fiamma\Gerry Mulligan - Mosaic Select 21 (2006) [FLAC] (EMI 3 CD)\CD 2\06 - Venus De Milo.wav Pre-gap length 0:00:02.17 Peak level 98.8 %
Extraction speed 3.8 X
Track quality 100.0 %
Test CRC 3F2138C7
Copy CRC 3F2138C7
Accurately ripped (confidence 2) [DDBB10F3]
Copy OK

Track 7 Filename D:\Fiamma\Gerry Mulligan - Mosaic Select 21 (2006) [FLAC] (EMI 3 CD)\CD 2\07 - Revelation.wav Pre-gap length 0:00:02.21 Peak level 98.9 %
Extraction speed 3.9 X
Track quality 100.0 %
Test CRC 88220CA7
Copy CRC 88220CA7
Accurately ripped (confidence 2) [9D66ADA2]
Copy OK

Track 8 Filename D:\Fiamma\Gerry Mulligan - Mosaic Select 21 (2006) [FLAC] (EMI 3 CD)\CD 2\08 - Crazy Day (Mono take).wav Pre-gap length 0:00:02.70 Peak level 98.8 %
Extraction speed 4.4 X
Track quality 100.0 %
Test CRC D25AF33D
Copy CRC D25AF33D
Accurately ripped (confidence 2) 4997C7B
Copy OK

Track 9 Filename D:\Fiamma\Gerry Mulligan - Mosaic Select 21 (2006) [FLAC] (EMI 3 CD)\CD 2\09 - Turnstile (Mono take).wav Pre-gap length 0:00:02.62 Peak level 94.4 %
Extraction speed 3.9 X
Track quality 100.0 %
Test CRC 98BBE8C8
Copy CRC 98BBE8C8
Accurately ripped (confidence 2) [E1E2DA60]
Copy OK

Track 10 Filename D:\Fiamma\Gerry Mulligan - Mosaic Select 21 (2006) [FLAC] (EMI 3 CD)\CD 2\10 - May-Reh.wav Pre-gap length 0:00:02.66 Peak level 98.9 %
Extraction speed 3.5 X
Track quality 99.9 %
Test CRC 083F735E
Copy CRC 083F735E
Accurately ripped (confidence 2) [537C0259]
Copy OK

Track 11 Filename D:\Fiamma\Gerry Mulligan - Mosaic Select 21 (2006) [FLAC] (EMI 3 CD)\CD 2\11 - The Preacher.wav Pre-gap length 0:00:02.53 Peak level 94.4 %
Extraction speed 4.1 X
Track quality 100.0 %
Test CRC AFCE78B9
Copy CRC AFCE78B9
Accurately ripped (confidence 2) [7A589B77]
Copy OK

Track 12 Filename D:\Fiamma\Gerry Mulligan - Mosaic Select 21 (2006) [FLAC] (EMI 3 CD)\CD 2\12 - Good Bait.wav Pre-gap length 0:00:02.39 Peak level 92.9 %
Extraction speed 4.0 X
Track quality 100.0 %
Test CRC 1B0447A1
Copy CRC 1B0447A1
Accurately ripped (confidence 2) [4E9C70FF]
Copy OK

Track 13 Filename D:\Fiamma\Gerry Mulligan - Mosaic Select 21 (2006) [FLAC] (EMI 3 CD)\CD 2\13 - Bags' Groove.wav Pre-gap length 0:00:03.22 Peak level 98.8 %
Extraction speed 4.1 X
Track quality 100.0 %
Test CRC 6670876A
Copy CRC 6670876A
Track not present in AccurateRip database
Copy OK

12 track(s) accurately ripped
1 track(s) not present in the AccurateRip database

Some tracks could not be verified as accurate

No errors occurred

End of status report

==== Log checksum 8D68F56DB9D01EF2532FFC1B12B96C4BB6470D08CF025C66E3FAB91557BABFDD ====

Exact Audio Copy V1.0 beta 1 from 15. November 2010

EAC extraction logfile from 26. May 2011, 0:09

Gerry Mulligan / Mosaic Select 21 CD 3

Used drive : HL-DT-STDVDRAM GSA-T50N Adapter: 0 ID: 1

Read mode : Secure
Utilize accurate stream : Yes
Defeat audio cache : Yes
Make use of C2 pointers : No

Read offset correction

: 667
Overread into Lead-In and Lead-Out : No
Fill up missing offset samples with silence : Yes
Delete leading and trailing silent blocks : No
Null samples used in CRC calculations : Yes
Used interface
: Native Win32 interface for Win NT & 2000
Gap handling
: Appended to previous track

Used output format : User Defined Encoder
Selected bitrate : 320 kBit/s
Quality : High
Add ID3 tag : No
Command line compressor : C:\Program Files\Exact Audio Copy\Flac\flac.exe
Additional command line options : -8 -V -T "ARTIST=%a" -T "TITLE=%t" -T "ALBUM=%g" -T "DATE=%y" -T "TRACKNUMBER=%n" -T "TOTALTRACKS=%x" -T "GENRE=%m" -T "ALBUMARTIST=%v" -T "ALBUM ARTIST=%v" -T "COMMENT=EAC Secure Mode, Test & Copy, AccurateRip, FLAC -8" %s

TOC of the extracted CD Track | Start | Length | Start sector | End sector
--1 | 0:00.00 | 4:31.60 | 0 | 20384 2 | 4:31.60 | 4:24.50 | 20385 | 40234 3 | 8:56.35 | 4:15.17 | 40235 | 59376 4 | 13:11.52 | 5:07.29 | 59377 | 82430 5 | 18:19.06 | 5:02.60 | 82431 | 105140 6 | 23:21.66 | 3:33.50 | 105141 | 121165 7 | 26:55.41 | 2:50.45 | 121166 | 133960 8 | 29:46.11 | 3:01.14 | 133961 | 147549 9 | 32:47.25 | 3:23.18 | 147550 | 162792
10 | 36:10.43 | 3:44.34 | 162793 | 179626
11 | 39:55.02 | 2:20.38 | 179627 | 190164
12 | 42:15.40 | 3:35.20 | 190165 | 206309
13 | 45:50.60 | 4:21.26 | 206310 | 225910
14 | 50:12.11 | 3:42.01 | 225911 | 242561
15 | 53:54.12 | 2:10.12 | 242562 | 252323
16 | 56:04.24 | 2:25.41 | 252324 | 263239
17 | 58:29.65 | 3:49.33 | 263240 | 280447
18 | 62:19.23 | 2:25.41 | 280448 | 291363
19 | 64:44.64 | 3:25.47 | 291364 | 306785
20 | 68:10.36 | 3:59.73 | 306786 | 324783
21 | 72:10.34 | 3:04.71 | 324784 | 338654

Track 1 Filename D:\Fiamma\Gerry Mulligan - Mosaic Select 21 (2006) [FLAC] (EMI 3 CD)\CD 3\01 - Lullaby In Rhythm.wav Pre-gap length 0:00:02.00 Peak level 96.1 %
Extraction speed 2.5 X
Track quality 100.0 %
Test CRC 9B086E95
Copy CRC 9B086E95
Accurately ripped (confidence 2) [422841DA]
Copy OK

Track 2 Filename D:\Fiamma\Gerry Mulligan - Mosaic Select 21 (2006) [FLAC] (EMI 3 CD)\CD 3\02 - Body And Soul.wav Pre-gap length 0:00:01.70 Peak level 98.8 %
Extraction speed 2.4 X
Track quality 99.9 %
Test CRC 0E762ECC
Copy CRC 0E762ECC
Accurately ripped (confidence 2) [975A3136]
Copy OK

Track 3 Filename D:\Fiamma\Gerry Mulligan - Mosaic Select 21 (2006) [FLAC] (EMI 3 CD)\CD 3\03 - Out Of Nowhere.wav Pre-gap length 0:00:02.03 Peak level 98.9 %
Extraction speed 2.9 X
Track quality 100.0 %
Test CRC C0F2112F
Copy CRC C0F2112F
Accurately ripped (confidence 2) [24669FAD]
Copy OK

Track 4 Filename D:\Fiamma\Gerry Mulligan - Mosaic Select 21 (2006) [FLAC] (EMI 3 CD)\CD 3\04 - I'll Remember April.wav Pre-gap length 0:00:02.30 Peak level 98.8 %
Extraction speed 3.2 X
Track quality 100.0 %
Test CRC 78FDABF2
Copy CRC 78FDABF2
Accurately ripped (confidence 2) [9D927777]
Copy OK

Track 5 Filename D:\Fiamma\Gerry Mulligan - Mosaic Select 21 (2006) [FLAC] (EMI 3 CD)\CD 3\05 - I Can't Get Started.wav Pre-gap length 0:00:02.41 Peak level 95.1 %
Extraction speed 3.4 X
Track quality 100.0 %
Test CRC 6D21EDBB
Copy CRC 6D21EDBB
Accurately ripped (confidence 2) [07C9B44E]
Copy OK

Track 6 Filename D:\Fiamma\Gerry Mulligan - Mosaic Select 21 (2006) [FLAC] (EMI 3 CD)\CD 3\06 - I Feel Pretty.wav Pre-gap length 0:00:02.35 Peak level 88.5 %
Extraction speed 3.5 X
Track quality 100.0 %
Test CRC DD6F83F8
Copy CRC DD6F83F8
Accurately ripped (confidence 2) [E9747A91]
Copy OK

Track 7 Filename D:\Fiamma\Gerry Mulligan - Mosaic Select 21 (2006) [FLAC] (EMI 3 CD)\CD 3\07 - How About You.wav Pre-gap length 0:00:01.58 Peak level 98.9 %
Extraction speed 3.4 X
Track quality 100.0 %
Test CRC 22055503
Copy CRC 22055503
Accurately ripped (confidence 2) [61FCB3EC]
Copy OK

Track 8 Filename D:\Fiamma\Gerry Mulligan - Mosaic Select 21 (2006) [FLAC] (EMI 3 CD)\CD 3\08 - I've Grown Accustomed To His Face.wav Pre-gap length 0:00:02.10 Peak level 77.7 %
Extraction speed 3.6 X
Track quality 100.0 %
Test CRC 1FC3A420
Copy CRC 1FC3A420
Accurately ripped (confidence 2) [6F170FA1]
Copy OK

Track 9 Filename D:\Fiamma\Gerry Mulligan - Mosaic Select 21 (2006) [FLAC] (EMI 3 CD)\CD 3\09 - This Time The Dream's On Me.wav Pre-gap length 0:00:02.07 Peak level 83.2 %
Extraction speed 1.9 X
Track quality 100.0 %
Test CRC 97227F91
Copy CRC 97227F91
Accurately ripped (confidence 2) [C258E93A]
Copy OK

Track 10 Filename D:\Fiamma\Gerry Mulligan - Mosaic Select 21 (2006) [FLAC] (EMI 3 CD)\CD 3\10 - Let There Be Love.wav Pre-gap length 0:00:01.73 Peak level 89.2 %
Extraction speed 1.7 X
Track quality 99.9 %
Test CRC 86E2BBC6
Copy CRC 86E2BBC6
Accurately ripped (confidence 2) [3F02B85A]
Copy OK

Track 11 Filename D:\Fiamma\Gerry Mulligan - Mosaic Select 21 (2006) [FLAC] (EMI 3 CD)\CD 3\11 - All Of You.wav Pre-gap length 0:00:01.63 Peak level 85.0 %
Extraction speed 1.8 X
Track quality 100.0 %
Test CRC 8F0863C3
Copy CRC 8F0863C3
Accurately ripped (confidence 2) [383440C5]
Copy OK

Track 12 Filename D:\Fiamma\Gerry Mulligan - Mosaic Select 21 (2006) [FLAC] (EMI 3 CD)\CD 3\12 - Give Me The Simple Life.wav Pre-gap length 0:00:02.64 Peak level 94.4 %
Extraction speed 2.1 X
Track quality 100.0 %
Test CRC 8ECF4EC3
Copy CRC 8ECF4EC3
Accurately ripped (confidence 2) [31E810F3]
Copy OK

Track 13 Filename D:\Fiamma\Gerry Mulligan - Mosaic Select 21 (2006) [FLAC] (EMI 3 CD)\CD 3\13 - This Is Always.wav Pre-gap length 0:00:01.58 Peak level 92.4 %
Extraction speed 0.9 X
Track quality 99.9 %
Test CRC E2CB435A
Copy CRC E2CB435A
Accurately ripped (confidence 2) [6EF62E0F]
Copy OK

Track 14 Filename D:\Fiamma\Gerry Mulligan - Mosaic Select 21 (2006) [FLAC] (EMI 3 CD)\CD 3\14 - Between The Devil And The Deep Blue Sea.wav Pre-gap length 0:00:02.17 Peak level 91.9 %
Extraction speed 1.0 X
Track quality 100.0 %
Test CRC EFD4B5C0
Copy CRC EFD4B5C0
Accurately ripped (confidence 2) [34F83260]
Copy OK

Track 15 Filename D:\Fiamma\Gerry Mulligan - Mosaic Select 21 (2006) [FLAC] (EMI 3 CD)\CD 3\15 - It Don't Mean A Thing If It Ain't Got That Swing.wav Pre-gap length 0:00:02.39 Peak level 92.6 %
Extraction speed 0.7 X
Track quality 99.9 %
Test CRC 3A970D35
Copy CRC 3A970D35
Accurately ripped (confidence 2) [63413904]
Copy OK

Track 16 Filename D:\Fiamma\Gerry Mulligan - Mosaic Select 21 (2006) [FLAC] (EMI 3 CD)\CD 3\16 - The Lady's In Love With You.wav Pre-gap length 0:00:02.62 Peak level 92.4 %
Extraction speed 0.9 X
Track quality 100.0 %
Test CRC 99846BE3
Copy CRC 99846BE3
Accurately ripped (confidence 2) [1FEAC55F]
Copy OK

Track 17 Filename D:\Fiamma\Gerry Mulligan - Mosaic Select 21 (2006) [FLAC] (EMI 3 CD)\CD 3\17 - My Old Flame.wav Pre-gap length 0:00:01.69 Peak level 85.7 %
Extraction speed 0.9 X
Track quality 99.9 %
Test CRC FC136790
Copy CRC FC136790
Accurately ripped (confidence 2) [87F285DB]
Copy OK

Track 18 Filename D:\Fiamma\Gerry Mulligan - Mosaic Select 21 (2006) [FLAC] (EMI 3 CD)\CD 3\18 - I Guess I'll Have To Change My Plans.wav Pre-gap length 0:00:02.22 Peak level 93.0 %
Extraction speed 0.9 X
Track quality 100.0 %
Test CRC 98CAC32C
Copy CRC 98CAC32C
Accurately ripped (confidence 2) [0BCB2ABB]
Copy OK

Track 19 Filename D:\Fiamma\Gerry Mulligan - Mosaic Select 21 (2006) [FLAC] (EMI 3 CD)\CD 3\19 - You Turned The Tables On Me.wav Pre-gap length 0:00:02.38 Peak level 88.8 %
Extraction speed 1.0 X
Track quality 100.0 %
Test CRC BA6B05F8
Copy CRC BA6B05F8
Accurately ripped (confidence 2) [A7AE69C8]
Copy OK

Track 20 Filename D:\Fiamma\Gerry Mulligan - Mosaic Select 21 (2006) [FLAC] (EMI 3 CD)\CD 3\20 - This Is Always (first version).wav Pre-gap length 0:00:02.69 Peak level 85.2 %
Extraction speed 1.0 X
Track quality 100.0 %
Test CRC A5495F72
Copy CRC A5495F72
Accurately ripped (confidence 2) [0A4C126A]
Copy OK

Track 21 Filename D:\Fiamma\Gerry Mulligan - Mosaic Select 21 (2006) [FLAC] (EMI 3 CD)\CD 3\21 - I've Grown Accustomed To His Face (first version).wav Pre-gap length 0:00:02.00 Peak level 89.7 %
Extraction speed 1.0 X
Track quality 100.0 %
Test CRC 27E998A3
Copy CRC 27E998A3
Accurately ripped (confidence 2) [719B5D77]
Copy OK

All tracks accurately ripped

No errors occurred

End of status report

==== Log checksum AE91EFA4F5C2E73AF6A35E4429306D8B92C4C92A5625BEC21CCE7427B64B36D1 ====

Gerry Mulligan - Mosaic Select 21: 1957-1958 (2006) [3CD Set] {Mosaic Records}


All thanks goes to the original releaser!
DOWNLOAD LINKS
Buy Premium From My Links To Get Resumable Support & Max Speed & To Support Me

Rapidgator.net:
http://rapidgator.net/file/84f9a306ca92f5e8dd84b294bd8dd4f6/34xse.mulliganmosaicselectARTWORK.rar.html
http://rapidgator.net/file/8561f1190375f9d16f58a7e4693603e2/34xse.mulliganmosaicselectCD1.part1.rar.html
http://rapidgator.net/file/3169c522031bcf776633d26bf976d4b3/34xse.mulliganmosaicselectCD1.part2.rar.html
http://rapidgator.net/file/aee16c4f8f7b0ad0407c80d1164c93af/34xse.mulliganmosaicselectCD1.part3.rar.html
http://rapidgator.net/file/89ea4bca2f2cb5ed630e63823f4ab268/34xse.mulliganmosaicselectCD1MP.rar.html
http://rapidgator.net/file/02f5d5752602602a5abe98f31729d06c/34xse.mulliganmosaicselectCD2.part1.rar.html
http://rapidgator.net/file/9e8b8a88ec839625f9eea1278e8faf58/34xse.mulliganmosaicselectCD2.part2.rar.html
http://rapidgator.net/file/1b88b0021e544afef95811844feff97e/34xse.mulliganmosaicselectCD2.part3.rar.html
http://rapidgator.net/file/d3234902a8b4f6639c93a67aa4924279/34xse.mulliganmosaicselectCD2MP.rar.html
http://rapidgator.net/file/e35679eb38bd8ab0e8a009bba34c164e/34xse.mulliganmosaicselectCD3MP.rar.html

Uploaded.net:
http://uploaded.net/file/ddfw6jvo/34xse.mulliganmosaicselectARTWORK.rar
http://uploaded.net/file/7amgobx1/34xse.mulliganmosaicselectCD1.part1.rar
http://uploaded.net/file/4ph6toz0/34xse.mulliganmosaicselectCD1.part2.rar
http://uploaded.net/file/xjkp83b4/34xse.mulliganmosaicselectCD1.part3.rar
http://uploaded.net/file/5nqxdugr/34xse.mulliganmosaicselectCD1MP.rar
http://uploaded.net/file/df8yopdg/34xse.mulliganmosaicselectCD2.part1.rar
http://uploaded.net/file/kojrctlz/34xse.mulliganmosaicselectCD2.part2.rar
http://uploaded.net/file/fx1uwp0p/34xse.mulliganmosaicselectCD2.part3.rar
http://uploaded.net/file/fx0b9ltg/34xse.mulliganmosaicselectCD2MP.rar
http://uploaded.net/file/br03un7i/34xse.mulliganmosaicselectCD3MP.rar

OBoom.com:
https://www.oboom.com/DVHGGNL6/34xse.mulliganmosaicselectARTWORK.rar
https://www.oboom.com/QHJOQ567/34xse.mulliganmosaicselectCD1.part1.rar
https://www.oboom.com/9KGIKBF3/34xse.mulliganmosaicselectCD1.part2.rar
https://www.oboom.com/YV2R81K2/34xse.mulliganmosaicselectCD1.part3.rar
https://www.oboom.com/GHSLUU09/34xse.mulliganmosaicselectCD1MP.rar
https://www.oboom.com/XM347MY5/34xse.mulliganmosaicselectCD2.part1.rar
https://www.oboom.com/DQPU8UHH/34xse.mulliganmosaicselectCD2.part2.rar
https://www.oboom.com/1MBK3761/34xse.mulliganmosaicselectCD2.part3.rar
https://www.oboom.com/Q6ACLH48/34xse.mulliganmosaicselectCD2MP.rar
https://www.oboom.com/G9SG46BK/34xse.mulliganmosaicselectCD3MP.rar

Links are Interchangeable - No Password - Single Extraction
Direct Download

Tags: Mulligan, Mosaic, Select, Mosaic, Records

Gerry Mulligan - Mosaic Select 21: 1957-1958 (2006) [3CD Set] {Mosaic Records} Download via Hotfile Rapidshare Fileserve Megaupload & FileSonic, Gerry Mulligan - Mosaic Select 21: 1957-1958 (2006) [3CD Set] {Mosaic Records} free torrent downloads included crack, serial, keygen.Gerry Mulligan - Mosaic Select 21: 1957-1958 (2006) [3CD Set] {Mosaic Records} Fast Download via Rapidshare Hotfile Fileserve Filesonic Megaupload, Gerry Mulligan - Mosaic Select 21: 1957-1958 (2006) [3CD Set] {Mosaic Records} Torrents and Emule Download or anything related.
Leave a Comment
Your Name:
E-Mail:
Add Comments:

Enter Code: