Rufus Featuring Chaka Khan - Rufusized (1974) [2004 Japan Mini-CD]

Download Now

Rufus Featuring Chaka Khan - Rufusized (1974) [2004 Japan Mini-CD]

Rufus Featuring Chaka Khan - Rufusized (1974) [2004 Japan Mini-CD]
EAC Rip | FLAC (Tracks) +CUE, LOG | 286 MB | Covers Included
R&B / Funk | Label: Geffen Records [Japan]| Catalog Number: UICY-9405

"In the early '70s, Rufus was one of the most popular and interesting bands in R&B and rock. Of course, the reason was Chaka Khan, who possessed an amazing voice that was well versed in rock and jazz every bit as much as R&B. Their debut went nowhere, Rags to Rufus offered two instant classics, and Rufusized displayed their skill as album artists. Truth be told, this version of Rufus was nearly a brand-new band, as three members exited and guitarist Tony Maiden and bassist Bobby Watson joined up. The result was a funkier and more talented band who would give Khan the needed earthy and ethereal mix that would make her soar."

Exact Audio Copy V1.0 beta 3 from 29. August 2011

EAC extraction logfile from 4. October 2015, 13:54

Rufus Featuring Chaka Khan / Rufusized

Used drive : GENERIC CDRCB05 Adapter: 4 ID: 0

Read mode : Secure
Utilize accurate stream : Yes
Defeat audio cache : Yes
Make use of C2 pointers : No

Read offset correction

: 102
Overread into Lead-In and Lead-Out : No
Fill up missing offset samples with silence : Yes
Delete leading and trailing silent blocks : No
Null samples used in CRC calculations : Yes
Used interface
: Native Win32 interface for Win NT & 2000
Gap handling
: Appended to previous track

Used output format : User Defined Encoder
Selected bitrate : 1024 kBit/s
Quality : High
Add ID3 tag : No
Command line compressor : C:\Program Files\FLAC\flac.exe
Additional command line options : -8 -V -T "ARTIST=%artist%" -T "TITLE=%title%" -T "ALBUM=%albumtitle%" -T "DATE=%year%" -T "TRACKNUMBER=%tracknr%" -T "GENRE=%genre%" -T "PERFORMER=%albuminterpret%" -T "COMPOSER=%composer%" %haslyrics%--tag-from-file=LYRICS="%lyricsfile%"%haslyrics% -T "ALBUMARTIST=%albumartist%" -T "DISCNUMBER=%cdnumber%" -T "TOTALDISCS=%totalcds%" -T "TOTALTRACKS=%numtracks%" -T "COMMENT=%comment%" %source% -o %dest%

TOC of the extracted CD Track | Start | Length | Start sector | End sector
--1 | 0:00.00 | 4:29.72 | 0 | 20246 2 | 4:29.72 | 3:12.15 | 20247 | 34661 3 | 7:42.12 | 5:06.18 | 34662 | 57629 4 | 12:48.30 | 3:24.25 | 57630 | 72954 5 | 16:12.55 | 3:13.22 | 72955 | 87451 6 | 19:26.02 | 3:16.45 | 87452 | 102196 7 | 22:42.47 | 3:14.03 | 102197 | 116749 8 | 25:56.50 | 3:15.55 | 116750 | 131429 9 | 29:12.30 | 3:03.32 | 131430 | 145186
10 | 32:15.62 | 4:54.15 | 145187 | 167251

Track 1 Filename F:\MUSIC\0000POSTS\Rufus Featuring Chaka Khan - Rufusized (1974) [2004 Japan Mini-CD]\01 - Once You Get Started.wav Pre-gap length 0:00:02.00 Peak level 99.8 %
Extraction speed 2.4 X
Track quality 100.0 %
Test CRC CC901408
Copy CRC CC901408
Cannot be verified as accurate (confidence 3) [204E6232], AccurateRip returned [D575E777] (AR v2)
Copy OK

Track 2 Filename F:\MUSIC\0000POSTS\Rufus Featuring Chaka Khan - Rufusized (1974) [2004 Japan Mini-CD]\02 - Somebody's Watching You.wav Pre-gap length 0:00:01.37 Peak level 99.8 %
Extraction speed 2.0 X
Track quality 99.9 %
Test CRC 0F0FD47E
Copy CRC 0F0FD47E
Cannot be verified as accurate (confidence 3) [30FDFB8B], AccurateRip returned [C9E1D3E4] (AR v2)
Copy OK

Track 3 Filename F:\MUSIC\0000POSTS\Rufus Featuring Chaka Khan - Rufusized (1974) [2004 Japan Mini-CD]\03 - Pack'd My Bags.wav Peak level 99.8 %
Extraction speed 2.6 X
Track quality 100.0 %
Test CRC D130E0FA
Copy CRC D130E0FA
Cannot be verified as accurate (confidence 3) [39D48526], AccurateRip returned [75DAF466] (AR v2)
Copy OK

Track 4 Filename F:\MUSIC\0000POSTS\Rufus Featuring Chaka Khan - Rufusized (1974) [2004 Japan Mini-CD]\04 - Your Smile.wav Peak level 99.8 %
Extraction speed 2.5 X
Track quality 100.0 %
Test CRC CA716C0C
Copy CRC CA716C0C
Cannot be verified as accurate (confidence 3) [6AFE3580], AccurateRip returned [DFF5F8BF] (AR v2)
Copy OK

Track 5 Filename F:\MUSIC\0000POSTS\Rufus Featuring Chaka Khan - Rufusized (1974) [2004 Japan Mini-CD]\05 - Rufusized.wav Pre-gap length 0:00:02.08 Peak level 99.8 %
Extraction speed 2.6 X
Track quality 100.0 %
Test CRC E105CDC8
Copy CRC E105CDC8
Cannot be verified as accurate (confidence 3) [E42D24A9], AccurateRip returned [1414D23A] (AR v2)
Copy OK

Track 6 Filename F:\MUSIC\0000POSTS\Rufus Featuring Chaka Khan - Rufusized (1974) [2004 Japan Mini-CD]\06 - I'm A Woman (I'm A Backbone).wav Peak level 99.8 %
Extraction speed 3.1 X
Track quality 100.0 %
Test CRC 81371ECD
Copy CRC 81371ECD
Cannot be verified as accurate (confidence 3) [84C7488B], AccurateRip returned [806BA399] (AR v2)
Copy OK

Track 7 Filename F:\MUSIC\0000POSTS\Rufus Featuring Chaka Khan - Rufusized (1974) [2004 Japan Mini-CD]\07 - Right Is Right.wav Peak level 99.8 %
Extraction speed 3.2 X
Track quality 100.0 %
Test CRC 9A91C7F1
Copy CRC 9A91C7F1
Cannot be verified as accurate (confidence 3) [3540355F], AccurateRip returned [01222FFC] (AR v2)
Copy OK

Track 8 Filename F:\MUSIC\0000POSTS\Rufus Featuring Chaka Khan - Rufusized (1974) [2004 Japan Mini-CD]\08 - Half Moon.wav Peak level 99.8 %
Extraction speed 3.3 X
Track quality 100.0 %
Test CRC 470E3BBE
Copy CRC 470E3BBE
Cannot be verified as accurate (confidence 3) [F673D2C6], AccurateRip returned [A8D0D99B] (AR v2)
Copy OK

Track 9 Filename F:\MUSIC\0000POSTS\Rufus Featuring Chaka Khan - Rufusized (1974) [2004 Japan Mini-CD]\09 - Please Pardon Me (You Remind Me Of A Friend).wav Peak level 99.8 %
Extraction speed 3.5 X
Track quality 100.0 %
Test CRC 76A6656F
Copy CRC 76A6656F
Cannot be verified as accurate (confidence 3) 3841E27, AccurateRip returned 862C656 (AR v2)
Copy OK

Track 10 Filename F:\MUSIC\0000POSTS\Rufus Featuring Chaka Khan - Rufusized (1974) [2004 Japan Mini-CD]\10 - Stop On By.wav Peak level 99.8 %
Extraction speed 3.7 X
Track quality 100.0 %
Test CRC CD4AADA5
Copy CRC CD4AADA5
Cannot be verified as accurate (confidence 3) [208D5F17], AccurateRip returned [2DD5B992] (AR v2)
Copy OK

No tracks could be verified as accurate
You may have a different pressing from the one(s) in the database

No errors occurred

End of status report

==== Log checksum 45917851D9D91BFFA1244E9A9A72558C80CD5BCA74345D07B72CB3A1394CEB50 ====

Tracklist:
1. Once You Get Started (04:30)
2. Somebody's Watching You (03:12)
3. Pack'd My Bags (05:06)
4. Your Smile (03:24)
5. Rufusized (03:13)
6. I'm a Woman (I'm a Backbone) (03:17)
7. Right Is Right (03:14)
8. Half Moon (03:18)
9. Please Pardon Me (You Remind Me Of A Friend) (03:04)
10. Stop on By (04:56)

Rufus Featuring Chaka Khan - Rufusized (1974) [2004 Japan Mini-CD]


DOWNLOAD:
Buy Premium To Support Me & Get Resumable Support & Max Speed


Links are Interchangeable - No Password
Direct Download

Tags: Featuring, Rufusized

Rufus Featuring Chaka Khan - Rufusized (1974) [2004 Japan Mini-CD] Download via Hotfile Rapidshare Fileserve Megaupload & FileSonic, Rufus Featuring Chaka Khan - Rufusized (1974) [2004 Japan Mini-CD] free torrent downloads included crack, serial, keygen.Rufus Featuring Chaka Khan - Rufusized (1974) [2004 Japan Mini-CD] Fast Download via Rapidshare Hotfile Fileserve Filesonic Megaupload, Rufus Featuring Chaka Khan - Rufusized (1974) [2004 Japan Mini-CD] Torrents and Emule Download or anything related.
Leave a Comment
Your Name:
E-Mail:
Add Comments:

Enter Code: