Pendragon - The Masquerade Overture (1996) [2CD Special Edition]

Download Now

Pendragon - The Masquerade Overture (1996) [2CD Special Edition]

Pendragon - The Masquerade Overture (1996) [2CD Special Edition]
EAC Rip | FLAC (image & cue & log) | 508 MB | MP3 CBR 320 kbps | 173 MB | Scans (JPEG 600 dpi) | 63 MB | 57:03+18:53
Genre: Progressive Rock / Neo-Progressive Rock | Country: UK | Label: Toff Records | PEND7CD

"PENDRAGON's release of "The Masquerade Overture" represents one of the 90's strongest prog releases yet! This brilliant recording sets new heights for neo-prog acts in terms of complete recordings. "The Masquerade Overture" really does capture the essence of concept-like story line and takes the listener into a completely new world. I love the mix of opera, orchestra and the symphonic tendency of PENDRAGON which seems to work to perfection on this release. There are some nice and tasty guitar / bass parts scattered throughout all of the songs. At several key points I get a strong PINK FLOYD feel, but I may be the only one who gets this? Nick Barrett adds some great vocals throughout which give it that unmistakeable PENDRAGON feel. "



Tracklist:

CD1
1. The Masquerade Overture (Barrett) 3:03
2. As Good As Gold (Barrett) 7:15
3. Paintbox (Barrett) 8:38
4. The Pursuit Of Excellence (Barrett) 2:36
5. Guardian Of My Soul (Barrett) 12:41
6. The Shadow (Barrett) 9:55
7. Masters Of Illusion (Barrett) 12:50
CD2
1. As Good As Gold (Barrett) 3:29
2. Masters Of Illusion (Barrett) 3:35
3. Schizo (Barrett) 7:01
4. The King Of The Castle (The Shadow, Pt. 2) (Barrett) 4:45

Exact Audio Copy V0.99 prebeta 4 from 23. January 2008
Отчёт EAC об извлечении, выполненном 18. мая 2010, 23:54
Pendragon / The Masquerade Overture
Дисковод: ASUS DRW-20B1LT Adapter: 4 ID: 0
Режим чтения : Достоверность
Использование точного потока : Да
Отключение кэша аудио : Да
Использование указателей C2 : Нет
Коррекция смещения при чтении : 6
Способность читать области Lead-in и Lead-out : Нет
Заполнение пропущенных сэмплов тишиной : Да
Удаление блоков с тишиной в начале и конце : Нет
При вычислениях CRC использовались нулевые сэмплы : Да
Интерфейс : Встроенный Win32-интерфейс для Win NT/2000
Выходной формат : Пользовательский кодировщик
Выбранный битрейт : 768 kBit/s
Качество : Высокий
Добавление ID3-тэга : Нет
Утилита сжатия : D:\Program Files\Exact Audio Copy\Flac\Flac.exe
Дополнительные параметры : -8 --delete-input-file -o "D:\CDImage.flac" -V %s
TOC извлечённого CD
Трек | Старт | Длительность | Начальный сектор | Конечный сектор

1 | 0:00.00 | 3:03.17 | 0 | 13741
2 | 3:03.17 | 7:15.23 | 13742 | 46389
3 | 10:18.40 | 8:38.65 | 46390 | 85304
4 | 18:57.30 | 2:36.47 | 85305 | 97051
5 | 21:34.02 | 12:41.50 | 97052 | 154176
6 | 34:15.52 | 9:55.13 | 154177 | 198814
7 | 44:10.65 | 12:50.72 | 198815 | 256636
Характеристики диапазона извлечения и сообщения об ошибках
Выбранный диапазон
Имя файла D:\Pendragon - The Masquerade Overture.wav
Пиковый уровень 99.2 %
Качество диапазона 100.0 %
CRC теста 1FF7A8E1
CRC копии 1FF7A8E1
Копирование... OK
Ошибок не произошло
AccurateRip: сводка
Трек 1 точное извлечение (доверие 32) [3CE6277F]
Трек 2 точное извлечение (доверие 32) [1F6F638B]
Трек 3 точное извлечение (доверие 32) [0AB54528]
Трек 4 точное извлечение (доверие 32) [D699ABA1]
Трек 5 точное извлечение (доверие 32) [A9FB43D6]
Трек 6 точное извлечение (доверие 32) [F55A54ED]
Трек 7 точное извлечение (доверие 31) [9A653D63]
Все треки извлечены точно
Конец отчёта

Exact Audio Copy V0.99 prebeta 4 from 23. January 2008
Отчёт EAC об извлечении, выполненном 18. мая 2010, 23:29
Pendragon / The Masquerade Overture Disk 2
Дисковод: ASUS DRW-20B1LT Adapter: 4 ID: 0
Режим чтения : Достоверность
Использование точного потока : Да
Отключение кэша аудио : Да
Использование указателей C2 : Нет
Коррекция смещения при чтении : 6
Способность читать области Lead-in и Lead-out : Нет
Заполнение пропущенных сэмплов тишиной : Да
Удаление блоков с тишиной в начале и конце : Нет
При вычислениях CRC использовались нулевые сэмплы : Да
Интерфейс : Встроенный Win32-интерфейс для Win NT/2000
Выходной формат : Пользовательский кодировщик
Выбранный битрейт : 768 kBit/s
Качество : Высокий
Добавление ID3-тэга : Нет
Утилита сжатия : D:\Program Files\Exact Audio Copy\Flac\Flac.exe
Дополнительные параметры : -8 --delete-input-file -o "D:\CDImage.flac" -V %s
TOC извлечённого CD
Трек | Старт | Длительность | Начальный сектор | Конечный сектор

1 | 0:00.00 | 3:29.35 | 0 | 15709
2 | 3:29.35 | 3:35.15 | 15710 | 31849
3 | 7:04.50 | 7:01.22 | 31850 | 63446
4 | 14:05.72 | 4:45.15 | 63447 | 84836
Характеристики диапазона извлечения и сообщения об ошибках
Выбранный диапазон
Имя файла D:\Pendragon - The Masquerade Overture Disk 2.wav
Пиковый уровень 99.2 %
Качество диапазона 100.0 %
CRC теста EE474C53
CRC копии EE474C53
Копирование... OK
Ошибок не произошло
AccurateRip: сводка
Трек 1 точное извлечение (доверие 25) [44CC9203]
Трек 2 точное извлечение (доверие 25) [92508B40]
Трек 3 точное извлечение (доверие 25) [12337413]
Трек 4 точное извлечение (доверие 25) [A0D59D7C]
Все треки извлечены точно
Конец отчёта

Personnel

Nick Barrett - Guitars, Vocals
Clive Nolan - Keyboards
Fudge Smith - Drums
Peter Gee - Bass guitar
Backing vocals - Tracy Hitchings, Nick Barrett, Tina Riley, Anthony Plowman, Gwen Ross, Simon Clew

All thanks to orbster

Pendragon - The Masquerade Overture (1996) [2CD Special Edition]


DOWNLOAD LINKS
(Premium Recommended)


Links are Interchangeable - No Password - Single Extraction
Direct Download

Tags: Pendragon, Masquerade, Overture, Special

Pendragon - The Masquerade Overture (1996) [2CD Special Edition] Download via Hotfile Rapidshare Fileserve Megaupload & FileSonic, Pendragon - The Masquerade Overture (1996) [2CD Special Edition] free torrent downloads included crack, serial, keygen.Pendragon - The Masquerade Overture (1996) [2CD Special Edition] Fast Download via Rapidshare Hotfile Fileserve Filesonic Megaupload, Pendragon - The Masquerade Overture (1996) [2CD Special Edition] Torrents and Emule Download or anything related.
Leave a Comment
Your Name:
E-Mail:
Add Comments:

Enter Code: