Bach J.S. - Messe h-moll; Mass B minor BWV 232 (Thomas Hengelbrock) [1997]

Download Now

Bach J.S. - Messe h-moll; Mass B minor BWV 232 (Thomas Hengelbrock) [1997]


Bach J.S. - Messe h-moll; Mass B minor BWV 232 (Thomas Hengelbrock) [1997]
EAC Rip | FLAC, IMG+CUE, LOG | Covers | 2cd, 478.72 MB
Classical | Label: DHM | Catalog Number: 05472 77380 2

" Without doubt, the selecction of ones favourite recording within the vast sellection of interpretations of Bach's Mass in B-Minor is a difficult task. I have sung this mass and heard more than ten different recordings of this "miracle of mighty mountain range in the planet of music". For me, Hengelbrocks recording is by far the best one: first of all, Hengelbrocks interpretation is very inspired, with convincing and sometimes innovative tempi, as for instance in the opening Kyrie which, for the first time, I could sense as a funeral march; second, the chorus is brillant, for me even better than the international "stars" as for example the Monteverdi Choir; third, the Soloists wich are members of the choir, integrate perfectly in the whole picture of this master piece; fourth, the balance engineers have done an exceptional work which allows you to hear every detail of the orchestra, soloists and choirs in perfect balance. "

Tracklisting:
CD1
01. Ester Teil. KYRIE. Chorus: Kyrie eleison
02. Duetto (Soprano I & II): Christe eleison
03. Chorus: Kyrie eleison
04. GLORIA. Chorus: Gloria in excelsis Deo
05. Chorus: Et in terra pax
06. Aria (Soprano): Laudamus te
07. Chorus: Gratias agimus tibi
08. Duetto (Soprano & Tenor): Domine Deus
09. Chorus: Qui tollis peccata mundi
10. Aria (Altus): Qui sedes ad dexteram patris
11. Aria (Basso): Quoniam tu solus Sanctus
12. Chorus: Cum Sancto Spiritu
CD2
01. Zweiter Teil. CREDO. Chorus: Credo in unum Deum
02. Chorus: Patrem omnipotentem
03. Duetto (Soprano & Altus): Et in unum Deum
04. Chorus: Et incarnatus est
05. Chorus: Crucifixus
06. Chorus: Et resurrexit
07. Aria (Basso): Et in Spiritum Sanctum
08. Chorus: Confiteor
09. Chorus: Et expecto
10. SANCTUS. Chorus: Sanctus
11. Doppel-Chorus: Osanna
12. Aria (Tenor): Benedictus
13. Doppel-Chorus: Osanna
14. AGNUS DEI. Aria (Altus): Agnus Dei
15. Chorus: Dona nobis pacem

Exact Audio Copy V1.0 beta 1 from 15. November 2010

EAC extraction logfile from 12. July 2011, 22:27

Thomas Hengelbrock, Balthasar-Neumann-Chor, Freiburger Barockorchester / Bach - Mass in B minor, BWV 232 - CD1

Used drive : PIONEER DVD-RW DVR-218L Adapter: 1 ID: 0

Read mode : Secure
Utilize accurate stream : Yes
Defeat audio cache : Yes
Make use of C2 pointers : No

Read offset correction

: 6
Overread into Lead-In and Lead-Out : No
Fill up missing offset samples with silence : Yes
Delete leading and trailing silent blocks : No
Null samples used in CRC calculations : Yes
Used interface
: Native Win32 interface for Win NT & 2000

Used output format : User Defined Encoder
Selected bitrate : 192 kBit/s
Quality : High
Add ID3 tag : No
Command line compressor : C:\Program Files\Exact Audio Copy\Flac\flac.exe
Additional command line options : -T "DATE=%y" -T "GENRE=%m" -8 -V %s

TOC of the extracted CD Track | Start | Length | Start sector | End sector
--1 | 0:00.00 | 11:32.62 | 0 | 51961 2 | 11:32.62 | 4:46.65 | 51962 | 73476 3 | 16:19.52 | 4:17.18 | 73477 | 92769 4 | 20:36.70 | 1:37.37 | 92770 | 100081 5 | 22:14.32 | 4:38.73 | 100082 | 121004 6 | 26:53.30 | 4:13.40 | 121005 | 140019 7 | 31:06.70 | 3:11.32 | 140020 | 154376 8 | 34:18.27 | 5:24.33 | 154377 | 178709 9 | 39:42.60 | 3:12.30 | 178710 | 193139
10 | 42:55.15 | 5:11.10 | 193140 | 216474
11 | 48:06.25 | 4:37.42 | 216475 | 237291
12 | 52:43.67 | 3:36.70 | 237292 | 253561

Range status and errors

Selected range Filename C:\Bach - Mass in B minor, BWV 232 - CD1.wav Peak level 98.8 %
Extraction speed 0.1 X
Range quality 100.0 %
Test CRC F57CE90A
Copy CRC F57CE90A
Copy OK

No errors occurred


AccurateRip summary

Track 1 accurately ripped (confidence 6) [34C8D132]
Track 2 accurately ripped (confidence 6) [DE065F55]
Track 3 accurately ripped (confidence 6) [3127A2DD]
Track 4 accurately ripped (confidence 6) [D4EE221A]
Track 5 accurately ripped (confidence 6) [6B2C9EDF]
Track 6 accurately ripped (confidence 6) [06EF1EB1]
Track 7 accurately ripped (confidence 6) [A804F36D]
Track 8 accurately ripped (confidence 6) [27EFD942]
Track 9 accurately ripped (confidence 6) [A01CC8FB]
Track 10 accurately ripped (confidence 6) [36987CF2]
Track 11 accurately ripped (confidence 6) [0FBCEB40]
Track 12 accurately ripped (confidence 6) [80C8EC4A]

All tracks accurately ripped

End of status report

==== Log checksum F897613CF4D9B127046AE3795961534D3C4D07BC88FE5F0BAFCBE16CB4D47E1A ====



Exact Audio Copy V1.0 beta 1 from 15. November 2010

EAC extraction logfile from 12. July 2011, 23:51

Thomas Hengelbrock, Balthasar-Neumann-Chor, Freiburger Barockorchester / Bach - Mass in B minor BWV 232 - CD2

Used drive : PIONEER DVD-RW DVR-218L Adapter: 1 ID: 0

Read mode : Secure
Utilize accurate stream : Yes
Defeat audio cache : Yes
Make use of C2 pointers : No

Read offset correction

: 6
Overread into Lead-In and Lead-Out : No
Fill up missing offset samples with silence : Yes
Delete leading and trailing silent blocks : No
Null samples used in CRC calculations : Yes
Used interface
: Native Win32 interface for Win NT & 2000

Used output format : User Defined Encoder
Selected bitrate : 192 kBit/s
Quality : High
Add ID3 tag : No
Command line compressor : C:\Program Files\Exact Audio Copy\Flac\flac.exe
Additional command line options : -T "DATE=%y" -T "GENRE=%m" -8 -V %s

TOC of the extracted CD Track | Start | Length | Start sector | End sector
--1 | 0:00.00 | 1:45.27 | 0 | 7901 2 | 1:45.27 | 1:48.33 | 7902 | 16034 3 | 3:33.60 | 4:29.12 | 16035 | 36221 4 | 8:02.72 | 3:04.70 | 36222 | 50091 5 | 11:07.67 | 3:48.18 | 50092 | 67209 6 | 14:56.10 | 3:34.25 | 67210 | 83284 7 | 18:30.35 | 5:02.25 | 83285 | 105959 8 | 23:32.60 | 3:42.12 | 105960 | 122621 9 | 27:14.72 | 1:58.55 | 122622 | 131526
10 | 29:13.52 | 5:17.23 | 131527 | 155324
11 | 34:31.00 | 2:22.72 | 155325 | 166046
12 | 36:53.72 | 4:28.50 | 166047 | 186196
13 | 41:22.47 | 2:21.40 | 186197 | 196811
14 | 43:44.12 | 5:40.65 | 196812 | 222376
15 | 49:25.02 | 3:31.08 | 222377 | 238209

Range status and errors

Selected range Filename C:\Bach - Mass in B minor BWV 232 - CD2.wav Peak level 100.0 %
Extraction speed 0.1 X
Range quality 100.0 %
Test CRC D83ED160
Copy CRC D83ED160
Copy OK

No errors occurred


AccurateRip summary

Track 1 accurately ripped (confidence 6) [132BACD7]
Track 2 accurately ripped (confidence 6) [8F534744]
Track 3 accurately ripped (confidence 6) [0D4C2C75]
Track 4 accurately ripped (confidence 6) [CEEFCB25]
Track 5 accurately ripped (confidence 6) [90E07A4E]
Track 6 accurately ripped (confidence 6) [F533DE45]
Track 7 accurately ripped (confidence 6) [13CF450F]
Track 8 accurately ripped (confidence 6) [959FEBEF]
Track 9 accurately ripped (confidence 6) [79F97923]
Track 10 accurately ripped (confidence 6) 55D81C2
Track 11 accurately ripped (confidence 6) [A16BFE92]
Track 12 accurately ripped (confidence 6) [FA4C6720]
Track 13 accurately ripped (confidence 6) [98F11C49]
Track 14 accurately ripped (confidence 6) [C4DDC1F1]
Track 15 accurately ripped (confidence 6) [464C6929]

All tracks accurately ripped

End of status report

==== Log checksum 3E44A32252092E9CE9459D678F1E3523DA7BEEF7DCD43B90115A2683FD22EB2D ====


Performer:
Balthasar-Neumann-Chor
Freiburger Barockorchester
Conductor - Thomas Hengelbrock
DOWNLOAD:
Buy Premium To Support Me & Get Resumable Support & Max Speed


Links are Interchangeable - No Password
Direct Download

Tags: Thomas, Hengelbrock

Bach J.S. - Messe h-moll; Mass B minor BWV 232 (Thomas Hengelbrock) [1997] Download via Hotfile Rapidshare Fileserve Megaupload & FileSonic, Bach J.S. - Messe h-moll; Mass B minor BWV 232 (Thomas Hengelbrock) [1997] free torrent downloads included crack, serial, keygen.Bach J.S. - Messe h-moll; Mass B minor BWV 232 (Thomas Hengelbrock) [1997] Fast Download via Rapidshare Hotfile Fileserve Filesonic Megaupload, Bach J.S. - Messe h-moll; Mass B minor BWV 232 (Thomas Hengelbrock) [1997] Torrents and Emule Download or anything related.
Leave a Comment
Your Name:
E-Mail:
Add Comments:

Enter Code: