VA - Café del Mar: 35th Anniversary 1980-2015 (2014) 3CD Set

Download Now

VA - Café del Mar: 35th Anniversary 1980-2015 (2014) 3CD Set

VA - Café del Mar: 35th Anniversary 1980-2015 (2014) 3CD Set
EAC | FLAC | Tracks (Cue&Log) ~ 1.2 Gb (incl 5%) | Mp3 (CBR320) ~ 543 Mb (incl 5%) | Scans included
Genre: Lounge, Ambient, Chillout, New Age | Label: Café del Mar | # 01-2014-107 | Time: 03:32:13

"Café del Mar was opened on Ibiza on the 20th of June 1980. The concept was quite simple: Music for the fantastic sunset view. In its early days Café del Mar has been a well-known meeting point for the locals and an inspiration for artists and writers. In the 90s it has developed into one of the most famous spots on Ibiza, which often was chosen for big media-events of MTV, BBC Radio 1 or Channel 4. But most of all Café del Mar is well-known worldwide for their annual chillout compilations. The first official Café del Mar CD was released in 1994, based on the big amount of requests by the fans of the Café. It was a worldwide success and became the starting point to a range, which has gained a great reputation and millions of sales. Café del Mar 35th Anniversary now delivers a wide musical overview on the previous 35 years of this great location. Here you'll find contributions from fantastic acts like Art Of Noise, John Williams, Nightmares On Wax, Moby and M83."



Tracklist:

CD1:

01. Cagedbaby - Marmalade (04:45)
02. Kid Loco - A Grand Love Theme (03:59)
03. Quantic - The 5th Exotic (04:09)
04. Caia - Le Telecabine (07:03)
05. Tom Middleton - Astral Projection (04:38)
06. Nightmares on Wax - Les Nuits (06:18)
07. A Man Called Adam - All My Favourite People (Stay with Me) (06:29)
08. Skanna - This Way (07:01)
09. Beanfield - Charles (06:17)
10. Fortunato & Montresor - Imagine (Imagination 2) (06:54)
11. Jakatta - Strung Out (10:14)
12. Jon Hopkins - Candles (02:28)
13. M83 - In the Cold I'm Standing (04:04)

CD2:

01. The Amalgamation Of Soundz - Textures (05:10)
02. Raze - Break 4 Love (Skunk Dub) (07:39)
03. Kamasutra - Sugar Steps (06:28)
04. Stonebridge feat. Therese - Put 'Em High (Claes Rosen Lounge Mix) (05:39)
05. Sydenham & Ferrer - Sandcastles (Afterlife Mix) (05:19)
06. G Club presents Banda Sonora - Guitarra G (Afterlife Mix) (05:50)
07. Chymera - Umbrella (Beatless Mix) (03:33)
08. Mike Monday - When The Rain Falls (03:24)
09. Bent - I Love My Man (05:45)
10. Coco, Steel & Lovebomb - Sun Set (06:24)
11. Chicane - Already There (Album Mix) (02:55)
12. Bliss - When History Was Made (02:57)
13. Penguin Cafe - Coriolis (02:01)

CD3:

01. Amorphous Androgynous - Mountain Goat (2014) (04:43)
02. Young American Primitive - Sunrise (05:46)
03. Art of Noise - Moments in Love (Beaten) (06:50)
04. Autechre - Nine (03:40)
05. Aphex Twin - Untitled 3 (07:32)
06. John Beltran - Gutaris Breeze (6000 km to Armsterdam) (07:41)
07. Moby - My Beautiful Blue Sky (05:19)
08. Tura - Reishi (08:59)
09. Ian O'Brien - Vagalume (02:27)
10. The Detroit Escalator Co. - The Inverted Man Falling (03:45)
11. Wim Mertens - Struggle for Pleasure (03:51)
12. Constance Demby - Waltz of Joy (04:40)
13. Steven Halpern - The Light in Your Eyes (05:47)
14. John Williams - Cavatina (Theme From The Deer Hunter) (03:31)


Exact Audio Copy V1.0 beta 4 from 7. December 2014

EAC extraction logfile from 9. October 2015, 17:12

Various Artists / Cafe del Mar - 35-th Anniversary (1980 - 2015) CD1

Used drive : ASUS DRW-24B3ST Adapter: 1 ID: 2

Read mode : Secure
Utilize accurate stream : Yes
Defeat audio cache : Yes
Make use of C2 pointers : No

Read offset correction

: 6
Overread into Lead-In and Lead-Out : No
Fill up missing offset samples with silence : Yes
Delete leading and trailing silent blocks : No
Null samples used in CRC calculations : Yes
Used interface
: Native Win32 interface for Win NT & 2000
Gap handling
: Appended to previous track

Used output format : User Defined Encoder
Selected bitrate : 896 kBit/s
Quality : High
Add ID3 tag : No
Command line compressor : C:\Program Files (x86)\Exact Audio Copy\Flac\flac.exe
Additional command line options : -8 -V -T "ARTIST=%artist%" -T "TITLE=%title%" -T "ALBUM=%albumtitle%" -T "DATE=%year%" -T "TRACKNUMBER=%tracknr%" -T "GENRE=%genre%" -T "COMMENT=ripped by Oleandris" %source%

TOC of the extracted CD Track | Start | Length | Start sector | End sector
--1 | 0:00.00 | 4:45.60 | 0 | 21434 2 | 4:45.60 | 3:59.66 | 21435 | 39425 3 | 8:45.51 | 4:09.64 | 39426 | 58164 4 | 12:55.40 | 7:03.69 | 58165 | 89958 5 | 19:59.34 | 4:38.40 | 89959 | 110848 6 | 24:37.74 | 6:18.16 | 110849 | 139214 7 | 30:56.15 | 6:29.73 | 139215 | 168462 8 | 37:26.13 | 7:01.19 | 168463 | 200056 9 | 44:27.32 | 6:17.43 | 200057 | 228374
10 | 50:45.00 | 6:54.50 | 228375 | 259474
11 | 57:39.50 | 10:14.08 | 259475 | 305532
12 | 67:53.58 | 2:28.41 | 305533 | 316673
13 | 70:22.24 | 4:04.09 | 316674 | 334982

Track 1 Filename F:\AUDIO - I\ Ambient - Chill Out - Lounge - Easy Listening - Electronic\ Cafe Del Mar 20-th, 25-th Anniversary, 30 Years Of Music (2000, 2005, 2010)\Cafe Del Mar 35 Anniversary 3CD (2014)\CD1\01. Cagedbaby - Marmalade.wav Pre-gap length 0:00:02.00 Peak level 76.5 %
Extraction speed 5.7 X
Track quality 100.0 %
Test CRC D2A15662
Copy CRC D2A15662
Accurately ripped (confidence 5) [61D6A975] (AR v2)
Copy OK

Track 2 Filename F:\AUDIO - I\ Ambient - Chill Out - Lounge - Easy Listening - Electronic\ Cafe Del Mar 20-th, 25-th Anniversary, 30 Years Of Music (2000, 2005, 2010)\Cafe Del Mar 35 Anniversary 3CD (2014)\CD1\02. Kid Loco - A Grand Love Theme.wav Peak level 89.1 %
Extraction speed 6.0 X
Track quality 100.0 %
Test CRC 3B68A38E
Copy CRC 3B68A38E
Accurately ripped (confidence 8) [A8EFE0D3] (AR v2)
Copy OK

Track 3 Filename F:\AUDIO - I\ Ambient - Chill Out - Lounge - Easy Listening - Electronic\ Cafe Del Mar 20-th, 25-th Anniversary, 30 Years Of Music (2000, 2005, 2010)\Cafe Del Mar 35 Anniversary 3CD (2014)\CD1\03. Quantic - The 5th Exotic.wav Peak level 78.8 %
Extraction speed 6.5 X
Track quality 100.0 %
Test CRC 6C8CF55B
Copy CRC 6C8CF55B
Accurately ripped (confidence 7) [64302383] (AR v2)
Copy OK

Track 4 Filename F:\AUDIO - I\ Ambient - Chill Out - Lounge - Easy Listening - Electronic\ Cafe Del Mar 20-th, 25-th Anniversary, 30 Years Of Music (2000, 2005, 2010)\Cafe Del Mar 35 Anniversary 3CD (2014)\CD1\04. Caia - Le Telecabine.wav Pre-gap length 0:00:02.00 Peak level 100.0 %
Extraction speed 7.5 X
Track quality 100.0 %
Test CRC 53EF5187
Copy CRC 53EF5187
Accurately ripped (confidence 10) [64B17CAC] (AR v2)
Copy OK

Track 5 Filename F:\AUDIO - I\ Ambient - Chill Out - Lounge - Easy Listening - Electronic\ Cafe Del Mar 20-th, 25-th Anniversary, 30 Years Of Music (2000, 2005, 2010)\Cafe Del Mar 35 Anniversary 3CD (2014)\CD1\05. Tom Middleton - Astral Projection.wav Peak level 59.8 %
Extraction speed 6.5 X
Track quality 99.9 %
Test CRC 28C01F09
Copy CRC 28C01F09
Accurately ripped (confidence 10) [EE0B9B85] (AR v2)
Copy OK

Track 6 Filename F:\AUDIO - I\ Ambient - Chill Out - Lounge - Easy Listening - Electronic\ Cafe Del Mar 20-th, 25-th Anniversary, 30 Years Of Music (2000, 2005, 2010)\Cafe Del Mar 35 Anniversary 3CD (2014)\CD1\06. Nightmares on Wax - Les Nuits.wav Peak level 92.4 %
Extraction speed 8.6 X
Track quality 100.0 %
Test CRC 28AE3A79
Copy CRC 28AE3A79
Accurately ripped (confidence 10) [1D9D31AD] (AR v2)
Copy OK

Track 7 Filename F:\AUDIO - I\ Ambient - Chill Out - Lounge - Easy Listening - Electronic\ Cafe Del Mar 20-th, 25-th Anniversary, 30 Years Of Music (2000, 2005, 2010)\Cafe Del Mar 35 Anniversary 3CD (2014)\CD1\07. A Man Called Adam - All My Favourite People Peak level 76.4 %
Extraction speed 9.1 X
Track quality 100.0 %
Test CRC F60E3C29
Copy CRC F60E3C29
Accurately ripped (confidence 10) [F8E8547C] (AR v2)
Copy OK

Track 8 Filename F:\AUDIO - I\ Ambient - Chill Out - Lounge - Easy Listening - Electronic\ Cafe Del Mar 20-th, 25-th Anniversary, 30 Years Of Music (2000, 2005, 2010)\Cafe Del Mar 35 Anniversary 3CD (2014)\CD1\08. Skanna - This Way.wav Peak level 68.4 %
Extraction speed 9.6 X
Track quality 100.0 %
Test CRC 7D69EBF9
Copy CRC 7D69EBF9
Accurately ripped (confidence 10) [804DE9F1] (AR v2)
Copy OK

Track 9 Filename F:\AUDIO - I\ Ambient - Chill Out - Lounge - Easy Listening - Electronic\ Cafe Del Mar 20-th, 25-th Anniversary, 30 Years Of Music (2000, 2005, 2010)\Cafe Del Mar 35 Anniversary 3CD (2014)\CD1\09. Beanfield - Charles.wav Peak level 97.7 %
Extraction speed 10.1 X
Track quality 100.0 %
Test CRC D762A156
Copy CRC D762A156
Accurately ripped (confidence 10) EC2A0C8 (AR v2)
Copy OK

Track 10 Filename F:\AUDIO - I\ Ambient - Chill Out - Lounge - Easy Listening - Electronic\ Cafe Del Mar 20-th, 25-th Anniversary, 30 Years Of Music (2000, 2005, 2010)\Cafe Del Mar 35 Anniversary 3CD (2014)\CD1\10. Fortunato & Montresor - Imagine (Imagination Peak level 78.6 %
Extraction speed 9.2 X
Track quality 99.9 %
Test CRC 25BE0681
Copy CRC 25BE0681
Accurately ripped (confidence 10) [7CC57BA1] (AR v2)
Copy OK

Track 11 Filename F:\AUDIO - I\ Ambient - Chill Out - Lounge - Easy Listening - Electronic\ Cafe Del Mar 20-th, 25-th Anniversary, 30 Years Of Music (2000, 2005, 2010)\Cafe Del Mar 35 Anniversary 3CD (2014)\CD1\11. Jakatta - Strung Out.wav Peak level 89.7 %
Extraction speed 11.4 X
Track quality 100.0 %
Test CRC CFEEF480
Copy CRC CFEEF480
Accurately ripped (confidence 10) [7141EC19] (AR v2)
Copy OK

Track 12 Filename F:\AUDIO - I\ Ambient - Chill Out - Lounge - Easy Listening - Electronic\ Cafe Del Mar 20-th, 25-th Anniversary, 30 Years Of Music (2000, 2005, 2010)\Cafe Del Mar 35 Anniversary 3CD (2014)\CD1\12. Jon Hopkins - Candles.wav Peak level 51.4 %
Extraction speed 9.8 X
Track quality 100.0 %
Test CRC 43F135C3
Copy CRC 43F135C3
Accurately ripped (confidence 10) [6B672783] (AR v2)
Copy OK

Track 13 Filename F:\AUDIO - I\ Ambient - Chill Out - Lounge - Easy Listening - Electronic\ Cafe Del Mar 20-th, 25-th Anniversary, 30 Years Of Music (2000, 2005, 2010)\Cafe Del Mar 35 Anniversary 3CD (2014)\CD1\13. M83 - In the Cold I'm Standing.wav Peak level 59.5 %
Extraction speed 10.7 X
Track quality 100.0 %
Test CRC 6692EA63
Copy CRC 6692EA63
Accurately ripped (confidence 10) [C11C2BF7] (AR v2)
Copy OK

All tracks accurately ripped

No errors occurred

End of status report

- CUETools DB Plugin V2.1.4

[CTDB TOCID: tszc87wPGXx2YgYe7nga9B.kXy0-] found
Submit result: already submitted
Track | CTDB Status
1 | (10/12) Accurately ripped, or (1/12) differs in 35 samples @01:22:24,01:22:33,01:22:43,02:34:25,02:34:46,02:34:56,02:35:12,02:35:21,02:35:42-02:35:43,03:55:30, or (1/12) differs in 79 samples @01:09:22-01:09:23,01:22:63,03:26:00-03:26:01
2 | (11/12) Accurately ripped, or (1/12) differs in 71 samples @03:24:13-03:24:14,03:24:25
3 | (11/12) Accurately ripped, or (1/12) differs in 9 samples @02:24:51
4 | (12/12) Accurately ripped
5 | (12/12) Accurately ripped
6 | (12/12) Accurately ripped
7 | (12/12) Accurately ripped
8 | (12/12) Accurately ripped
9 | (12/12) Accurately ripped
10 | (12/12) Accurately ripped
11 | (12/12) Accurately ripped
12 | (12/12) Accurately ripped
13 | (12/12) Accurately ripped

==== Log checksum 91593A988971E4306C5D80E5591A461B6133C80F491329829242BBA4EBEC3922 ====

foobar2000 1.2 / Dynamic Range Meter 1.1.1
log date: 2015-10-11 17:29:56

Analyzed: A Man Called Adam / Cafe del Mar - 35-th Anniversary (1980 - 2015) CD1 (1) Beanfield / Cafe del Mar - 35-th Anniversary (1980 - 2015) CD1 (2) Cagedbaby / Cafe del Mar - 35-th Anniversary (1980 - 2015) CD1 (3) Caia / Cafe del Mar - 35-th Anniversary (1980 - 2015) CD1 (4) Fortunato & Montresor / Cafe del Mar - 35-th Anniversary (1980 - 2015) CD1 (5) Jakatta / Cafe del Mar - 35-th Anniversary (1980 - 2015) CD1 (6) Jon Hopkins / Cafe del Mar - 35-th Anniversary (1980 - 2015) CD1 (7) Kid Loco / Cafe del Mar - 35-th Anniversary (1980 - 2015) CD1 (8) M83 / Cafe del Mar - 35-th Anniversary (1980 - 2015) CD1 (9) Nightmares on Wax / Cafe del Mar - 35-th Anniversary (1980 - 2015) CD1 (10) Quantic / Cafe del Mar - 35-th Anniversary (1980 - 2015) CD1 (11) Skanna / Cafe del Mar - 35-th Anniversary (1980 - 2015) CD1 (12) Tom Middleton / Cafe del Mar - 35-th Anniversary (1980 - 2015) CD1 (13)

DR Peak RMS Duration Track

DR10 -2.34 dB -14.73 dB 6:30 07-All My Favourite People (Stay with Me)
DR13 -0.20 dB -15.02 dB 6:18 09-Charles
DR12 -2.32 dB -17.97 dB 4:46 01-Marmalade
DR13 0.00 dB -16.02 dB 7:04 04-Le Telecabine
DR11 -2.08 dB -15.45 dB 6:55 10-Imagine (Imagination 2)
DR12 -0.94 dB -17.49 dB 10:14 11-Strung Out
DR7 -5.78 dB -17.25 dB 2:29 12-Candles
DR12 -1.00 dB -14.43 dB 4:00 02-A Grand Love Theme
DR10 -4.50 dB -16.95 dB 4:04 13-In the Cold I'm Standing
DR11 -0.68 dB -14.50 dB 6:18 06-Les Nuits
DR10 -2.06 dB -15.69 dB 4:10 03-The 5th Exotic
DR12 -3.30 dB -17.51 dB 7:01 08-This Way
DR9 -4.47 dB -15.55 dB 4:39 05-Astral Projection

Number of tracks: 13
Official DR value: DR11

Samplerate: 44100 Hz
Channels: 2
Bits per sample: 16
Bitrate: 783 kbps
Codec: FLAC

Exact Audio Copy V1.0 beta 4 from 7. December 2014

EAC extraction logfile from 9. October 2015, 17:05

Various Artists / Cafe del Mar - 35-th Anniversary (1980 - 2015) CD2

Used drive : PLEXTOR DVDR PX-L890SA Adapter: 1 ID: 0

Read mode : Secure
Utilize accurate stream : Yes
Defeat audio cache : Yes
Make use of C2 pointers : No

Read offset correction

: 6
Overread into Lead-In and Lead-Out : No
Fill up missing offset samples with silence : Yes
Delete leading and trailing silent blocks : No
Null samples used in CRC calculations : Yes
Used interface
: Native Win32 interface for Win NT & 2000
Gap handling
: Appended to previous track

Used output format : User Defined Encoder
Selected bitrate : 896 kBit/s
Quality : High
Add ID3 tag : No
Command line compressor : C:\Program Files (x86)\Exact Audio Copy\Flac\flac.exe
Additional command line options : -8 -V -T "ARTIST=%artist%" -T "TITLE=%title%" -T "ALBUM=%albumtitle%" -T "DATE=%year%" -T "TRACKNUMBER=%tracknr%" -T "GENRE=%genre%" -T "COMMENT=ripped by Oleandris" %source%

TOC of the extracted CD Track | Start | Length | Start sector | End sector
--1 | 0:00.00 | 5:10.03 | 0 | 23252 2 | 5:10.03 | 7:39.27 | 23253 | 57704 3 | 12:49.30 | 6:28.48 | 57705 | 86852 4 | 19:18.03 | 5:39.31 | 86853 | 112308 5 | 24:57.34 | 5:19.38 | 112309 | 136271 6 | 30:16.72 | 5:50.62 | 136272 | 162583 7 | 36:07.59 | 3:33.56 | 162584 | 178614 8 | 39:41.40 | 3:24.42 | 178615 | 193956 9 | 43:06.07 | 5:45.74 | 193957 | 219905
10 | 48:52.06 | 6:24.23 | 219906 | 248728
11 | 55:16.29 | 2:55.70 | 248729 | 261923
12 | 58:12.24 | 2:57.48 | 261924 | 275246
13 | 61:09.72 | 2:01.48 | 275247 | 284369

Track 1 Filename F:\AUDIO - I\ Ambient - Chill Out - Lounge - Easy Listening - Electronic\ Cafe Del Mar 20-th, 25-th Anniversary, 30 Years Of Music (2000, 2005, 2010)\Cafe Del Mar 35 Anniversary 3CD (2014)\CD2\01. The Amalgamation Of Soundz - Textures.wav Pre-gap length 0:00:02.00 Peak level 56.1 %
Extraction speed 3.9 X
Track quality 100.0 %
Test CRC 8F8731D7
Copy CRC 8F8731D7
Accurately ripped (confidence 10) [DFFA1CE2] (AR v2)
Copy OK

Track 2 Filename F:\AUDIO - I\ Ambient - Chill Out - Lounge - Easy Listening - Electronic\ Cafe Del Mar 20-th, 25-th Anniversary, 30 Years Of Music (2000, 2005, 2010)\Cafe Del Mar 35 Anniversary 3CD (2014)\CD2\02. Raze - Break 4 Love (Skunk Dub).wav Peak level 80.3 %
Extraction speed 4.7 X
Track quality 100.0 %
Test CRC D84B5EC5
Copy CRC D84B5EC5
Accurately ripped (confidence 10) [37C9A125] (AR v2)
Copy OK

Track 3 Filename F:\AUDIO - I\ Ambient - Chill Out - Lounge - Easy Listening - Electronic\ Cafe Del Mar 20-th, 25-th Anniversary, 30 Years Of Music (2000, 2005, 2010)\Cafe Del Mar 35 Anniversary 3CD (2014)\CD2\03. Kamasutra - Sugar Steps.wav Peak level 99.4 %
Extraction speed 5.1 X
Track quality 100.0 %
Test CRC C315E3C3
Copy CRC C315E3C3
Accurately ripped (confidence 10) [84CF215C] (AR v2)
Copy OK

Track 4 Filename F:\AUDIO - I\ Ambient - Chill Out - Lounge - Easy Listening - Electronic\ Cafe Del Mar 20-th, 25-th Anniversary, 30 Years Of Music (2000, 2005, 2010)\Cafe Del Mar 35 Anniversary 3CD (2014)\CD2\04. Stonebridge feat. Therese - Put 'Em High (Cl Peak level 97.8 %
Extraction speed 5.5 X
Track quality 100.0 %
Test CRC 149D6C06
Copy CRC 149D6C06
Accurately ripped (confidence 10) [7AA8051B] (AR v2)
Copy OK

Track 5 Filename F:\AUDIO - I\ Ambient - Chill Out - Lounge - Easy Listening - Electronic\ Cafe Del Mar 20-th, 25-th Anniversary, 30 Years Of Music (2000, 2005, 2010)\Cafe Del Mar 35 Anniversary 3CD (2014)\CD2\05. Sydenham & Ferrer - Sandcastles (Afterlife M Peak level 89.1 %
Extraction speed 5.7 X
Track quality 100.0 %
Test CRC 96C6D2A1
Copy CRC 96C6D2A1
Accurately ripped (confidence 10) [C11EEB94] (AR v2)
Copy OK

Track 6 Filename F:\AUDIO - I\ Ambient - Chill Out - Lounge - Easy Listening - Electronic\ Cafe Del Mar 20-th, 25-th Anniversary, 30 Years Of Music (2000, 2005, 2010)\Cafe Del Mar 35 Anniversary 3CD (2014)\CD2\06. G Club presents Banda Sonora - Guitarra G (A Peak level 89.1 %
Extraction speed 6.1 X
Track quality 100.0 %
Test CRC CC671432
Copy CRC CC671432
Accurately ripped (confidence 10) [4DDB81AD] (AR v2)
Copy OK

Track 7 Filename F:\AUDIO - I\ Ambient - Chill Out - Lounge - Easy Listening - Electronic\ Cafe Del Mar 20-th, 25-th Anniversary, 30 Years Of Music (2000, 2005, 2010)\Cafe Del Mar 35 Anniversary 3CD (2014)\CD2\07. Chymera - Umbrella (Beatless Mix).wav Peak level 86.6 %
Extraction speed 6.0 X
Track quality 100.0 %
Test CRC 7BF05E99
Copy CRC 7BF05E99
Accurately ripped (confidence 10) [47D71CBA] (AR v2)
Copy OK

Track 8 Filename F:\AUDIO - I\ Ambient - Chill Out - Lounge - Easy Listening - Electronic\ Cafe Del Mar 20-th, 25-th Anniversary, 30 Years Of Music (2000, 2005, 2010)\Cafe Del Mar 35 Anniversary 3CD (2014)\CD2\08. Mike Monday - When The Rain Falls.wav Peak level 63.0 %
Extraction speed 6.2 X
Track quality 100.0 %
Test CRC D09021FF
Copy CRC D09021FF
Accurately ripped (confidence 10) [66EDEF51] (AR v2)
Copy OK

Track 9 Filename F:\AUDIO - I\ Ambient - Chill Out - Lounge - Easy Listening - Electronic\ Cafe Del Mar 20-th, 25-th Anniversary, 30 Years Of Music (2000, 2005, 2010)\Cafe Del Mar 35 Anniversary 3CD (2014)\CD2\09. Bent - I Love My Man.wav Pre-gap length 0:00:01.00 Peak level 91.5 %
Extraction speed 6.8 X
Track quality 100.0 %
Test CRC AFB59A86
Copy CRC AFB59A86
Accurately ripped (confidence 10) [66FFCD5C] (AR v2)
Copy OK

Track 10 Filename F:\AUDIO - I\ Ambient - Chill Out - Lounge - Easy Listening - Electronic\ Cafe Del Mar 20-th, 25-th Anniversary, 30 Years Of Music (2000, 2005, 2010)\Cafe Del Mar 35 Anniversary 3CD (2014)\CD2\10. Coco, Steel & Lovebomb - Sun Set.wav Peak level 81.5 %
Extraction speed 7.3 X
Track quality 100.0 %
Test CRC 5CBEED1C
Copy CRC 5CBEED1C
Accurately ripped (confidence 10) [A9706979] (AR v2)
Copy OK

Track 11 Filename F:\AUDIO - I\ Ambient - Chill Out - Lounge - Easy Listening - Electronic\ Cafe Del Mar 20-th, 25-th Anniversary, 30 Years Of Music (2000, 2005, 2010)\Cafe Del Mar 35 Anniversary 3CD (2014)\CD2\11. Chicane - Already There (Album Mix).wav Peak level 67.8 %
Extraction speed 5.0 X
Track quality 99.9 %
Test CRC BE59FA8F
Copy CRC BE59FA8F
Accurately ripped (confidence 10) [C0D1C66B] (AR v2)
Copy OK

Track 12 Filename F:\AUDIO - I\ Ambient - Chill Out - Lounge - Easy Listening - Electronic\ Cafe Del Mar 20-th, 25-th Anniversary, 30 Years Of Music (2000, 2005, 2010)\Cafe Del Mar 35 Anniversary 3CD (2014)\CD2\12. Bliss - When History Was Made.wav Peak level 68.5 %
Extraction speed 5.7 X
Track quality 99.9 %
Test CRC FC691B21
Copy CRC FC691B21
Accurately ripped (confidence 10) 6F7E841 (AR v2)
Copy OK

Track 13 Filename F:\AUDIO - I\ Ambient - Chill Out - Lounge - Easy Listening - Electronic\ Cafe Del Mar 20-th, 25-th Anniversary, 30 Years Of Music (2000, 2005, 2010)\Cafe Del Mar 35 Anniversary 3CD (2014)\CD2\13. Penguin Cafe - Coriolis.wav Peak level 83.6 %
Extraction speed 6.3 X
Track quality 100.0 %
Test CRC 0D42F7B4
Copy CRC 0D42F7B4
Accurately ripped (confidence 10) [8A39B4FF] (AR v2)
Copy OK

All tracks accurately ripped

No errors occurred

End of status report

- CUETools DB Plugin V2.1.4

[CTDB TOCID: yAk3nvISNmIdSXAX_zOizg_zRDQ-] found
Submit result: already submitted
Track | CTDB Status
1 | (13/13) Accurately ripped
2 | (13/13) Accurately ripped
3 | (13/13) Accurately ripped
4 | (13/13) Accurately ripped
5 | (13/13) Accurately ripped
6 | (13/13) Accurately ripped
7 | (13/13) Accurately ripped
8 | (13/13) Accurately ripped
9 | (13/13) Accurately ripped
10 | (13/13) Accurately ripped
11 | (13/13) Accurately ripped
12 | (13/13) Accurately ripped
13 | (13/13) Accurately ripped

==== Log checksum 094B8804DED5172F9B82B220BDC30BA601CAC5D2FAC82A9E90EAA2D6DDCC98E1 ====

foobar2000 1.2 / Dynamic Range Meter 1.1.1
log date: 2015-10-11 17:30:16

Analyzed: Bent / Cafe del Mar - 35-th Anniversary (1980 - 2015) CD2 (1) Bliss / Cafe del Mar - 35-th Anniversary (1980 - 2015) CD2 (2) Chicane / Cafe del Mar - 35-th Anniversary (1980 - 2015) CD2 (3) Chymera / Cafe del Mar - 35-th Anniversary (1980 - 2015) CD2 (4) Coco, Steel & Lovebomb / Cafe del Mar - 35-th Anniversary (1980 - 2015) CD2 (5) G Club presents Banda Sonora / Cafe del Mar - 35-th Anniversary (1980 - 2015) CD2 (6) Kamasutra / Cafe del Mar - 35-th Anniversary (1980 - 2015) CD2 (7) Mike Monday / Cafe del Mar - 35-th Anniversary (1980 - 2015) CD2 (8) Penguin Cafe / Cafe del Mar - 35-th Anniversary (1980 - 2015) CD2 (9) Raze / Cafe del Mar - 35-th Anniversary (1980 - 2015) CD2 (10) Stonebridge feat. Therese / Cafe del Mar - 35-th Anniversary (1980 - 2015) CD2 (11) Sydenham & Ferrer / Cafe del Mar - 35-th Anniversary (1980 - 2015) CD2 (12) The Amalgamation Of Soundz / Cafe del Mar - 35-th Anniversary (1980 - 2015) CD2 (13)

DR Peak RMS Duration Track

DR12 -0.76 dB -15.45 dB 5:46 09-I Love My Man
DR10 -3.28 dB -21.49 dB 2:58 12-When History Was Made
DR8 -3.37 dB -17.42 dB 2:56 11-Already There (Album Mix)
DR12 -1.24 dB -16.34 dB 3:34 07-Umbrella (Beatless Mix)
DR11 -1.77 dB -14.28 dB 6:24 10-Sun Set
DR12 -1.00 dB -15.64 dB 5:51 06-Guitarra G (Afterlife Mix)
DR13 -0.05 dB -16.14 dB 6:29 03-Sugar Steps
DR9 -4.00 dB -14.46 dB 3:25 08-When The Rain Falls
DR14 -1.55 dB -19.41 dB 2:02 13-Coriolis
DR11 -1.90 dB -17.83 dB 7:39 02-Break 4 Love (Skunk Dub)
DR12 -0.19 dB -14.08 dB 5:39 04-Put 'Em High (Claes Rosen Lounge Mix)
DR11 -1.00 dB -15.59 dB 5:20 05-Sandcastles (Afterlife Mix)
DR10 -5.02 dB -18.03 dB 5:10 01-Textures

Number of tracks: 13
Official DR value: DR11

Samplerate: 44100 Hz
Channels: 2
Bits per sample: 16
Bitrate: 784 kbps
Codec: FLAC

Exact Audio Copy V1.0 beta 4 from 7. December 2014

EAC extraction logfile from 9. October 2015, 18:29

Various Artists / Cafe del Mar - 35-th Anniversary (1980 - 2015) CD3

Used drive : PLEXTOR DVDR PX-891SA Adapter: 1 ID: 1

Read mode : Secure
Utilize accurate stream : Yes
Defeat audio cache : Yes
Make use of C2 pointers : No

Read offset correction

: 6
Overread into Lead-In and Lead-Out : No
Fill up missing offset samples with silence : Yes
Delete leading and trailing silent blocks : No
Null samples used in CRC calculations : Yes
Used interface
: Native Win32 interface for Win NT & 2000
Gap handling
: Appended to previous track

Used output format : User Defined Encoder
Selected bitrate : 896 kBit/s
Quality : High
Add ID3 tag : No
Command line compressor : C:\Program Files (x86)\Exact Audio Copy\Flac\flac.exe
Additional command line options : -8 -V -T "ARTIST=%artist%" -T "TITLE=%title%" -T "ALBUM=%albumtitle%" -T "DATE=%year%" -T "TRACKNUMBER=%tracknr%" -T "GENRE=%genre%" -T "COMMENT=ripped by Oleandris" %source%

TOC of the extracted CD Track | Start | Length | Start sector | End sector
--1 | 0:00.00 | 4:43.01 | 0 | 21225 2 | 4:43.01 | 5:46.67 | 21226 | 47242 3 | 10:29.68 | 6:50.04 | 47243 | 77996 4 | 17:19.72 | 3:40.13 | 77997 | 94509 5 | 21:00.10 | 7:32.36 | 94510 | 128445 6 | 28:32.46 | 7:41.31 | 128446 | 163051 7 | 36:14.02 | 5:19.00 | 163052 | 186976 8 | 41:33.02 | 8:59.22 | 186977 | 227423 9 | 50:32.24 | 2:27.50 | 227424 | 238498
10 | 52:59.74 | 3:45.15 | 238499 | 255388
11 | 56:45.14 | 3:51.21 | 255389 | 272734
12 | 60:36.35 | 4:40.11 | 272735 | 293745
13 | 65:16.46 | 5:47.07 | 293746 | 319777
14 | 71:03.53 | 3:31.32 | 319778 | 335634

Track 1 Filename F:\AUDIO - I\ Ambient - Chill Out - Lounge - Easy Listening - Electronic\ Cafe Del Mar 20-th, 25-th Anniversary, 30 Years Of Music (2000, 2005, 2010)\Cafe Del Mar 35 Anniversary 3CD (2014)\CD3\01. Amorphous Androgynous - Mountain Goat (2014) Pre-gap length 0:00:02.00 Peak level 67.9 %
Extraction speed 2.1 X
Track quality 100.0 %
Test CRC 77F6CDF8
Copy CRC 77F6CDF8
Accurately ripped (confidence 9) [A20C4907] (AR v2)
Copy OK

Track 2 Filename F:\AUDIO - I\ Ambient - Chill Out - Lounge - Easy Listening - Electronic\ Cafe Del Mar 20-th, 25-th Anniversary, 30 Years Of Music (2000, 2005, 2010)\Cafe Del Mar 35 Anniversary 3CD (2014)\CD3\02. Young American Primitive - Sunrise.wav Peak level 68.0 %
Extraction speed 1.9 X
Track quality 99.9 %
Test CRC 456A144C
Copy CRC 456A144C
Accurately ripped (confidence 9) [0E6BDABF] (AR v2)
Copy OK

Track 3 Filename F:\AUDIO - I\ Ambient - Chill Out - Lounge - Easy Listening - Electronic\ Cafe Del Mar 20-th, 25-th Anniversary, 30 Years Of Music (2000, 2005, 2010)\Cafe Del Mar 35 Anniversary 3CD (2014)\CD3\03. Art of Noise - Moments in Love (Beaten).wav Peak level 91.3 %
Extraction speed 2.8 X
Track quality 100.0 %
Test CRC A749DA1D
Copy CRC A749DA1D
Accurately ripped (confidence 9) [7BB8DBBB] (AR v2)
Copy OK

Track 4 Filename F:\AUDIO - I\ Ambient - Chill Out - Lounge - Easy Listening - Electronic\ Cafe Del Mar 20-th, 25-th Anniversary, 30 Years Of Music (2000, 2005, 2010)\Cafe Del Mar 35 Anniversary 3CD (2014)\CD3\04. Autechre - Nine.wav Pre-gap length 0:00:01.00 Peak level 54.4 %
Extraction speed 2.8 X
Track quality 100.0 %
Test CRC 0D9CC72A
Copy CRC 0D9CC72A
Accurately ripped (confidence 9) [FC93594E] (AR v2)
Copy OK

Track 5 Filename F:\AUDIO - I\ Ambient - Chill Out - Lounge - Easy Listening - Electronic\ Cafe Del Mar 20-th, 25-th Anniversary, 30 Years Of Music (2000, 2005, 2010)\Cafe Del Mar 35 Anniversary 3CD (2014)\CD3\05. Aphex Twin - Untitled 3.wav Peak level 61.2 %
Extraction speed 2.7 X
Track quality 99.9 %
Test CRC 5C95880A
Copy CRC 5C95880A
Accurately ripped (confidence 9) 3D72216 (AR v2)
Copy OK

Track 6 Filename F:\AUDIO - I\ Ambient - Chill Out - Lounge - Easy Listening - Electronic\ Cafe Del Mar 20-th, 25-th Anniversary, 30 Years Of Music (2000, 2005, 2010)\Cafe Del Mar 35 Anniversary 3CD (2014)\CD3\06. John Beltran - Gutaris Breeze (6000 km to Ar Peak level 71.6 %
Extraction speed 3.5 X
Track quality 100.0 %
Test CRC 9C83834A
Copy CRC 9C83834A
Accurately ripped (confidence 9) [356F4697] (AR v2)
Copy OK

Track 7 Filename F:\AUDIO - I\ Ambient - Chill Out - Lounge - Easy Listening - Electronic\ Cafe Del Mar 20-th, 25-th Anniversary, 30 Years Of Music (2000, 2005, 2010)\Cafe Del Mar 35 Anniversary 3CD (2014)\CD3\07. Moby - My Beautiful Blue Sky.wav Peak level 88.4 %
Extraction speed 3.6 X
Track quality 100.0 %
Test CRC 5FCFFE44
Copy CRC 5FCFFE44
Accurately ripped (confidence 9) [2BB5FDA8] (AR v2)
Copy OK

Track 8 Filename F:\AUDIO - I\ Ambient - Chill Out - Lounge - Easy Listening - Electronic\ Cafe Del Mar 20-th, 25-th Anniversary, 30 Years Of Music (2000, 2005, 2010)\Cafe Del Mar 35 Anniversary 3CD (2014)\CD3\08. Tura - Reishi.wav Peak level 100.0 %
Extraction speed 3.9 X
Track quality 100.0 %
Test CRC FF234414
Copy CRC FF234414
Accurately ripped (confidence 9) [E335B329] (AR v2)
Copy OK

Track 9 Filename F:\AUDIO - I\ Ambient - Chill Out - Lounge - Easy Listening - Electronic\ Cafe Del Mar 20-th, 25-th Anniversary, 30 Years Of Music (2000, 2005, 2010)\Cafe Del Mar 35 Anniversary 3CD (2014)\CD3\09. Ian O'Brien - Vagalume.wav Peak level 70.8 %
Extraction speed 3.5 X
Track quality 100.0 %
Test CRC 7E39BA69
Copy CRC 7E39BA69
Accurately ripped (confidence 9) [711991D4] (AR v2)
Copy OK

Track 10 Filename F:\AUDIO - I\ Ambient - Chill Out - Lounge - Easy Listening - Electronic\ Cafe Del Mar 20-th, 25-th Anniversary, 30 Years Of Music (2000, 2005, 2010)\Cafe Del Mar 35 Anniversary 3CD (2014)\CD3\10. The Detroit Escalator Co. - The Inverted Man Peak level 67.8 %
Extraction speed 3.9 X
Track quality 100.0 %
Test CRC E8B5D71D
Copy CRC E8B5D71D
Accurately ripped (confidence 9) [803A5C22] (AR v2)
Copy OK

Track 11 Filename F:\AUDIO - I\ Ambient - Chill Out - Lounge - Easy Listening - Electronic\ Cafe Del Mar 20-th, 25-th Anniversary, 30 Years Of Music (2000, 2005, 2010)\Cafe Del Mar 35 Anniversary 3CD (2014)\CD3\11. Wim Mertens - Struggle for Pleasure.wav Peak level 55.0 %
Extraction speed 4.0 X
Track quality 100.0 %
Test CRC C83B0DE5
Copy CRC C83B0DE5
Accurately ripped (confidence 9) [7B57167E] (AR v2)
Copy OK

Track 12 Filename F:\AUDIO - I\ Ambient - Chill Out - Lounge - Easy Listening - Electronic\ Cafe Del Mar 20-th, 25-th Anniversary, 30 Years Of Music (2000, 2005, 2010)\Cafe Del Mar 35 Anniversary 3CD (2014)\CD3\12. Constance Demby - Waltz of Joy.wav Peak level 71.2 %
Extraction speed 4.1 X
Track quality 100.0 %
Test CRC CE003B69
Copy CRC CE003B69
Accurately ripped (confidence 9) [77C58255] (AR v2)
Copy OK

Track 13 Filename F:\AUDIO - I\ Ambient - Chill Out - Lounge - Easy Listening - Electronic\ Cafe Del Mar 20-th, 25-th Anniversary, 30 Years Of Music (2000, 2005, 2010)\Cafe Del Mar 35 Anniversary 3CD (2014)\CD3\13. Steven Halpern - The Light in Your Eyes.wav Peak level 53.5 %
Extraction speed 4.4 X
Track quality 100.0 %
Test CRC 6530A12B
Copy CRC 6530A12B
Accurately ripped (confidence 9) [E0C0DDB1] (AR v2)
Copy OK

Track 14 Filename F:\AUDIO - I\ Ambient - Chill Out - Lounge - Easy Listening - Electronic\ Cafe Del Mar 20-th, 25-th Anniversary, 30 Years Of Music (2000, 2005, 2010)\Cafe Del Mar 35 Anniversary 3CD (2014)\CD3\14. John Williams - Cavatina (Theme From The Dee Peak level 64.3 %
Extraction speed 4.2 X
Track quality 100.0 %
Test CRC 15D00F8D
Copy CRC 15D00F8D
Accurately ripped (confidence 8) [E73E8FE9] (AR v2)
Copy OK

All tracks accurately ripped

No errors occurred

End of status report

- CUETools DB Plugin V2.1.4

[CTDB TOCID: JAzwccRVMk5qGpiqV9vFxavDGKY-] found
Submit result: JAzwccRVMk5qGpiqV9vFxavDGKY- has been confirmed
Track | CTDB Status
1 | (11/11) Accurately ripped
2 | (11/11) Accurately ripped
3 | (11/11) Accurately ripped
4 | (11/11) Accurately ripped
5 | (11/11) Accurately ripped
6 | (11/11) Accurately ripped
7 | (11/11) Accurately ripped
8 | (11/11) Accurately ripped
9 | (11/11) Accurately ripped
10 | (11/11) Accurately ripped
11 | (11/11) Accurately ripped
12 | (11/11) Accurately ripped
13 | (11/11) Accurately ripped
14 | (11/11) Accurately ripped

==== Log checksum 41915E1C2BE6DDB901817267E71ACD7010F870FA074BC79FEF29DF784EF05ED9 ====

foobar2000 1.2 / Dynamic Range Meter 1.1.1
log date: 2015-10-11 17:30:37

Analyzed: Amorphous Androgynous / Cafe del Mar - 35-th Anniversary (1980 - 2015) CD3 (1) Aphex Twin / Cafe del Mar - 35-th Anniversary (1980 - 2015) CD3 (2) Art of Noise / Cafe del Mar - 35-th Anniversary (1980 - 2015) CD3 (3) Autechre / Cafe del Mar - 35-th Anniversary (1980 - 2015) CD3 (4) Constance Demby / Cafe del Mar - 35-th Anniversary (1980 - 2015) CD3 (5) Ian O'Brien / Cafe del Mar - 35-th Anniversary (1980 - 2015) CD3 (6) John Beltran / Cafe del Mar - 35-th Anniversary (1980 - 2015) CD3 (7) John Williams / Cafe del Mar - 35-th Anniversary (1980 - 2015) CD3 (8) Moby / Cafe del Mar - 35-th Anniversary (1980 - 2015) CD3 (9) Steven Halpern / Cafe del Mar - 35-th Anniversary (1980 - 2015) CD3 (10) The Detroit Escalator Co. / Cafe del Mar - 35-th Anniversary (1980 - 2015) CD3 (11) Tura / Cafe del Mar - 35-th Anniversary (1980 - 2015) CD3 (12) Wim Mertens / Cafe del Mar - 35-th Anniversary (1980 - 2015) CD3 (13) Young American Primitive / Cafe del Mar - 35-th Anniversary (1980 - 2015) CD3 (14)

DR Peak RMS Duration Track

DR11 -3.36 dB -16.86 dB 4:43 01-Mountain Goat (2014)
DR9 -4.26 dB -16.75 dB 7:32 05-Untitled 3
DR13 -0.79 dB -17.18 dB 6:50 03-Moments in Love (Beaten)
DR11 -5.28 dB -19.23 dB 3:40 04-Nine
DR11 -2.95 dB -17.38 dB 4:40 12-Waltz of Joy
DR10 -2.99 dB -16.98 dB 2:28 09-Vagalume
DR13 -2.90 dB -17.83 dB 7:41 06-Gutaris Breeze (6000 km to Armsterdam)
DR12 -3.83 dB -19.20 dB 3:31 14-Cavatina (Theme From The Deer Hunter)
DR13 -1.06 dB -17.19 dB 5:19 07-My Beautiful Blue Sky
DR10 -5.43 dB -19.13 dB 5:47 13-The Light in Your Eyes
DR13 -3.37 dB -18.74 dB 3:45 10-The Inverted Man Falling
DR13 0.00 dB -15.92 dB 8:59 08-Reishi
DR10 -5.19 dB -19.78 dB 3:51 11-Struggle for Pleasure
DR10 -3.34 dB -15.21 dB 5:47 02-Sunrise

Number of tracks: 14
Official DR value: DR11

Samplerate: 44100 Hz
Channels: 2
Bits per sample: 16
Bitrate: 766 kbps
Codec: FLAC

VA - Café del Mar: 35th Anniversary 1980-2015 (2014) 3CD Set

VA - Café del Mar: 35th Anniversary 1980-2015 (2014) 3CD Set

All thanks to original releaser - Oleandris
Password: designol

Download Links:
(Premium Recommended)


All above links are interchangable. No password
Direct Download

Tags: Anniversary

VA - Café del Mar: 35th Anniversary 1980-2015 (2014) 3CD Set Download via Hotfile Rapidshare Fileserve Megaupload & FileSonic, VA - Café del Mar: 35th Anniversary 1980-2015 (2014) 3CD Set free torrent downloads included crack, serial, keygen.VA - Café del Mar: 35th Anniversary 1980-2015 (2014) 3CD Set Fast Download via Rapidshare Hotfile Fileserve Filesonic Megaupload, VA - Café del Mar: 35th Anniversary 1980-2015 (2014) 3CD Set Torrents and Emule Download or anything related.
Leave a Comment
Your Name:
E-Mail:
Add Comments:

Enter Code: