Primal Fear - Metal Is Forever: The Very Best Of Primal Fear (2006) [2015, Metal Mind, MASS CD 1503 DG]

Download Now

Primal Fear - Metal Is Forever: The Very Best Of Primal Fear (2006) [2015, Metal Mind, MASS CD 1503 DG]

Primal Fear - Metal Is Forever: The Very Best Of Primal Fear (2006)
EAC | Flac(Image) + Cue + Log & MP3 CBR 320Kbps
2CD | Metal Mind, MASS CD 1503 DG | ~ 602 or 284 Mb | Scans(600dpi, jpg) -> 84 Mb
Power Metal / Heavy Metal

"This two-disc, 25-track compilation shows off European metal outfit Primal Fear at their finest. That comparative rarity, a contemporary metal band whose influences all predate the Metallica/Pantera axis, Primal Fear play defiantly old-school 1980s power metal with echoes of Judas Priest, the Scorpions and Dio, among others..."


Tracklist CD1:

01. Metal Is Forever (4:47)
02. Chainbreaker (4:17)
03. Seven Seals (3:54)
04. Nuclear Fire (4:23)
05. Final Embrace (5:07)
06. The Healer (6:39)
07. Rollercoaster (4:29)
08. Armageddon (4:04)
09. Angel In Black (3:58)
10. Under Your Spell (5:35)
11. Evil Spell (4:32)
12. Running In The Dust (4:39)
13. Suicide And Mania (4:04)
14. Iron Fist In Velvet Glove (5:17)
15. Fear (4:19)
16. Tears Of Rage (6:48)

Exact Audio Copy V1.1 from 23. June 2015

EAC extraction logfile from 5. October 2015, 19:40

Primal Fear / Metal Is Forever - The Very Best Of Primal Fear CD 1

Used drive : HP DVD Writer 1170d Adapter: 1 ID: 1

Read mode : Secure
Utilize accurate stream : Yes
Defeat audio cache : Yes
Make use of C2 pointers : No

Read offset correction

: 6
Overread into Lead-In and Lead-Out : No
Fill up missing offset samples with silence : Yes
Delete leading and trailing silent blocks : No
Null samples used in CRC calculations : Yes
Used interface
: Native Win32 interface for Win NT & 2000

Used output format : User Defined Encoder
Selected bitrate : 768 kBit/s
Quality : High
Add ID3 tag : No
Command line compressor : C:\Program Files (x86)\Exact Audio Copy\FLAC\FLAC.EXE
Additional command line options : -V -8 -T "Date=%year%" -T "Genre=%genre%" -T"COMMENT=Ripped by Ungern666" -8 -V %source%

TOC of the extracted CD Track | Start | Length | Start sector | End sector
--1 | 0:00.00 | 4:46.72 | 0 | 21521 2 | 4:46.72 | 4:17.10 | 21522 | 40806 3 | 9:04.07 | 3:54.09 | 40807 | 58365 4 | 12:58.16 | 4:22.62 | 58366 | 78077 5 | 17:21.03 | 5:07.29 | 78078 | 101131 6 | 22:28.32 | 6:39.10 | 101132 | 131066 7 | 29:07.42 | 4:28.43 | 131067 | 151209 8 | 33:36.10 | 4:04.25 | 151210 | 169534 9 | 37:40.35 | 3:57.54 | 169535 | 187363
10 | 41:38.14 | 5:34.59 | 187364 | 212472
11 | 47:12.73 | 4:31.67 | 212473 | 232864
12 | 51:44.65 | 4:39.33 | 232865 | 253822
13 | 56:24.23 | 4:03.41 | 253823 | 272088
14 | 60:27.64 | 5:16.73 | 272089 | 295861
15 | 65:44.62 | 4:19.28 | 295862 | 315314
16 | 70:04.15 | 6:47.69 | 315315 | 345908

Range status and errors

Selected range Filename C:\EAC\Ungern666\Primal Fear - Metal Is Forever - The Very Best Of Primal Fear CD 1.wav Peak level 100.0 %
Extraction speed 6.4 X
Range quality 99.9 %
Test CRC CBDBABE2
Copy CRC CBDBABE2
Copy OK

No errors occurred


AccurateRip summary

Track 1 not present in database
Track 2 not present in database
Track 3 not present in database
Track 4 not present in database
Track 5 not present in database
Track 6 not present in database
Track 7 not present in database
Track 8 not present in database
Track 9 not present in database
Track 10 not present in database
Track 11 not present in database
Track 12 not present in database
Track 13 not present in database
Track 14 not present in database
Track 15 not present in database
Track 16 not present in database

None of the tracks are present in the AccurateRip database

End of status report

- CUETools DB Plugin V2.1.6

[CTDB TOCID: Zm3DTwT3_Cy7AryUrXiHLZhooSw-] found
Submit result: Zm3DTwT3_Cy7AryUrXiHLZhooSw- has been confirmed
Track | CTDB Status
1 | (1/1) Accurately ripped
2 | (1/1) Accurately ripped
3 | (1/1) Accurately ripped
4 | (1/1) Accurately ripped
5 | (1/1) Accurately ripped
6 | (1/1) Accurately ripped
7 | (1/1) Accurately ripped
8 | (1/1) Accurately ripped
9 | (1/1) Accurately ripped
10 | (1/1) Accurately ripped
11 | (1/1) Accurately ripped
12 | (1/1) Accurately ripped
13 | (1/1) Accurately ripped
14 | (1/1) Accurately ripped
15 | (1/1) Accurately ripped
16 | (1/1) Accurately ripped

==== Log checksum 991AFA3412C722C103E9EA952669BF607ED4591B17B21074A2A1ECE2C29890C1 ====

foobar2000 1.2.9 / Dynamic Range Meter 1.1.1
log date: 2015-10-12 19:16:55

Analyzed: Primal Fear / Metal Is Forever - The Very Best Of Primal Fear CD 1

DR Peak RMS Duration Track

DR6 0.00 dB -6.46 dB 4:47 01-Metal Is Forever
DR5 0.00 dB -5.60 dB 4:17 02-Chainbreaker
DR5 0.00 dB -6.37 dB 3:54 03-Seven Seals
DR5 0.00 dB -5.34 dB 4:23 04-Nuclear Fire
DR6 0.00 dB -7.06 dB 5:07 05-Final Embrace
DR6 0.00 dB -7.45 dB 6:39 06-The Healer
DR6 0.00 dB -6.47 dB 4:29 07-Rollercoaster
DR7 0.00 dB -7.26 dB 4:04 08-Armageddon
DR5 0.00 dB -5.67 dB 3:58 09-Angel In Black
DR6 0.00 dB -8.00 dB 5:35 10-Under Your Spell
DR5 0.00 dB -6.65 dB 4:32 11-Evil Spell
DR6 0.00 dB -7.14 dB 4:39 12-Running In The Dust
DR6 0.00 dB -6.11 dB 4:04 13-Suicide And Mania
DR5 0.00 dB -6.21 dB 5:17 14-Iron Fist In Velvet Glove
DR6 0.00 dB -6.98 dB 4:19 15-Fear
DR6 0.00 dB -7.73 dB 6:48 16-Tears Of Rage

Number of tracks: 16
Official DR value: DR6

Samplerate: 44100 Hz
Channels: 2
Bits per sample: 16
Bitrate: 1034 kbps
Codec: FLAC

[CUETools log; Date: 12.10.2015 18:56:59; Version: 2.1.4]
[CTDB TOCID: Zm3DTwT3_Cy7AryUrXiHLZhooSw-] found.
Track | CTDB Status
1 | (2/2) Accurately ripped
2 | (2/2) Accurately ripped
3 | (2/2) Accurately ripped
4 | (2/2) Accurately ripped
5 | (2/2) Accurately ripped
6 | (2/2) Accurately ripped
7 | (2/2) Accurately ripped
8 | (2/2) Accurately ripped
9 | (2/2) Accurately ripped
10 | (2/2) Accurately ripped
11 | (2/2) Accurately ripped
12 | (2/2) Accurately ripped
13 | (2/2) Accurately ripped
14 | (2/2) Accurately ripped
15 | (2/2) Accurately ripped
16 | (2/2) Accurately ripped
[AccurateRip ID: 002bc0d9-020ed5cb-db120410] disk not present in database.

Track Peak [ CRC32 ] [W/O NULL] [ LOG ]
-- 100,0 [CBDBABE2] [3FB19C3C] CRC32
01 100,0 [0C499313] [27809056]
02 100,0 [4E077343] [A2F86A2B]
03 100,0 [9C9BFD83] [3AFE94C1]
04 100,0 [601E5243] [CD505BF5]
05 100,0 [370694A2] [5FA85BF8]
06 100,0 [D507298F] [4FD4629F]
07 100,0 [4206215D] [C2D8FA4F]
08 100,0 [7F2D311F] [5659AF88]
09 100,0 [CB50A7FA] [F8551BAE]
10 100,0 B21E7AF [19DCA4D5]
11 100,0 [7C0CDFD2] [DA4BD31B]
12 100,0 [F6583D51] [74A4B735]
13 100,0 [949D5B26] [4F2AC39D]
14 100,0 [16AC0EE7] [7B4F2860]
15 100,0 [A8DEE822] [28C55D36]
16 100,0 [EC462DC1] [508D0A1D]

Primal Fear - Metal Is Forever: The Very Best Of Primal Fear (2006) [2015, Metal Mind, MASS CD 1503 DG]

Tracklist CD2:

01. Out In The Fields (3:58)
02. Kill The King (4:34)
03. Speedking (4:02)
04. Die Young (4:05)
05. Metal Gods (3:39)
06. Breaker (3:30)
07. Seek And Destroy (7:12)
08. Two Minutes To Midnight (6:01)
09. The Rover (4:44)

Exact Audio Copy V1.1 from 23. June 2015

EAC extraction logfile from 5. October 2015, 20:02

Primal Fear / Metal Is Forever - The Very Best Of Primal Fear CD 2

Used drive : HP DVD Writer 1170d Adapter: 1 ID: 1

Read mode : Secure
Utilize accurate stream : Yes
Defeat audio cache : Yes
Make use of C2 pointers : No

Read offset correction

: 6
Overread into Lead-In and Lead-Out : No
Fill up missing offset samples with silence : Yes
Delete leading and trailing silent blocks : No
Null samples used in CRC calculations : Yes
Used interface
: Native Win32 interface for Win NT & 2000

Used output format : User Defined Encoder
Selected bitrate : 768 kBit/s
Quality : High
Add ID3 tag : No
Command line compressor : C:\Program Files (x86)\Exact Audio Copy\FLAC\FLAC.EXE
Additional command line options : -V -8 -T "Date=%year%" -T "Genre=%genre%" -T"COMMENT=Ripped by Ungern666" -8 -V %source%

TOC of the extracted CD Track | Start | Length | Start sector | End sector
--1 | 0:00.00 | 3:57.38 | 0 | 17812 2 | 3:57.38 | 4:33.62 | 17813 | 38349 3 | 8:31.25 | 4:02.30 | 38350 | 56529 4 | 12:33.55 | 4:05.14 | 56530 | 74918 5 | 16:38.69 | 3:38.51 | 74919 | 91319 6 | 20:17.45 | 3:30.04 | 91320 | 107073 7 | 23:47.49 | 7:11.41 | 107074 | 139439 8 | 30:59.15 | 6:01.31 | 139440 | 166545 9 | 37:00.46 | 4:44.37 | 166546 | 187882

Range status and errors

Selected range Filename C:\EAC\Ungern666\Primal Fear - Metal Is Forever - The Very Best Of Primal Fear CD 2.wav Peak level 100.0 %
Extraction speed 5.5 X
Range quality 100.0 %
Test CRC 2703F46C
Copy CRC 2703F46C
Copy OK

No errors occurred


AccurateRip summary

Track 1 not present in database
Track 2 not present in database
Track 3 not present in database
Track 4 not present in database
Track 5 not present in database
Track 6 not present in database
Track 7 not present in database
Track 8 not present in database
Track 9 not present in database

None of the tracks are present in the AccurateRip database

End of status report

- CUETools DB Plugin V2.1.6

[CTDB TOCID: Cf4oosbTztOsoW38WgC6VnD6Ioc-] found
Submit result: Cf4oosbTztOsoW38WgC6VnD6Ioc- has been confirmed
Track | CTDB Status
1 | (1/1) Accurately ripped
2 | (1/1) Accurately ripped
3 | (1/1) Accurately ripped
4 | (1/1) Accurately ripped
5 | (1/1) Accurately ripped
6 | (1/1) Accurately ripped
7 | (1/1) Accurately ripped
8 | (1/1) Accurately ripped
9 | (1/1) Accurately ripped

==== Log checksum 70BD85E1255F33626D5D72B97A29072BA87627F536CDC1508C4225FF4451906E ====

foobar2000 1.2.9 / Dynamic Range Meter 1.1.1
log date: 2015-10-12 19:16:27

Analyzed: Primal Fear / Metal Is Forever - The Very Best Of Primal Fear CD 2

DR Peak RMS Duration Track

DR6 0.00 dB -6.52 dB 3:58 01-Out In The Fields
DR7 0.00 dB -7.84 dB 4:34 02-Kill The King
DR6 0.00 dB -7.24 dB 4:02 03-Speedking
DR6 0.00 dB -7.79 dB 4:05 04-Die Young
DR5 0.00 dB -5.97 dB 3:39 05-Metal Gods
DR6 0.00 dB -6.11 dB 3:30 06-Breaker
DR6 0.00 dB -6.68 dB 7:12 07-Seek And Destroy
DR7 0.00 dB -7.21 dB 6:01 08-Two Minutes To Midnight
DR6 0.00 dB -7.21 dB 4:44 09-The Rover

Number of tracks: 9
Official DR value: DR6

Samplerate: 44100 Hz
Channels: 2
Bits per sample: 16
Bitrate: 1029 kbps
Codec: FLAC

[CUETools log; Date: 12.10.2015 19:00:51; Version: 2.1.4]
[CTDB TOCID: Cf4oosbTztOsoW38WgC6VnD6Ioc-] found.
Track | CTDB Status
1 | (2/2) Accurately ripped
2 | (2/2) Accurately ripped
3 | (2/2) Accurately ripped
4 | (2/2) Accurately ripped
5 | (2/2) Accurately ripped
6 | (2/2) Accurately ripped
7 | (2/2) Accurately ripped
8 | (2/2) Accurately ripped
9 | (2/2) Accurately ripped
[AccurateRip ID: 000d6d03-0063d30e-6009c909] disk not present in database.

Track Peak [ CRC32 ] [W/O NULL] [ LOG ]
-- 100,0 [2703F46C] [9DA0C335] CRC32
01 100,0 [090ABB73] [F696609F]
02 100,0 [72C8C2B1] [C03EC631]
03 100,0 [A2A80CFF] [51E527EA]
04 100,0 [0DCD3949] [C2CBDE58]
05 100,0 [A2370F8C] [77D4BA9C]
06 100,0 [F6AA9570] [EBFD3F7B]
07 100,0 DDE6C6A [CC2E03D2]
08 100,0 [33C7FE48] [325A592D]
09 100,0 [4970CF9F] [C4C410B9]

Primal Fear - Metal Is Forever: The Very Best Of Primal Fear (2006) [2015, Metal Mind, MASS CD 1503 DG]

DOWNLOAD:
Buy Premium To Support Me & Get Resumable Support & Max Speed


Links are Interchangeable - No Password
Direct Download

Tags: Primal, Forever, Primal

Primal Fear - Metal Is Forever: The Very Best Of Primal Fear (2006) [2015, Metal Mind, MASS CD 1503 DG] Download via Hotfile Rapidshare Fileserve Megaupload & FileSonic, Primal Fear - Metal Is Forever: The Very Best Of Primal Fear (2006) [2015, Metal Mind, MASS CD 1503 DG] free torrent downloads included crack, serial, keygen.Primal Fear - Metal Is Forever: The Very Best Of Primal Fear (2006) [2015, Metal Mind, MASS CD 1503 DG] Fast Download via Rapidshare Hotfile Fileserve Filesonic Megaupload, Primal Fear - Metal Is Forever: The Very Best Of Primal Fear (2006) [2015, Metal Mind, MASS CD 1503 DG] Torrents and Emule Download or anything related.
Leave a Comment
Your Name:
E-Mail:
Add Comments:

Enter Code: