Paul Parker - The Collection [2CD] (1992)

Download Now

Paul Parker - The Collection [2CD] (1992)

Paul Parker - The Collection [2CD] (1992)
Electronic, Hi-NRG, Club/Dance | EAC Rip | FLAC, Img+CUE + LOG + Full Artwork-600dpi (JPEG) | 65:38 + 69:55 Min | 1,15 Gb
Label: Unidisc Music Inc. (Canada) | Released: 1992

"
Paul Parker is a hugely popular 80's vocalist, famous for working with legendary producer Patrick Cowley on club hits including 'Right On Target', 'Shot In The Night' and 'Tech-No-Logical World'. Releasing on legendary San Francisco based Hi-NRG label Megatone Records, Paul Parker continued to work with Cowley on his debut album Too Much To Dream. This 2CD-Set is an excellent compilation. Expect a full-on 80's journey back to the time when NRG ruled the dancefloor!
"

Paul Parker - The Collection [2CD] (1992)

Paul Parker - The Collection [2CD] (1992)

Paul Parker - The Collection [2CD] (1992)


Release of this CD-Set: 1992 [CDs Unidisc Music Inc. (Canada), Cat.# SPLK2-8035 / UPC: 068381803528]
℗&© 1992 Unidisc Music Inc.
Made in Canada

Backing Vocals - Jo Carol Block, Lauren Carter, Paul Parker
Guitar - James Wirrick
Producer [Associate] - Marty Blecman
Written-By, Producer - Patrick Cowley (tracks: 1-1 to 1-8, 1-10, 1-11)


Paul Parker - The Collection [2CD] (1992)

Tracklist:

Disc 1

01. Right on Target (06:21)
(Patrick Cowley)
02. Love's On The Line (06:12)
(Patrick Cowley)
03. Shot In The Night (06:06)
(Paul Parker)
04. Too Much To Dream (05:57)
(N. Mautz, A. Tucker)
05. Baby You Can Have My Lovin' Anytime (04:45)
(Paul Parker)
06. Travelin' Man (04:19)
(Patrick Cowley)
07. Nighthawk (05:39)
(Patrick Cowley)
08. Tech-No-Logical World (with Patrick Cowley) (07:25)
(Patrick Cowley)
09. Desire (Remix) (03:14)
(Ian Anthony Stephens)
10. Lift Off (with Patrick Cowley) (06:24)
(Patrick Cowley)
11. Right On Target (03:47)
(Patrick Cowley)

Disc 2

01. Desire (08:39)
(Ian Anthony Stephens)
02. Stranger In A Strange Land (with Pamala Stanley) (05:55)
(James "Tip" Wirrick, Paul Parker)
03. Running Around In Circles (with Pamala Stanley) (05:51)
(Paul Parker, Pamala Stanley, James "Tip" Wirrick)
04. Body Talk (06:14)
(Paul Parker, Mark Parrish)
05. Abracadabra (06:44)
(Paul Parker, Mark Parrish)
06. From Here To Eternity (07:04)
(Pete Bellotte, Giorgio Moroder)
07. Ready Or Not (06:39)
(Ian Anthony Stephens, Paul Parker)
08. Don't Play With Fire (10:02)
(Ian Anthony Stephens, Paul Parker)
09. One Look Was Enough (06:08)
(Paul Parker, Man Parrish)
10. Time After Time (06:41)
(Cyndi Lauper, Rob Hyman)

Exact Audio Copy V0.99 prebeta 5 from 4. May 2009

Отчёт EAC об извлечении, выполненном 5. декабря 2009, 13:05

Paul Parker / The Collection CD 1

Дисковод: Optiarc DVD RW AD-5200A Adapter: 0 ID: 0

Режим чтения : Достоверность
Использование точного потока : Да
Отключение кэша аудио : Да
Использование указателей C2 : Нет

Коррекция смещения при чтении : 48
Способность читать области Lead-in и Lead-out : Нет
Заполнение пропущенных сэмплов тишиной : Да
Удаление блоков с тишиной в начале и конце : Нет
При вычислениях CRC использовались нулевые сэмплы : Да
Интерфейс : Установленный внешний ASPI-интерфейс

Выходной формат : Внутренние WAV-операции
Формат сэмплов : 44.100 Гц; 16 бит; стерео

TOC извлечённого CD Трек | Старт | Длительность | Начальный сектор | Конечный сектор

1 | 0:00.00 | 6:20.70 | 0 | 28569
2 | 6:20.70 | 6:12.12 | 28570 | 56481
3 | 12:33.07 | 6:05.48 | 56482 | 83904
4 | 18:38.55 | 5:57.12 | 83905 | 110691
5 | 24:35.67 | 4:45.18 | 110692 | 132084
6 | 29:21.10 | 4:19.37 | 132085 | 151546
7 | 33:40.47 | 5:39.28 | 151547 | 176999
8 | 39:20.00 | 7:24.62 | 177000 | 210361
9 | 46:44.62 | 8:42.58 | 210362 | 249569
10 | 55:27.45 | 6:23.47 | 249570 | 278341
11 | 61:51.17 | 3:47.13 | 278342 | 295379

Характеристики диапазона извлечения и сообщения об ошибках

Выбранный диапазон Имя файла E:\Paul Parker - The Collection CD 1\Paul Parker - The Collection CD 1.wav Пиковый уровень 100.0 %
Качество диапазона 99.9 %
CRC теста C6FBF1C8
CRC копии C6FBF1C8
Копирование... OK

Ошибок не произошло


AccurateRip: сводка

Трек 1 точное извлечение (доверие 2) [3236C855]
Трек 2 точное извлечение (доверие 2) [50FC628F]
Трек 3 точное извлечение (доверие 2) [C6033CD0]
Трек 4 точное извлечение (доверие 2) [A1B5A220]
Трек 5 точное извлечение (доверие 2) 558C6B1
Трек 6 точное извлечение (доверие 2) [418E2E3C]
Трек 7 точное извлечение (доверие 2) [40D3F185]
Трек 8 точное извлечение (доверие 2) [A707E7EC]
Трек 9 точное извлечение (доверие 2) [20AC6B5A]
Трек 10 точное извлечение (доверие 2) [8576D524]
Трек 11 нет в базе данных

10 трек(и) скопированы точно
1 трек(и) не содержатся в базе AccurateRip

Некоторые треки не прошли проверку на точность

Конец отчёта

Exact Audio Copy V0.99 prebeta 5 from 4. May 2009

Отчёт EAC об извлечении, выполненном 5. декабря 2009, 13:44

Paul Parker / The Collection CD 2

Дисковод: Optiarc DVD RW AD-5200A Adapter: 0 ID: 0

Режим чтения : Достоверность
Использование точного потока : Да
Отключение кэша аудио : Да
Использование указателей C2 : Нет

Коррекция смещения при чтении : 48
Способность читать области Lead-in и Lead-out : Нет
Заполнение пропущенных сэмплов тишиной : Да
Удаление блоков с тишиной в начале и конце : Нет
При вычислениях CRC использовались нулевые сэмплы : Да
Интерфейс : Установленный внешний ASPI-интерфейс

Выходной формат : Внутренние WAV-операции
Формат сэмплов : 44.100 Гц; 16 бит; стерео

TOC извлечённого CD Трек | Старт | Длительность | Начальный сектор | Конечный сектор

1 | 0:00.00 | 8:38.65 | 0 | 38914
2 | 8:38.65 | 5:55.27 | 38915 | 65566
3 | 14:34.17 | 5:51.33 | 65567 | 91924
4 | 20:25.50 | 6:13.62 | 91925 | 119961
5 | 26:39.37 | 6:43.45 | 119962 | 150231
6 | 33:23.07 | 7:03.40 | 150232 | 181996
7 | 40:26.47 | 6:38.70 | 181997 | 211916
8 | 47:05.42 | 10:01.43 | 211917 | 257034
9 | 57:07.10 | 6:08.15 | 257035 | 284649
10 | 63:15.25 | 6:40.40 | 284650 | 314689

Характеристики диапазона извлечения и сообщения об ошибках

Выбранный диапазон Имя файла E:\Paul Parker - The Collection CD 2\Paul Parker - The Collection CD 2.wav Пиковый уровень 100.0 %
Качество диапазона 99.9 %
CRC теста B6F1E533
CRC копии B6F1E533
Копирование... OK

Ошибок не произошло


AccurateRip: сводка

Трек 1 точное извлечение (доверие 2) [7E6C0333]
Трек 2 точное извлечение (доверие 2) [8675C968]
Трек 3 точное извлечение (доверие 2) [0B46748A]
Трек 4 точное извлечение (доверие 2) [E6C3FE06]
Трек 5 точное извлечение (доверие 2) [705CBF52]
Трек 6 точное извлечение (доверие 2) [15B94164]
Трек 7 точное извлечение (доверие 2) [3BAC9F8E]
Трек 8 точное извлечение (доверие 2) [581E8D5A]
Трек 9 точное извлечение (доверие 2) [9AF6A763]
Трек 10 нет в базе данных

9 трек(и) скопированы точно
1 трек(и) не содержатся в базе AccurateRip

Некоторые треки не прошли проверку на точность

Конец отчёта

foobar2000 1.3.7 / Dynamic Range Meter 1.1.1
log date: 2015-10-11 20:13:39

Analyzed: Paul Parker / The Collection CD 1

DR Peak RMS Duration Track

DR11 -0.50 dB -12.62 dB 6:21 01-Right On Target
DR13 -0.66 dB -14.89 dB 6:12 02-Love's On The Line
DR13 -0.37 dB -14.17 dB 6:06 03-Shot In The Night
DR13 -0.50 dB -14.83 dB 5:57 04-Too Much To Dream
DR12 -0.25 dB -13.65 dB 4:45 05-Baby You Can Have My Lovin' Anytime
DR13 -0.37 dB -14.38 dB 4:19 06-Travelin' Man
DR13 -0.41 dB -14.40 dB 5:39 07-Nighthawk
DR15 -0.15 dB -15.61 dB 7:25 08-Tech-No-Logical World (Patrick Cowley & Paul Parker)
DR12 0.00 dB -13.53 dB 8:43 09-Desire (Remix)
DR12 -0.49 dB -13.39 dB 6:24 10-Lift Off (Patrick Cowley & Paul Parker)
DR11 -0.21 dB -12.66 dB 3:47 11-Right On Target

Number of tracks: 11
Official DR value: DR12

Samplerate: 44100 Hz
Channels: 2
Bits per sample: 16
Bitrate: 1000 kbps
Codec: FLAC

foobar2000 1.3.7 / Dynamic Range Meter 1.1.1
log date: 2015-10-11 20:14:15

Analyzed: Paul Parker / The Collection CD 2

DR Peak RMS Duration Track

DR11 -0.15 dB -12.88 dB 8:39 01-Desire
DR11 -0.37 dB -11.70 dB 5:55 02-Stranger In A Strange Land (Pamala Stanley & Paul Parker)
DR11 -0.54 dB -13.05 dB 5:51 03-Running Around In Circles (Pamala Stanley & Paul Parker)
DR11 -0.14 dB -12.39 dB 6:14 04-Body Talk
DR12 -0.40 dB -14.11 dB 6:44 05-Abracadabra
DR14 -0.32 dB -16.46 dB 7:04 06-From Here to Eternity
DR14 0.00 dB -15.31 dB 6:39 07-Ready Or Not
DR12 0.00 dB -13.58 dB 10:02 08-Don't Play With Fire
DR13 -0.76 dB -14.56 dB 6:08 09-One Look Was Enough
DR14 -0.39 dB -15.27 dB 6:41 10-Time After Time

Number of tracks: 10
Official DR value: DR12

Samplerate: 44100 Hz
Channels: 2
Bits per sample: 16
Bitrate: 968 kbps
Codec: FLAC

All thanks to - Pol Alex


password: BlondStyle


DOWNLOAD LINKS:


No Password
Direct Download

Tags: Parker, Collection

Paul Parker - The Collection [2CD] (1992) Download via Hotfile Rapidshare Fileserve Megaupload & FileSonic, Paul Parker - The Collection [2CD] (1992) free torrent downloads included crack, serial, keygen.Paul Parker - The Collection [2CD] (1992) Fast Download via Rapidshare Hotfile Fileserve Filesonic Megaupload, Paul Parker - The Collection [2CD] (1992) Torrents and Emule Download or anything related.
Leave a Comment
Your Name:
E-Mail:
Add Comments:

Enter Code: