Ozric Tentacles - Technicians Of The Sacred (2015) [2CD] {Madfish}

Download Now


Ozric Tentacles - Technicians Of The Sacred (2015) [2CD] {Madfish}
Ozric Tentacles - Technicians Of The Sacred (2015) [2CD] {Madfish}
EAC rip (secure mode) | FLAC (tracks)+CUE+LOG -> 650 Mb | MP3 @320 -> 212 Mb
Full Artwork @ 300 dpi (png) -> 31 Mb | 5% repair rar
© 2015 Madfish / Snapper | SMACD1015
Rock / Neo-Prog / Psychedelic Rock / Space Rock

"Technicians Of The Sacred is the first all-new Ozric Tentacles album since 2011's Paper Monkeys (and their first double album since their classic Erpland release of 1990), and comprises eleven tracks, with over ninety minutes of music. Tracks such as Switchback, Rubbing Shoulders With The Infinite and Butterfly Garden are brilliant examples of the Ozrics musical art; pulsating rhythms and blissed-out tunefulness present and correct. The band are to undertake a twenty-four date European tour in late April and May 2015, including twelve UK shows to promote the much-anticipated release of Technicians of the Sacred, with further gigs in the USA to follow."

Ozric Tentacles - Technicians Of The Sacred (2015) [2CD] {Madfish}


Line-up / Musicians
- Ed Wynne / guitars, synths
- Brandi Wynne / bass
- Silas Wynne / synths
- Balázs Szende / drums
- Paul Hankin / percussion

tracklist:
CD1

01. The High Pass
02. Butterfly Garden
03. Far Memory
04. Changa Masala
05. Zingbong
06. Switchback

Ozric Tentacles - Technicians Of The Sacred (2015) [2CD] {Madfish}


CD2
01. Epiphlioy
02. The Unusual Village
03. Smiling Potion
04. Rubbing Shoulders with the Absolute
05. Zenlike Creature

Ozric Tentacles - Technicians Of The Sacred (2015) [2CD] {Madfish}



Exact Audio Copy V1.0 beta 4 from 7. December 2014

EAC extraction logfile from 10. October 2015, 16:13

Ozric Tentacles / Technicians of the Sacred - CD1

Used drive : HL-DT-STDVDRAM GH22NS70 Adapter: 1 ID: 0

Read mode : Secure
Utilize accurate stream : Yes
Defeat audio cache : Yes
Make use of C2 pointers : No

Read offset correction

: 667
Overread into Lead-In and Lead-Out : No
Fill up missing offset samples with silence : Yes
Delete leading and trailing silent blocks : No
Null samples used in CRC calculations : Yes
Used interface
: Native Win32 interface for Win NT & 2000
Gap handling
: Appended to previous track

Used output format : User Defined Encoder
Selected bitrate : 128 kBit/s
Quality : High
Add ID3 tag : No
Command line compressor : C:\Program Files (x86)\Exact Audio Copy\Flac\flac.exe
Additional command line options : -8 -V -T "ARTIST=%artist%" -T "TITLE=%title%" -T "ALBUM=%albumtitle%" -T "DATE=%year%" -T "TRACKNUMBER=%tracknr%" -T "TOTALTRACKS=%numtracks%" -T "GENRE=%genre%" -T "ALBUMARTIST=%albumartist%" -T "ALBUM ARTIST=%albumartist%" -T "COMMENT=EAC Secure Mode, Test & Copy, AccurateRip, FLAC -8" %source%

TOC of the extracted CD Track | Start | Length | Start sector | End sector
--1 | 0:00.00 | 8:23.43 | 0 | 37767 2 | 8:23.43 | 5:04.13 | 37768 | 60580 3 | 13:27.56 | 7:11.55 | 60581 | 92960 4 | 20:39.36 | 6:04.33 | 92961 | 120293 5 | 26:43.69 | 8:26.42 | 120294 | 158285 6 | 35:10.36 | 10:11.61 | 158286 | 204171

Track 1 Filename Z:\Ozric Tentacles - Technicians of the Sacred (2015) [FLAC] {2CD}\CD1\01 - The High Pass.wav Pre-gap length 0:00:02.00 Peak level 100.0 %
Extraction speed 1.2 X
Track quality 100.0 %
Test CRC AAF65E45
Copy CRC AAF65E45
Accurately ripped (confidence 12) 43B62D1 (AR v2)
Copy OK

Track 2 Filename Z:\Ozric Tentacles - Technicians of the Sacred (2015) [FLAC] {2CD}\CD1\02 - Butterfly Garden.wav Peak level 100.0 %
Extraction speed 1.3 X
Track quality 100.0 %
Test CRC DC99FD4A
Copy CRC DC99FD4A
Accurately ripped (confidence 12) [354AB38A] (AR v2)
Copy OK

Track 3 Filename Z:\Ozric Tentacles - Technicians of the Sacred (2015) [FLAC] {2CD}\CD1\03 - Far Memory.wav Peak level 100.0 %
Extraction speed 1.5 X
Track quality 100.0 %
Test CRC E62E3A73
Copy CRC E62E3A73
Accurately ripped (confidence 12) [3EA9079C] (AR v2)
Copy OK

Track 4 Filename Z:\Ozric Tentacles - Technicians of the Sacred (2015) [FLAC] {2CD}\CD1\04 - Changa Masala.wav Peak level 100.0 %
Extraction speed 1.6 X
Track quality 100.0 %
Test CRC BD41206F
Copy CRC BD41206F
Accurately ripped (confidence 12) [5DD91EFC] (AR v2)
Copy OK

Track 5 Filename Z:\Ozric Tentacles - Technicians of the Sacred (2015) [FLAC] {2CD}\CD1\05 - Zingbong.wav Peak level 100.0 %
Extraction speed 1.8 X
Track quality 100.0 %
Test CRC 25E8A739
Copy CRC 25E8A739
Accurately ripped (confidence 12) [E5301663] (AR v2)
Copy OK

Track 6 Filename Z:\Ozric Tentacles - Technicians of the Sacred (2015) [FLAC] {2CD}\CD1\06 - Switchback.wav Peak level 100.0 %
Extraction speed 2.1 X
Track quality 100.0 %
Test CRC B1B359D5
Copy CRC B1B359D5
Accurately ripped (confidence 12) [E9127D88] (AR v2)
Copy OK

All tracks accurately ripped

No errors occurred

End of status report

- CUETools DB Plugin V2.1.4

[CTDB TOCID: gTLqcdwWLgtSNjeKs6VRAEAyhYQ-] found
Submit result: gTLqcdwWLgtSNjeKs6VRAEAyhYQ- has been confirmed
Track | CTDB Status
1 | (43/43) Accurately ripped
2 | (43/43) Accurately ripped
3 | (43/43) Accurately ripped
4 | (43/43) Accurately ripped
5 | (43/43) Accurately ripped
6 | (43/43) Accurately ripped

==== Log checksum 22935847653250A69D980C68E09823C8419C31B81EBAB2E104647A12205F51B3 ====

Exact Audio Copy V1.0 beta 4 from 7. December 2014

EAC extraction logfile from 10. October 2015, 17:11

Ozric Tentacles / Technicians of the Sacred - CD2

Used drive : HL-DT-STDVDRAM GH22NS70 Adapter: 1 ID: 0

Read mode : Secure
Utilize accurate stream : Yes
Defeat audio cache : Yes
Make use of C2 pointers : No

Read offset correction

: 667
Overread into Lead-In and Lead-Out : No
Fill up missing offset samples with silence : Yes
Delete leading and trailing silent blocks : No
Null samples used in CRC calculations : Yes
Used interface
: Native Win32 interface for Win NT & 2000
Gap handling
: Appended to previous track

Used output format : User Defined Encoder
Selected bitrate : 128 kBit/s
Quality : High
Add ID3 tag : No
Command line compressor : C:\Program Files (x86)\Exact Audio Copy\Flac\flac.exe
Additional command line options : -8 -V -T "ARTIST=%artist%" -T "TITLE=%title%" -T "ALBUM=%albumtitle%" -T "DATE=%year%" -T "TRACKNUMBER=%tracknr%" -T "TOTALTRACKS=%numtracks%" -T "GENRE=%genre%" -T "ALBUMARTIST=%albumartist%" -T "ALBUM ARTIST=%albumartist%" -T "COMMENT=EAC Secure Mode, Test & Copy, AccurateRip, FLAC -8" %source%

TOC of the extracted CD Track | Start | Length | Start sector | End sector
--1 | 0:00.00 | 11:50.23 | 0 | 53272 2 | 11:50.23 | 6:20.40 | 53273 | 81812 3 | 18:10.63 | 7:11.61 | 81813 | 114198 4 | 25:22.49 | 8:36.28 | 114199 | 152926 5 | 33:59.02 | 9:53.59 | 152927 | 197460

Track 1 Filename Z:\Ozric Tentacles - Technicians of the Sacred (2015) [FLAC] {2CD}\CD2\01 - Epiphlioy.wav Pre-gap length 0:00:02.00 Peak level 100.0 %
Extraction speed 1.2 X
Track quality 100.0 %
Test CRC 0A22A38A
Copy CRC 0A22A38A
Accurately ripped (confidence 8) [DB8B9CA4] (AR v2)
Copy OK

Track 2 Filename Z:\Ozric Tentacles - Technicians of the Sacred (2015) [FLAC] {2CD}\CD2\02 - The Unusual Village.wav Peak level 100.0 %
Extraction speed 1.4 X
Track quality 100.0 %
Test CRC 84316702
Copy CRC 84316702
Accurately ripped (confidence 8) [042015E5] (AR v2)
Copy OK

Track 3 Filename Z:\Ozric Tentacles - Technicians of the Sacred (2015) [FLAC] {2CD}\CD2\03 - Smiling Potion.wav Peak level 100.0 %
Extraction speed 1.6 X
Track quality 100.0 %
Test CRC FF7AF953
Copy CRC FF7AF953
Accurately ripped (confidence 8) [A80F1EA1] (AR v2)
Copy OK

Track 4 Filename Z:\Ozric Tentacles - Technicians of the Sacred (2015) [FLAC] {2CD}\CD2\04 - Rubbing Shoulders with the Absolute.wav Peak level 100.0 %
Extraction speed 1.8 X
Track quality 100.0 %
Test CRC 6E96546E
Copy CRC 6E96546E
Accurately ripped (confidence 8) [2DFA8CFC] (AR v2)
Copy OK

Track 5 Filename Z:\Ozric Tentacles - Technicians of the Sacred (2015) [FLAC] {2CD}\CD2\05 - Zenlike Creature.wav Peak level 100.0 %
Extraction speed 2.0 X
Track quality 100.0 %
Test CRC 1ADECDA6
Copy CRC 1ADECDA6
Accurately ripped (confidence 8) [D164D3A4] (AR v2)
Copy OK

All tracks accurately ripped

No errors occurred

End of status report

- CUETools DB Plugin V2.1.4

[CTDB TOCID: Icx3mFMAXg1xxGvaO3bCtpaBJYs-] found
Submit result: Icx3mFMAXg1xxGvaO3bCtpaBJYs- has been confirmed
Track | CTDB Status
1 | (43/43) Accurately ripped
2 | (43/43) Accurately ripped
3 | (43/43) Accurately ripped
4 | (43/43) Accurately ripped
5 | (43/43) Accurately ripped

==== Log checksum 50697B75C0D859AFE34C1A5F8863EE689CD17493E965D7C8C40FBD44836CD49F ====

Ozric Tentacles - Technicians Of The Sacred (2015) [2CD] {Madfish}


DOWNLOAD LINKS
Buy Premium From My Links To Get Resumable Support & Max Speed & To Support Me


Links are Interchangeable - No Password - Single Extraction
Direct Download

Tags: Tentacles, Technicians, Sacred, Madfish

Ozric Tentacles - Technicians Of The Sacred (2015) [2CD] {Madfish} Download via Hotfile Rapidshare Fileserve Megaupload & FileSonic, Ozric Tentacles - Technicians Of The Sacred (2015) [2CD] {Madfish} free torrent downloads included crack, serial, keygen.Ozric Tentacles - Technicians Of The Sacred (2015) [2CD] {Madfish} Fast Download via Rapidshare Hotfile Fileserve Filesonic Megaupload, Ozric Tentacles - Technicians Of The Sacred (2015) [2CD] {Madfish} Torrents and Emule Download or anything related.
Leave a Comment
Your Name:
E-Mail:
Add Comments:

Enter Code: