Eddi Reader - Simple Soul (2001)

Download Now

Eddi Reader - Simple Soul (2001)

Eddi Reader - Simple Soul (2001)
EAC | FLAC | Image (Cue&Log) ~ 276 Mb (incl 5%) | Mp3 (CBR320) ~ 126 Mb (incl 5%) | Scans included
Genre: Folk, Adult Alternative Pop/Rock | Label: Rough Trade | # rtradecd011 | Time: 00:44:40

"Eddi Reader's voice falls like a soft autumn rain. Despite its cleansing nature, it carries a touch of melancholy for the coming darkness of winter; it bears a hint of sadness and solitude for the one who longs for sunshine and warmth. Simple Soul is a sweet setting for Reader. Although it's not overflowing with catchy pop songs, it's the kind of soothing record you might listen to while making a quiet, candlelight dinner or meandering around the house on a lazy Sunday morn. While Reader's honey voice swirls beautifully around, the pristine acoustic guitar sounds dance with Indian tamboura and harmonium, creating an almost mystical ambience. Again, don't expect to tie on your dancing shoes. This is definitely more of a slipper and robe kind of thing. The main musical and production support comes from Boo Hewerdine, Roy Dodds, and Teddy Borowiecki -- talented fellows one and all."



Tracklist:

01. Wolves (04:31)
02. The Wanting Kind (03:55)
03. Lucky Penny (03:30)
04. Simple Soul (04:19)
05. Adam (04:34)
06. Footsteps Fall (02:46)
07. Blues Run the Game (05:04)
08. I Felt a Soul Move Through Me (03:52)
09. Prodigal Daughter (03:40)
10. Eden (05:04)
11. The Girl Who Fell in Love With the Moon (03:19)


Exact Audio Copy V0.99 prebeta 5 from 4. May 2009

EAC extraction logfile from 25. June 2011, 7:50

Eddi Reader / Simple Soul

Used drive : _NEC DVD_RW ND-3500AG Adapter: 0 ID: 0

Read mode : Secure
Utilize accurate stream : Yes
Defeat audio cache : Yes
Make use of C2 pointers : No

Read offset correction

: 48
Overread into Lead-In and Lead-Out : No
Fill up missing offset samples with silence : Yes
Delete leading and trailing silent blocks : No
Null samples used in CRC calculations : Yes
Used interface
: Native Win32 interface for Win NT & 2000

Used output format : User Defined Encoder
Selected bitrate : 768 kBit/s
Quality : High
Add ID3 tag : No
Command line compressor : C:\Program Files\Exact Audio Copy\FLAC\FLAC.EXE
Additional command line options : -6 -V -T "ARTIST=%a" -T "TITLE=%t" -T "ALBUM=%g" -T "DATE=%y" -T "TRACKNUMBER=%n" -T "GENRE=%m" -T "COMMENT=%e" %s -o %d

TOC of the extracted CD Track | Start | Length | Start sector | End sector
--1 | 0:00.00 | 4:31.47 | 0 | 20371 2 | 4:31.47 | 3:55.51 | 20372 | 38047 3 | 8:27.23 | 3:30.53 | 38048 | 53850 4 | 11:58.01 | 4:19.66 | 53851 | 73341 5 | 16:17.67 | 4:34.03 | 73342 | 93894 6 | 20:51.70 | 2:46.45 | 93895 | 106389 7 | 23:38.40 | 5:04.08 | 106390 | 129197 8 | 28:42.48 | 3:52.41 | 129198 | 146638 9 | 32:35.14 | 3:40.74 | 146639 | 163212
10 | 36:16.13 | 5:04.52 | 163213 | 186064
11 | 41:20.65 | 3:19.28 | 186065 | 201017

Range status and errors

Selected range Filename J:\eMusic\Rip\Eddi Reader - Simple Soul.wav Peak level 99.7 %
Range quality 99.9 %
Copy CRC 99CA18EB
Copy OK

No errors occurred


AccurateRip summary

Track 1 accurately ripped (confidence 22) [93A17114]
Track 2 accurately ripped (confidence 23) [7F60BF93]
Track 3 accurately ripped (confidence 23) [D1038DF4]
Track 4 accurately ripped (confidence 23) [80EDE888]
Track 5 accurately ripped (confidence 23) [8AF30E87]
Track 6 accurately ripped (confidence 24) [6738B18A]
Track 7 accurately ripped (confidence 24) [A340837E]
Track 8 accurately ripped (confidence 24) [A5EBB6C6]
Track 9 accurately ripped (confidence 24) [F8FA8272]
Track 10 accurately ripped (confidence 23) [A2A50E06]
Track 11 accurately ripped (confidence 24) [98BDD596]

All tracks accurately ripped

End of status report

[CUETools log; Date: 12.10.2015 17:38:53; Version: 2.1.4]
[CTDB TOCID: O.SPzj0LMSdR6meZXDyh74lIlP4-] found.
Track | CTDB Status
1 | (16/16) Accurately ripped
2 | (16/16) Accurately ripped
3 | (16/16) Accurately ripped
4 | (16/16) Accurately ripped
5 | (16/16) Accurately ripped
6 | (16/16) Accurately ripped
7 | (16/16) Accurately ripped
8 | (16/16) Accurately ripped
9 | (16/16) Accurately ripped
10 | (16/16) Accurately ripped
11 | (16/16) Accurately ripped
[AccurateRip ID: 00127e7f-00a00e9b-960a780b] found.
Track [ CRC | V2 ] Status
01 [93a17114|7a04bafd] (24+33/64) Accurately ripped
02 [7f60bf93|82e6aa1e] (25+33/65) Accurately ripped
03 [d1038df4|592dcbb6] (25+32/64) Accurately ripped
04 [80ede888|1f15183c] (25+33/65) Accurately ripped
05 [8af30e87|38ef9c2e] (25+32/64) Accurately ripped
06 [6738b18a|de961710] (26+33/66) Accurately ripped
07 [a340837e|4773fe6e] (26+32/65) Accurately ripped
08 [a5ebb6c6|94f3f012] (26+33/66) Accurately ripped
09 [f8fa8272|832dd114] (26+32/65) Accurately ripped
10 [a2a50e06|13a04070] (25+33/65) Accurately ripped
11 [98bdd596|300003ba] (26+33/66) Accurately ripped
Offsetted by -13:
01 [e8f307d9] (04/64) Accurately ripped
02 [d80f3606] (04/65) Accurately ripped
03 [81b876b5] (04/64) Accurately ripped
04 [d8ffb029] (04/65) Accurately ripped
05 [57f5f642] (04/64) Accurately ripped
06 [3704e531] (04/66) Accurately ripped
07 [2dc94b17] (04/65) Accurately ripped
08 [8cc0d052] (04/66) Accurately ripped
09 [f203a43b] (04/65) Accurately ripped
10 [4688b785] (04/65) Accurately ripped
11 [35913616] (04/66) Accurately ripped
Offsetted by -6:
01 [939fb6aa] (00/64) No match (V2 was not tested)
02 [a68958c3] (00/65) No match (V2 was not tested)
03 [36b734cc] (00/64) No match (V2 was not tested)
04 [6e7ff5e6] (00/65) No match (V2 was not tested)
05 [3856dbf1] (00/64) No match (V2 was not tested)
06 [02347a9c] (00/66) No match (V2 was not tested)
07 [31f5cbec] (00/65) No match (V2 was not tested)
08 [72eb9b2e] (00/66) No match (V2 was not tested)
09 aaff480 (00/65) No match (V2 was not tested)
10 [7821d268] (00/65) No match (V2 was not tested)
11 [e11f6496] (00/66) No match (V2 was not tested)

Track Peak [ CRC32 ] [W/O NULL] [ LOG ]
-- 99,7 [99CA18EB] [C8625AC5] CRC32
01 92,5 [59E80765] [70AE0139]
02 99,7 [393EC9BF] [9C6598DE]
03 85,5 [1414C291] [9F897F7F]
04 88,5 A64D196 [34F9D7C0]
05 94,7 [1D53D382] [EE1894BA]
06 77,1 [D2EF44D7] [14102B68]
07 98,6 [96198BCE] [16A303BF]
08 99,7 [E13A4D08] [5F1F7235]
09 93,2 [8020D0D0] [C4A5DF48]
10 88,2 [8E1BD325] [F70F2E86]
11 96,6 [2995B551] [0808E414]

foobar2000 1.2 / Dynamic Range Meter 1.1.1
log date: 2015-10-12 16:22:40

Analyzed: Eddi Reader / Simple Soul

DR Peak RMS Duration Track

DR10 -0.67 dB -12.54 dB 4:32 01-Wolves
DR9 -0.02 dB -10.85 dB 3:56 02-The Wanting Kind
DR10 -1.35 dB -14.85 dB 3:31 03-Lucky Penny
DR10 -1.06 dB -13.35 dB 4:20 04-Simple Soul
DR9 -0.46 dB -12.04 dB 4:34 05-Adam
DR10 -2.25 dB -15.55 dB 2:47 06-Footsteps Fall
DR11 -0.12 dB -14.07 dB 5:04 07-Blues Run the Game
DR9 -0.02 dB -12.12 dB 3:53 08-I Felt a Soul Move Through Me
DR10 -0.61 dB -13.63 dB 3:41 09-Prodigal Daughter
DR11 -1.09 dB -16.86 dB 5:05 10-Eden
DR10 -0.30 dB -12.63 dB 3:19 11-The Girl Who Fell in Love With the Moon

Number of tracks: 11
Official DR value: DR10

Samplerate: 44100 Hz
Channels: 2
Bits per sample: 16
Bitrate: 768 kbps
Codec: FLAC

Eddi Reader - Simple Soul (2001)

Eddi Reader - Simple Soul (2001)

All thanks to original releaser - GBL
Password: designol

DOWNLOAD LINKS
Buy Premium From My Links To Get Resumable Support & Max Speed & To Support Me


Links are Interchangeable - No Password - Single Extraction
Direct Download

Tags: Reader, Simple

Eddi Reader - Simple Soul (2001) Download via Hotfile Rapidshare Fileserve Megaupload & FileSonic, Eddi Reader - Simple Soul (2001) free torrent downloads included crack, serial, keygen.Eddi Reader - Simple Soul (2001) Fast Download via Rapidshare Hotfile Fileserve Filesonic Megaupload, Eddi Reader - Simple Soul (2001) Torrents and Emule Download or anything related.
Leave a Comment
Your Name:
E-Mail:
Add Comments:

Enter Code: