Dave Grusin - The Gershwin Connection (1991) {GRP 20052}

Download Now

Dave Grusin - The Gershwin Connection (1991) {GRP 20052}

Dave Grusin - The Gershwin Connection (1991) {GRP 20052}
EAC 0.99pb3 | FLAC tracks level 8 | Cue+Log+M3U | Full Scans 600dpi | 372MB + 5% Recovery
Genre: Jazz, Post-Bop, Fusion

"Everyone has his favorites; many of my own heroes I associate with their particular specific applications of Gershwin music as a frame-work for jazz expressions. From the crisp execution of Andre Previn's piano trio version of THERE'S A BOAT DAT'S LEAVIN' SOON FOR NEW YORK to what must be some of the most soulful and satisfying arrangements of any music to date: the wonderful Gil Evans/Miles Davis collaboration of PORGY AND BESS, my life has been full of total respect for these practitioners of the art. This, I suppose, is what ultimately led to this record; the chance to indulge in some of my favorite music with some of my favorite musicians of the Nineties."

Track List
01. That Certain Feeling
02. Soon
03. Fascinating Rhythm
04. Prelude II
05. How Long Has This Been Going On?
06. There's A Boat Dat's Leavin' Soon For New York
07. My Man's Gone Now
08. Maybe
09. Our Love Is Here To Stay
10. 'S Wonderful
11. I've Got Plenty O' Nuthin'
12. Nice Work If You Can Get It
13. Medley: Bess You Is My Woman/I Loves You Porgy

musicians
Dave Grusin - piano, keyboards, clavinet
Lee Ritenour - guitar
Chick Corea - piano
John Patitucci - bass
Dave Weckl - drums
Eddie Daniels - clarinet
Don Grusin - clavinet
Gary Burton - vibraphone
Eric Marienthal - alto & soprano saxophones
Sal Marquez - trumpet
Sonny Emory - drums

Produced by Dave Grusin

Exact Audio Copy V0.99 prebeta 3 from 28. July 2007

EAC extraction logfile from 13. February 2011, 1:46

Dave Grusin / The Gershwin Connection

Used drive : TOSHIBA DVD-ROM SD-R2512 Adapter: 1 ID: 0

Read mode : Secure
Utilize accurate stream : Yes
Defeat audio cache : Yes
Make use of C2 pointers : No

Read offset correction

: 116
Overread into Lead-In and Lead-Out : No
Fill up missing offset samples with silence : Yes
Delete leading and trailing silent blocks : No
Null samples used in CRC calculations : Yes
Used interface
: Native Win32 interface for Win NT & 2000
Gap handling
: Appended to previous track

Used output format : User Defined Encoder
Selected bitrate : 320 kBit/s
Quality : High
Add ID3 tag : No
Command line compressor : C:\Program Files\Exact Audio Copy\Flac\flac.exe
Additional command line options : -V -8 -T "artist=%a" -T "title=%t" -T "album=%g" -T "date=%y" -T "tracknumber=%n" -T "genre=%m" %s

TOC of the extracted CD Track | Start | Length | Start sector | End sector
--1 | 0:00.00 | 1:12.20 | 0 | 5419 2 | 1:12.20 | 4:03.20 | 5420 | 23664 3 | 5:15.40 | 5:04.05 | 23665 | 46469 4 | 10:19.45 | 5:38.62 | 46470 | 71881 5 | 15:58.32 | 5:14.28 | 71882 | 95459 6 | 21:12.60 | 5:40.57 | 95460 | 121016 7 | 26:53.42 | 6:51.65 | 121017 | 151906 8 | 33:45.32 | 3:51.00 | 151907 | 169231 9 | 37:36.32 | 3:14.70 | 169232 | 183851
10 | 40:51.27 | 3:48.23 | 183852 | 200974
11 | 44:39.50 | 6:06.70 | 200975 | 228494
12 | 50:46.45 | 3:30.25 | 228495 | 244269
13 | 54:16.70 | 5:48.37 | 244270 | 270406

Track 1 Filename E:\Working Group\01 - That Certain Feeling.wav Pre-gap length 0:00:02.00 Peak level 52.7 %
Track quality 100.0 %
Test CRC 5EF0F52B
Copy CRC 5EF0F52B
Accurately ripped (confidence 62) [47C10EA6]
Copy OK

Track 2 Filename E:\Working Group\02 - Soon.wav Peak level 95.0 %
Track quality 100.0 %
Test CRC E07A6878
Copy CRC E07A6878
Accurately ripped (confidence 62) [E6C6F5E8]
Copy OK

Track 3 Filename E:\Working Group\03 - Fascinating Rythm.wav Peak level 99.6 %
Track quality 100.0 %
Test CRC A6412C63
Copy CRC A6412C63
Accurately ripped (confidence 62) [8F2E1C8B]
Copy OK

Track 4 Filename E:\Working Group\04 - Prelude II.wav Pre-gap length 0:00:02.20 Peak level 95.7 %
Track quality 100.0 %
Test CRC F7B99C1E
Copy CRC F7B99C1E
Accurately ripped (confidence 61) [D9DF08CD]
Copy OK

Track 5 Filename E:\Working Group\05 - How Long Has This Been Going On .wav Peak level 95.8 %
Track quality 100.0 %
Test CRC 8AE6CB46
Copy CRC 8AE6CB46
Accurately ripped (confidence 63) [26304B25]
Copy OK

Track 6 Filename E:\Working Group\06 - There's A Boat Dats Leavin' Soon For New York.wav Pre-gap length 0:00:01.08 Peak level 100.0 %
Track quality 100.0 %
Test CRC 65F713B8
Copy CRC 65F713B8
Accurately ripped (confidence 62) [0772BDCB]
Copy OK

Track 7 Filename E:\Working Group\07 - My Man's Gone Now.wav Peak level 98.0 %
Track quality 100.0 %
Test CRC 17FBCEDC
Copy CRC 17FBCEDC
Accurately ripped (confidence 61) [20226D75]
Copy OK

Track 8 Filename E:\Working Group\08 - Maybe.wav Peak level 95.3 %
Track quality 100.0 %
Test CRC FCC80686
Copy CRC FCC80686
Accurately ripped (confidence 62) [D6C8404F]
Copy OK

Track 9 Filename E:\Working Group\09 - Our Love Is here To Stay.wav Peak level 96.4 %
Track quality 99.9 %
Test CRC 4CB6D981
Copy CRC 4CB6D981
Accurately ripped (confidence 62) [7864EDC2]
Copy OK

Track 10 Filename E:\Working Group\10 - 'S Wonderful.wav Peak level 93.9 %
Track quality 100.0 %
Test CRC 9365CD41
Copy CRC 9365CD41
Accurately ripped (confidence 61) [EC7B2EB5]
Copy OK

Track 11 Filename E:\Working Group\11 - I've Got Plenty O' Nuthin'.wav Pre-gap length 0:00:00.45 Peak level 100.0 %
Track quality 99.9 %
Test CRC 019A5871
Copy CRC 019A5871
Accurately ripped (confidence 60) [8A600679]
Copy OK

Track 12 Filename E:\Working Group\12 - Nice Work If You Can Get It.wav Pre-gap length 0:00:00.63 Peak level 63.2 %
Track quality 100.0 %
Test CRC D664BB12
Copy CRC D664BB12
Accurately ripped (confidence 60) [82AEFC7B]
Copy OK

Track 13 Filename E:\Working Group\13 - Medley- Bess You Is My Woman - I Loves You Porgy.wav Pre-gap length 0:00:00.20 Peak level 94.9 %
Track quality 100.0 %
Test CRC 320A04F8
Copy CRC 320A04F8
Accurately ripped (confidence 57) [7F4C216D]
Copy OK

All tracks accurately ripped

No errors occurred

End of status report

Analyzed: Dave Grusin / The Gershwin Connection

DR Peak RMS Duration Track

DR11 -5.56 dB -20.11 dB 1:12 01-That Certain Feeling
DR12 -0.45 dB -15.47 dB 4:03 02-Soon
DR10 -0.03 dB -12.20 dB 5:04 03-Fascinating Rhythm
DR12 -0.38 dB -15.28 dB 5:39 04-Prelude II
DR11 -0.37 dB -14.77 dB 5:14 05-How Long Has This Been Going On?
DR10 0.00 dB -13.08 dB 5:41 06-There's A Boat Dat's Leavin' Soon For New York
DR10 -0.17 dB -11.99 dB 6:52 07-My Man's Gone Now
DR13 -0.42 dB -16.98 dB 3:51 08-Maybe
DR12 -0.31 dB -15.09 dB 3:15 09-Our Love Is Here To Stay
DR15 -0.54 dB -18.79 dB 3:48 10-'S Wonderful
DR10 0.00 dB -11.64 dB 6:07 11-I've Got Plenty O' Nuthin'
DR14 -3.98 dB -22.57 dB 3:31 12-Nice Work If You Can Get It
DR13 -0.45 dB -18.08 dB 5:48 13-Medley: Bess You Is My Woman/I Loves You Porgy

Number of tracks: 13
Official DR value: DR12

Samplerate: 44100 Hz
Channels: 2
Bits per sample: 16
Bitrate: 634 kbps
Codec: FLAC

Dave Grusin - The Gershwin Connection (1991) {GRP 20052}

Dave Grusin - The Gershwin Connection (1991) {GRP 20052}

Dave Grusin - The Gershwin Connection (1991) {GRP 20052}

Rip by phishtwain


DOWNLOAD LINKS
Buy Premium From My Links To Get Resumable Support & Max Speed & To Support Me


Links are Interchangeable - No Password - Single Extraction
Direct Download

Tags: Grusin, Gershwin, Connection

Dave Grusin - The Gershwin Connection (1991) {GRP 20052} Download via Hotfile Rapidshare Fileserve Megaupload & FileSonic, Dave Grusin - The Gershwin Connection (1991) {GRP 20052} free torrent downloads included crack, serial, keygen.Dave Grusin - The Gershwin Connection (1991) {GRP 20052} Fast Download via Rapidshare Hotfile Fileserve Filesonic Megaupload, Dave Grusin - The Gershwin Connection (1991) {GRP 20052} Torrents and Emule Download or anything related.
Leave a Comment
Your Name:
E-Mail:
Add Comments:

Enter Code: