Mozart - La clemenza di Tito (Graham, Naglestad, Pregardien; Cambreling) (2005) [BDRip 720p]

Download Now

Mozart - La clemenza di Tito (Graham, Naglestad, Pregardien; Cambreling) (2005) [BDRip 720p]

Mozart - La clemenza di Tito (Graham, Naglestad, Pregardien; Cambreling) (2005)
BDRip 720p | MKV | AVC, 6000 kbit/s to 1280x720 (16:9), 29.970 fps | 7.77 GB
Audio: DTS, 1510 kbit/sec, 6 channels, 48.0 kHz | Length: 02:27:33
Genre: Opera | Nitroflare/Uploadable/Filefactory

"Commissioned for the coronation of Leopold II in Prague, Mozarts last opera is a deep, humane reflection on relationships, power and forgiveness. With the composition of some of the most beautiful passages in his oeuvre, Mozart has succeeded in giving this opera seria both a noble sobriety and transparent instrumentation, to which this commanding production by the Herrmann partnership does full justice on all levels. Susan Grahams most extraordinary Sesto and Christoph Prégardiens superb Tito set the standard for this riveting Opéra national de Paris performance, conducted by the outstanding Sylvain Cambreling."


Mozart - La clemenza di Tito (Graham, Naglestad, Pregardien; Cambreling) (2005) [BDRip 720p]

Mozart - La clemenza di Tito (Graham, Naglestad, Pregardien; Cambreling) (2005) [BDRip 720p]

Mozart - La clemenza di Tito (Graham, Naglestad, Pregardien; Cambreling) (2005) [BDRip 720p]

Mozart - La clemenza di Tito (Graham, Naglestad, Pregardien; Cambreling) (2005) [BDRip 720p]


Performer:
Susan Graham (Sesto);
Hannah Esther Minutillo (Annio);
Catherine Naglestad (Vitellia);
Екатерина Сюрина (Servilia);
Roland Bracht (Publio);
Christoph Prégardien (Tito);
Orchestra and Chorus of The Opéra national de Paris

Complete name : E:\my rips\tito\La clemenza di Tito 2005 Paris.mkv
Format : Matroska
Format version : Version 2
File size : 7.77 GiB
Duration : 2h 27mn
Overall bit rate : 7 539 Kbps
Encoded date : UTC 2012-05-06 11:23:48
Writing application : mkvmerge v5.4.0 ('Piper') built on Mar 10 2012 13:34:39
Writing library : libebml v1.2.3 + libmatroska v1.3.0

Video
ID : 1
Format : AVC
Format/Info : Advanced Video Codec
Format profile : [email protected]
Format settings, CABAC : Yes
Format settings, ReFrames : 4 frames
Muxing mode : Header stripping
Codec ID : V_MPEG4/ISO/AVC
Duration : 2h 27mn
Bit rate : 6 000 Kbps
Width : 1 280 pixels
Height : 720 pixels
Display aspect ratio : 16:9
Frame rate : 29.970 fps
Color space : YUV
Chroma subsampling : 4:2:0
Bit depth : 8 bits
Scan type : Progressive
Bits/(Pixel*Frame) : 0.217
Stream size : 6.06 GiB (78%)
Writing library : x264 core 120 r2164 da19765
Encoding settings : cabac=1 / ref=3 / deblock=1:-1:-1 / analyse=0x3:0x113 / me=hex / subme=7 / psy=1 / psy_rd=1.00:0.15 / mixed_ref=1 / me_range=16 / chroma_me=1 / trellis=1 / 8x8dct=1 / cqm=0 / deadzone=21,11 / fast_pskip=1 / chroma_qp_offset=-3 / threads=6 / sliced_threads=0 / nr=0 / decimate=1 / interlaced=0 / bluray_compat=0 / constrained_intra=0 / bframes=3 / b_pyramid=2 / b_adapt=1 / b_bias=0 / direct=1 / weightb=1 / open_gop=0 / weightp=2 / keyint=300 / keyint_min=29 / scenecut=40 / intra_refresh=0 / rc_lookahead=40 / rc=2pass / mbtree=1 / bitrate=6000 / ratetol=1.0 / qcomp=0.60 / qpmin=0 / qpmax=69 / qpstep=4 / cplxblur=20.0 / qblur=0.5 / ip_ratio=1.40 / aq=1:1.00
Language : Italian
Default : Yes
Forced : No

Audio
ID : 2
Format : DTS
Format/Info : Digital Theater Systems
Muxing mode : Header stripping
Codec ID : A_DTS
Duration : 2h 27mn
Bit rate mode : Constant
Bit rate : 1 510 Kbps
Channel(s) : 5 channels
Channel positions : Front: L C R, Side: L R
Sampling rate : 48.0 KHz
Bit depth : 24 bits
Compression mode : Lossy
Stream size : 1.56 GiB (20%)
Title : Italian DTS
Language : Italian
Default : Yes
Forced : No

Text #1
ID : 3
Format : UTF-8
Codec ID : S_TEXT/UTF8
Codec ID/Info : UTF-8 Plain Text
Title : Russian
Language : Russian
Default : Yes
Forced : No

Text #2
ID : 4
Format : PGS
Muxing mode : zlib
Codec ID : S_HDMV/PGS
Codec ID/Info : The same subtitle format used on BDs/HD-DVDs
Title : Italian
Language : Italian
Default : No
Forced : No

Text #3
ID : 5
Format : PGS
Muxing mode : zlib
Codec ID : S_HDMV/PGS
Codec ID/Info : The same subtitle format used on BDs/HD-DVDs
Title : English
Language : English
Default : No
Forced : No

Text #4
ID : 6
Format : PGS
Muxing mode : zlib
Codec ID : S_HDMV/PGS
Codec ID/Info : The same subtitle format used on BDs/HD-DVDs
Title : French
Language : French
Default : No
Forced : No

Text #5
ID : 7
Format : PGS
Muxing mode : zlib
Codec ID : S_HDMV/PGS
Codec ID/Info : The same subtitle format used on BDs/HD-DVDs
Title : German
Language : German
Default : No
Forced : No

Text #6
ID : 8
Format : PGS
Muxing mode : zlib
Codec ID : S_HDMV/PGS
Codec ID/Info : The same subtitle format used on BDs/HD-DVDs
Title : Spanish
Language : Spanish
Default : No
Forced : No

Thanks to the original uploader
DOWNLOAD LINKS
Buy Premium From My Links To Get Resumable Support & Max Speed & To Support Me

Rapidgator.net:
http://rapidgator.net/file/445838b57dc98aebb2289df4d05e44f2/rqste.M.L.c.d.T.G.N.P.C.2005.BDR.720p.part01.rar.html
http://rapidgator.net/file/75b0203af698ae49d43fdf62c94e9d65/rqste.M.L.c.d.T.G.N.P.C.2005.BDR.720p.part02.rar.html
http://rapidgator.net/file/2cc0dc3ce56ac49b05ff533af0e750f0/rqste.M.L.c.d.T.G.N.P.C.2005.BDR.720p.part03.rar.html
http://rapidgator.net/file/8128c8b329275cb140ee9d39cbaae0d4/rqste.M.L.c.d.T.G.N.P.C.2005.BDR.720p.part04.rar.html
http://rapidgator.net/file/ab09412aec4b3cb9696c22031071725e/rqste.M.L.c.d.T.G.N.P.C.2005.BDR.720p.part05.rar.html
http://rapidgator.net/file/bdd281fb293695f9e46437e95afbd938/rqste.M.L.c.d.T.G.N.P.C.2005.BDR.720p.part06.rar.html
http://rapidgator.net/file/e0ed5ea3fd5a2504331a495f5ac61421/rqste.M.L.c.d.T.G.N.P.C.2005.BDR.720p.part07.rar.html
http://rapidgator.net/file/cd082eb39c41a4d61882f08d8a634621/rqste.M.L.c.d.T.G.N.P.C.2005.BDR.720p.part08.rar.html
http://rapidgator.net/file/30ce1d6ddc262869fe61c953ff496480/rqste.M.L.c.d.T.G.N.P.C.2005.BDR.720p.part09.rar.html

Uploaded.net:
http://uploaded.net/file/iky4d5gy/rqste.M.L.c.d.T.G.N.P.C.2005.BDR.720p.part01.rar
http://uploaded.net/file/y22eqngy/rqste.M.L.c.d.T.G.N.P.C.2005.BDR.720p.part02.rar
http://uploaded.net/file/xc6xesuk/rqste.M.L.c.d.T.G.N.P.C.2005.BDR.720p.part03.rar
http://uploaded.net/file/oi6nutun/rqste.M.L.c.d.T.G.N.P.C.2005.BDR.720p.part04.rar
http://uploaded.net/file/n1mbiptm/rqste.M.L.c.d.T.G.N.P.C.2005.BDR.720p.part05.rar
http://uploaded.net/file/gwqwfpob/rqste.M.L.c.d.T.G.N.P.C.2005.BDR.720p.part06.rar
http://uploaded.net/file/g08p5ezm/rqste.M.L.c.d.T.G.N.P.C.2005.BDR.720p.part07.rar
http://uploaded.net/file/73xngtrs/rqste.M.L.c.d.T.G.N.P.C.2005.BDR.720p.part08.rar
http://uploaded.net/file/svsipxj2/rqste.M.L.c.d.T.G.N.P.C.2005.BDR.720p.part09.rar

OBoom.com:
https://www.oboom.com/NP0FWLB8/rqste.M.L.c.d.T.G.N.P.C.2005.BDR.720p.part01.rar
https://www.oboom.com/AW1V9VNT/rqste.M.L.c.d.T.G.N.P.C.2005.BDR.720p.part02.rar
https://www.oboom.com/TO4F55V4/rqste.M.L.c.d.T.G.N.P.C.2005.BDR.720p.part03.rar
https://www.oboom.com/CN1MP6DK/rqste.M.L.c.d.T.G.N.P.C.2005.BDR.720p.part04.rar
https://www.oboom.com/KYGJN6VP/rqste.M.L.c.d.T.G.N.P.C.2005.BDR.720p.part05.rar
https://www.oboom.com/UBRB4AY8/rqste.M.L.c.d.T.G.N.P.C.2005.BDR.720p.part06.rar
https://www.oboom.com/JM12LSU4/rqste.M.L.c.d.T.G.N.P.C.2005.BDR.720p.part07.rar
https://www.oboom.com/5WNDRP38/rqste.M.L.c.d.T.G.N.P.C.2005.BDR.720p.part08.rar
https://www.oboom.com/PT2X994Y/rqste.M.L.c.d.T.G.N.P.C.2005.BDR.720p.part09.rar

Links are Interchangeable - No Password - Single Extraction
Direct Download

Tags: Mozart, clemenza, Graham, Naglestad, Pregardien, Cambreling

Mozart - La clemenza di Tito (Graham, Naglestad, Pregardien; Cambreling) (2005) [BDRip 720p] Download via Hotfile Rapidshare Fileserve Megaupload & FileSonic, Mozart - La clemenza di Tito (Graham, Naglestad, Pregardien; Cambreling) (2005) [BDRip 720p] free torrent downloads included crack, serial, keygen.Mozart - La clemenza di Tito (Graham, Naglestad, Pregardien; Cambreling) (2005) [BDRip 720p] Fast Download via Rapidshare Hotfile Fileserve Filesonic Megaupload, Mozart - La clemenza di Tito (Graham, Naglestad, Pregardien; Cambreling) (2005) [BDRip 720p] Torrents and Emule Download or anything related.
Leave a Comment
Your Name:
E-Mail:
Add Comments:

Enter Code: