Rossini - L'italiana in Algeri (Claudio Scimone, Merilyn Horne) [2010]

Download Now

Rossini - L'italiana in Algeri (Claudio Scimone, Merilyn Horne) [2010]


Rossini - L'italiana in Algeri (Claudio Scimone, Merilyn Horne) [2010]
EAC Rip | FLAC, IMG+CUE, LOG | Covers | 2cd, 643.38 MB
Classical | Label: Erato | Catalog Number: 2564 68335-9

" Recordings of Rossini's first full-length comic opera are coming thick and fast at present. Already this year Sony has re-issued, in the Opera House series, their 1979 recording featuring Lucia Valentini-Terrani. There is also a new live recording for review from Naxos. Recorded at Bad Wildbad in 2008 it features the new tenor find Lawrence Brownlee, making waves in Rossini at New York's Metropolitan, alongside the admired Italian diva Marianna Pizzolato in the title role; Rossini scholar and conductor Alberto Zedda is on the rostrum.
Robert J Farr "

Tracklisting:
CD1:
01. Sinfonia
02. Atto I. Scena 1. Introduzione: Serenate il mesto ciglio
03. Recitativo: Ritiratevi tutti
04. Scena 2. Recitativo: Il mio schiavo Italian farai che tosto venga
05. Scena 3. Cavatina: Languir per una bella e star lontan da quella
06. Recitativo: Senti, italiano, vo' darti moglie
07. Duetto: Se inclinassi a prender moglie
08. Scena 4. Coro e Cavatina: Quanta roba! Quanti schiavi!...
09. Recitativo: Gia ci siam. Tanto fa. Convien portarla con gran disinvoltura
10. Scena 5. Recitativo: Ah! Isabella... siam giunti a mal partito
11. Duetto: Ai capricci della sorte io so far l'indifferente
12. Scena 7. Recitativo: Ascoltami, italiano
13. Scena 8. Recitativo: Dunque degg'io lasciarvi?
14. Aria: Gia d'insolito ardore nel petto agitare, avvampare mi sento
15. Finale I. Scena 10. Viva, viva il flagel delle donne
16. Scena 11. (Oh! Che muso, che figura!...)
17. Scena 12. Vo' star con mia nipote
18. Scena 13. Pria di dividerci da voi, Signore, veniamo a esprimervi il nostro core
CD2:
01. Atto II. Scena 1. Introduzione: Uno stupid, uno stolto diventato e Mustafa
02. Scena 2. Recitativo: Amice, andate a dire all'italiana che io saro tra mezz' ora a ber sec oil caffe!
03. Scena 3. Recitativo: Qual disdetta e la mia!
04. Cavatina: Oh come il cor di giubilo esulta in questo istante
05. Scena 4. Recitativo: Ah! Signor Mustafa - Che cosa e stato
06. Coro: Viva il grande Kaimakan
07. Recitativo: Kaimakan! Io non capisco niente
08. Aria: Ho un gran peso sulla testa
09. Scena 5. Recitativo: Dunque a moment il signor Mustafa mi favorisce a prendere il caffe?
10. Cavatina: Per lui che adoro
11. Scena 6. Recitativo: Io non resisto piu: quest' Isabella e un incanto
12. Quintetto: Ti present di mia man ser Taddeo Kaimakan
13. Scena 7. Recitativo: Con tutta la sua boria questa volt ail Bey perde la testa
14. Aria: Le femmine d'Italia son disinvolte e scaltre
15. Scena 8. Recitativo: E tu speri di togliere Isabella dale man del Bey?
16. Scena 9. Recitativo: Orsu: la tua nipote con chi crede d'aver che far?
17. Terzetto: Pappataci! Che mai sento!
18. Scena 11. Recitativo: Tutti I nostri italiani ottener dal Bey spera Isabella?
19. Coro, Recitativo e Rondo: Pronti abbiamo e ferri e mani per fuggir
20. Scena 12. Recitativo: Kaimakan... - Signor?
21. Finale II. Scena 13. Dei Pappataci s'avanza il coro
22. Scena 14. Non sei tu che il grado eletto brami aver di Pappataci?
23. Scena 15. Son l'aure seconde, son placide l'onde
24. Scena 16. Mio signore... - Mio marito... - Cosa fate?

Exact Audio Copy V1.0 beta 1 from 15. November 2010

EAC extraction logfile from 7. August 2011, 19:21

Claudio Scimone, M.Horne, S.Ramey, E.Palacio, K.Battle / Rossini - L'italiana in Algeri CD1

Used drive : PIONEER DVD-RW DVR-218L Adapter: 1 ID: 0

Read mode : Secure
Utilize accurate stream : Yes
Defeat audio cache : Yes
Make use of C2 pointers : No

Read offset correction

: 6
Overread into Lead-In and Lead-Out : No
Fill up missing offset samples with silence : Yes
Delete leading and trailing silent blocks : No
Null samples used in CRC calculations : Yes
Used interface
: Native Win32 interface for Win NT & 2000

Used output format : User Defined Encoder
Selected bitrate : 192 kBit/s
Quality : High
Add ID3 tag : No
Command line compressor : C:\Program Files\Exact Audio Copy\Flac\flac.exe
Additional command line options : -T "DATE=%y" -T "GENRE=%m" -8 -V %s

TOC of the extracted CD Track | Start | Length | Start sector | End sector
--1 | 0:00.00 | 8:02.05 | 0 | 36154 2 | 8:02.05 | 7:28.63 | 36155 | 69817 3 | 15:30.68 | 0:12.26 | 69818 | 70743 4 | 15:43.19 | 1:44.32 | 70744 | 78575 5 | 17:27.51 | 6:50.64 | 78576 | 109389 6 | 24:18.40 | 1:10.05 | 109390 | 114644 7 | 25:28.45 | 4:36.26 | 114645 | 135370 8 | 30:04.71 | 5:27.53 | 135371 | 159948 9 | 35:32.49 | 1:17.24 | 159949 | 165747
10 | 36:49.73 | 1:10.17 | 165748 | 171014
11 | 38:00.15 | 8:20.62 | 171015 | 208576
12 | 46:21.02 | 0:24.40 | 208577 | 210416
13 | 46:45.42 | 1:11.28 | 210417 | 215769
14 | 47:56.70 | 4:04.45 | 215770 | 234114
15 | 52:01.40 | 2:38.33 | 234115 | 245997
16 | 54:39.73 | 4:48.39 | 245998 | 267636
17 | 59:28.37 | 2:19.38 | 267637 | 278099
18 | 61:48.00 | 9:39.65 | 278100 | 321589

Range status and errors

Selected range Filename C:\Rossini - L'italiana in Algeri CD1.wav Peak level 94.5 %
Extraction speed 0.2 X
Range quality 100.0 %
Test CRC 5DCA527F
Copy CRC 5DCA527F
Copy OK

No errors occurred


AccurateRip summary

Track 1 not present in database
Track 2 not present in database
Track 3 not present in database
Track 4 not present in database
Track 5 not present in database
Track 6 not present in database
Track 7 not present in database
Track 8 not present in database
Track 9 not present in database
Track 10 not present in database
Track 11 not present in database
Track 12 not present in database
Track 13 not present in database
Track 14 not present in database
Track 15 not present in database
Track 16 not present in database
Track 17 not present in database
Track 18 not present in database

None of the tracks are present in the AccurateRip database

End of status report

==== Log checksum 5433FC2DED0087D6F5A611C073F7E49045C9EF7734D22E643A852DBD77ED0FDC ====



Exact Audio Copy V1.0 beta 1 from 15. November 2010

EAC extraction logfile from 7. August 2011, 20:46

Claudio Scimone, M.Horne, S.Ramey, E.Palacio, K.Battle / Rossini - L'italiana in Algeri CD2

Used drive : PIONEER DVD-RW DVR-218L Adapter: 1 ID: 0

Read mode : Secure
Utilize accurate stream : Yes
Defeat audio cache : Yes
Make use of C2 pointers : No

Read offset correction

: 6
Overread into Lead-In and Lead-Out : No
Fill up missing offset samples with silence : Yes
Delete leading and trailing silent blocks : No
Null samples used in CRC calculations : Yes
Used interface
: Native Win32 interface for Win NT & 2000

Used output format : User Defined Encoder
Selected bitrate : 192 kBit/s
Quality : High
Add ID3 tag : No
Command line compressor : C:\Program Files\Exact Audio Copy\Flac\flac.exe
Additional command line options : -T "DATE=%y" -T "GENRE=%m" -8 -V %s

TOC of the extracted CD Track | Start | Length | Start sector | End sector
--1 | 0:00.00 | 1:42.41 | 0 | 7690 2 | 1:42.41 | 1:25.06 | 7691 | 14071 3 | 3:07.47 | 1:27.03 | 14072 | 20599 4 | 4:34.50 | 2:17.22 | 20600 | 30896 5 | 6:51.72 | 0:51.43 | 30897 | 34764 6 | 7:43.40 | 1:05.08 | 34765 | 39647 7 | 8:48.48 | 1:02.56 | 39648 | 44353 8 | 9:51.29 | 4:38.30 | 44354 | 65233 9 | 14:29.59 | 2:07.07 | 65234 | 74765
10 | 16:36.66 | 6:52.05 | 74766 | 105670
11 | 23:28.71 | 0:43.48 | 105671 | 108943
12 | 24:12.44 | 9:58.25 | 108944 | 153818
13 | 34:10.69 | 0:30.08 | 153819 | 156076
14 | 34:41.02 | 2:19.30 | 156077 | 166531
15 | 37:00.32 | 0:16.40 | 166532 | 167771
16 | 37:16.72 | 0:55.72 | 167772 | 171968
17 | 38:12.69 | 6:02.43 | 171969 | 199161
18 | 44:15.37 | 0:38.41 | 199162 | 202052
19 | 44:54.03 | 9:45.08 | 202053 | 245935
20 | 54:39.11 | 0:30.68 | 245936 | 248253
21 | 55:10.04 | 2:55.01 | 248254 | 261379
22 | 58:05.05 | 6:48.30 | 261380 | 292009
23 | 64:53.35 | 1:57.65 | 292010 | 300849
24 | 66:51.25 | 2:27.70 | 300850 | 311944

Range status and errors

Selected range Filename C:\Rossini - L'italiana in Algeri CD2.wav Peak level 96.7 %
Extraction speed 0.0 X
Range quality 100.0 %
Test CRC 853ACE5F
Copy CRC 853ACE5F
Copy OK

No errors occurred


AccurateRip summary

Track 1 not present in database
Track 2 not present in database
Track 3 not present in database
Track 4 not present in database
Track 5 not present in database
Track 6 not present in database
Track 7 not present in database
Track 8 not present in database
Track 9 not present in database
Track 10 not present in database
Track 11 not present in database
Track 12 not present in database
Track 13 not present in database
Track 14 not present in database
Track 15 not present in database
Track 16 not present in database
Track 17 not present in database
Track 18 not present in database
Track 19 not present in database
Track 20 not present in database
Track 21 not present in database
Track 22 not present in database
Track 23 not present in database
Track 24 not present in database

None of the tracks are present in the AccurateRip database

End of status report

==== Log checksum 44425DEFD05F0CA87D834EE7E0E90C04CFB142C4D4C12171718DE0024BB200F3 ====


Performer:
Mustafa - Samuel Ramey
Isabella - Merilyn Horne
Lindoro - Ernesto Palacio
Elvira - Kathleen Battle
Haly - Nicola Zaccaria
Zulma - Clara Foti
Taddeo - Domenico Trimarchi
Prague Philharmonic Choir
I Solisti Veneti
Conductor - Claudio Scimone
DOWNLOAD LINKS:
Buy Premium To Support Me & Get Resumable Support & Max Speed


Links are Interchangeable - No Password - Single Extraction
Direct Download

Tags: Rossini, italiana, Algeri, Claudio, Scimone, Merilyn

Rossini - L'italiana in Algeri (Claudio Scimone, Merilyn Horne) [2010] Download via Hotfile Rapidshare Fileserve Megaupload & FileSonic, Rossini - L'italiana in Algeri (Claudio Scimone, Merilyn Horne) [2010] free torrent downloads included crack, serial, keygen.Rossini - L'italiana in Algeri (Claudio Scimone, Merilyn Horne) [2010] Fast Download via Rapidshare Hotfile Fileserve Filesonic Megaupload, Rossini - L'italiana in Algeri (Claudio Scimone, Merilyn Horne) [2010] Torrents and Emule Download or anything related.
Leave a Comment
Your Name:
E-Mail:
Add Comments:

Enter Code: