Scott LaFaro - Deep In A Dream: Live In 1958 (2012) {SSJ Japan DSD Mini LP Remaster}

Download Now


Scott LaFaro - Deep In A Dream: Live In 1958 (2012) {SSJ Japan DSD Mini LP Remaster}
Scott LaFaro - Deep In A Dream: Live In 1958 (2012) {SSJ Japan DSD Mini LP Remaster}
EAC rip (secure mode) | FLAC (image)+CUE+LOG -> 156 Mb | MP3 @320 -> 93 Mb
Full Artwork @ 300 dpi (png) -> 33 Mb | 5% repair rar | DSD Remaster
© 2012 SS of Japan / Pacific Delights | XQAM-1619
Jazz / Cool / Modal Music / Bass

"Rare reissue of historic recordings by Scott LaFaro. New DSD remastering. Scott LaFaro left us a very small number of recordings due to his untimely death in 1961. He was a genius who developed a revolutionary way of playing the bass. Whether recorded live or in studio, these recordings are all worth listening to. This album consists of three ABC Stars of Jazz TV probrams as well as a very rare rehearsal session at Bob Andrews' Recordville, the record store belonging to Andrews, the famous devotee of the West Coast jazz scene. All are 1958 performances while LaFaro was with the Victor Feldman group. Recommended for fans of Scott LaFaro!"

Scott LaFaro - Deep In A Dream: Live In 1958 (2012) {SSJ Japan DSD Mini LP Remaster}


Personnel:
Scott LaFaro (bass)
Victor Feldman (piano,vibraphone)
Stan Levey (drums)
Cal Tjader (vibraphone)
Vince Guaraldi (piano)
Billy Higgins (drums)
Richie Kamuca (tenor sax)
Frank Rosolino (trombone)
Ruth Price (vocal)

Recorded April 7, June 30, October 9 and November 10, 1958.

tracklist:
01. Rehearsal Blues
02. There's No Greater Love
03. BeBop
04. Flamingo
05. Crow's Nest
06. Liz-Anne
07. Tumbaro
08. Cherry
09. Deep in a Dream
10. Chart of My Heart
11. You Are My Lucky Star
12. (It Will Have to Do) Until the Real Thing Comes Along

Exact Audio Copy V1.0 beta 3 from 29. August 2011

EAC extraction logfile from 7. March 2013, 23:58

Scott LaFaro / Deep in a Dream: Live in 1958

Used drive : ASUS DRW-24B1LT Adapter: 5 ID: 1

Read mode : Secure
Utilize accurate stream : Yes
Defeat audio cache : Yes
Make use of C2 pointers : No

Read offset correction

: 6
Overread into Lead-In and Lead-Out : No
Fill up missing offset samples with silence : Yes
Delete leading and trailing silent blocks : No
Null samples used in CRC calculations : Yes
Used interface
: Native Win32 interface for Win NT & 2000

Used output format : User Defined Encoder
Selected bitrate : 768 kBit/s
Quality : High
Add ID3 tag : No
Command line compressor : C:\Program Files\Exact Audio Copy\Flac\flac.exe
Additional command line options : -8 -V -T "ARTIST=%artist%" -T "TITLE=%title%" -T "ALBUM=%albumtitle%" -T "DATE=%year%" -T "TRACKNUMBER=%tracknr%" -T "TOTALTRACKS=%numtracks%" -T "GENRE=%genre%" -T "ALBUMARTIST=%albumartist%" -T "ALBUM ARTIST=%albumartist%" -T "COMMENT=EAC Secure Mode, Test & Copy, AccurateRip, FLAC -8" %source%

TOC of the extracted CD Track | Start | Length | Start sector | End sector
--1 | 0:00.00 | 9:37.37 | 0 | 43311 2 | 9:37.37 | 3:09.00 | 43312 | 57486 3 | 12:46.37 | 2:45.38 | 57487 | 69899 4 | 15:32.00 | 3:11.37 | 69900 | 84261 5 | 18:43.37 | 3:40.38 | 84262 | 100799 6 | 22:24.00 | 3:21.37 | 100800 | 115911 7 | 25:45.37 | 3:12.00 | 115912 | 130311 8 | 28:57.37 | 2:48.63 | 130312 | 142974 9 | 31:46.25 | 3:33.50 | 142975 | 158999
10 | 35:20.00 | 3:12.37 | 159000 | 173436
11 | 38:32.37 | 1:48.00 | 173437 | 181536
12 | 40:20.37 | 3:39.38 | 181537 | 197999

Range status and errors

Selected range Filename F:\audio\Scott LaFaro - Deep in a Dream- Live in 1958.wav Peak level 93.1 %
Extraction speed 5.4 X
Range quality 100.0 %
Test CRC 648E868A
Copy CRC 648E868A
Copy OK

No errors occurred


AccurateRip summary

Track 1 not present in database
Track 2 not present in database
Track 3 not present in database
Track 4 not present in database
Track 5 not present in database
Track 6 not present in database
Track 7 not present in database
Track 8 not present in database
Track 9 not present in database
Track 10 not present in database
Track 11 not present in database
Track 12 not present in database

None of the tracks are present in the AccurateRip database

End of status report

- CUETools DB Plugin V2.1.3

[CTDB TOCID: OoR9rf792xMNIcVTY9EJq627DjI-] found, Submit result: already submitted
[5539a9d7] (1/1) Accurately ripped

==== Log checksum 59FB7DC4B49D2C434CD63FE9EA16D67A1CCAC97D39ABEA5E111D0C72D8D146D5 ====

Scott LaFaro - Deep In A Dream: Live In 1958 (2012) {SSJ Japan DSD Mini LP Remaster}

Scott LaFaro - Deep In A Dream: Live In 1958 (2012) {SSJ Japan DSD Mini LP Remaster}


tnanks to fiks22...
DOWNLOAD:
Buy Premium To Support Me & Get Resumable Support & Max Speed


Links are Interchangeable - No Password
Direct Download

Tags: LaFaro, Remaster

Scott LaFaro - Deep In A Dream: Live In 1958 (2012) {SSJ Japan DSD Mini LP Remaster} Download via Hotfile Rapidshare Fileserve Megaupload & FileSonic, Scott LaFaro - Deep In A Dream: Live In 1958 (2012) {SSJ Japan DSD Mini LP Remaster} free torrent downloads included crack, serial, keygen.Scott LaFaro - Deep In A Dream: Live In 1958 (2012) {SSJ Japan DSD Mini LP Remaster} Fast Download via Rapidshare Hotfile Fileserve Filesonic Megaupload, Scott LaFaro - Deep In A Dream: Live In 1958 (2012) {SSJ Japan DSD Mini LP Remaster} Torrents and Emule Download or anything related.
Leave a Comment
Your Name:
E-Mail:
Add Comments:

Enter Code: