Depeche Mode - One Night In Paris 2001 (2014) [HDTV, 1080i]

Download Now

Depeche Mode - One Night In Paris 2001 (2014) [HDTV, 1080i]

Depeche Mode - One Night In Paris 2001 (2014)
TS, H.264 1280x1080, 5566kbps, 16:9, 25.000fps | AC3, 2ch, 384kbps
Synth-Pop | 01:46:00 | ~ 5.04 Gb

"One Night in Paris - is a video release by Depeche Mode, featuring an entire concert from their 2001 Exciter Tour, shot at the Palais Omnisports de Paris-Bercy on 9 and 10 October 2001..."



Tracklist:

01 - Dream on - guitar intro
02 - The dead of night
03 - The sweetest condition
04 - Halo
05 - Walking in my shoes
06 - Dream on
07 - When the body speaks
08 - Waiting for the night
09 - It doesn't matter two
10 - Breathe
11 - Freelove
12 - Enjoy the silence
13 - I feel you
14 - In your room
15 - It's no good
16 - Personal Jesus
17 - Home
18 - Condemnation
19 - Black celebration
20 - Never let me down again

General
ID : 1 (0x1)
Complete name : G:\UP\Mix\Depeche Mode - One Night In Paris 2001\Depeche Mode - One Night In Paris 2001.ts
Format
: MPEG-TS
File size
: 4.78 GiB
Duration
: 1h 46mn
Overall bit rate mode : Variable
Overall bit rate : 6 394 Kbps

Video
ID : 1023 (0x3FF)
Menu ID
: 1 (0x1)
Format
: AVC
Format/Info
: Advanced Video Codec
Format profile : [email protected]
Format settings, CABAC : Yes
Format settings, ReFrames : 4 frames
Format settings, GOP : M=4, N=28
Codec ID
: 27
Duration
: 1h 46mn
Bit rate
: 5 690 Kbps
Width
: 1 280 pixels
Height
: 1 080 pixels
Display aspect ratio : 16:9
Frame rate
: 25.000 fps
Standard
: Component
Color space
: YUV
Chroma subsampling

: 4:2:0
Bit depth
: 8 bits
Scan type
: Interlaced
Scan order
: Top Field First
Bits/(Pixel*Frame)

: 0.165
Stream size
: 4.25 GiB (89%)
Color primaries : BT.709
Transfer characteristics : BT.709
Matrix coefficients

: BT.709

Audio
ID : 1027 (0x403)
Menu ID
: 1 (0x1)
Format
: AC-3
Format/Info
: Audio Coding 3
Mode extension : CM (complete main)
Format settings, Endianness : Big
Codec ID
: 6
Duration
: 1h 46mn
Bit rate mode : Constant
Bit rate
: 384 Kbps
Channel(s)
: 2 channels
Channel positions: Front: L R
Sampling rate : 48.0 KHz
Bit depth
: 16 bits
Compression mode : Lossy
Delay relative to video : -40ms
Stream size
: 294 MiB (6%)
Language
: German

Depeche Mode - One Night In Paris 2001 (2014) [HDTV, 1080i]

Depeche Mode - One Night In Paris 2001 (2014) [HDTV, 1080i]

Depeche Mode - One Night In Paris 2001 (2014) [HDTV, 1080i]

Depeche Mode - One Night In Paris 2001 (2014) [HDTV, 1080i]

Depeche Mode - One Night In Paris 2001 (2014) [HDTV, 1080i]

Depeche Mode - One Night In Paris 2001 (2014) [HDTV, 1080i]

DOWNLOAD:
Buy Premium To Support Me & Get Resumable Support & Max Speed


Links are Interchangeable - No Password
Direct Download

Tags: Depeche

Depeche Mode - One Night In Paris 2001 (2014) [HDTV, 1080i] Download via Hotfile Rapidshare Fileserve Megaupload & FileSonic, Depeche Mode - One Night In Paris 2001 (2014) [HDTV, 1080i] free torrent downloads included crack, serial, keygen.Depeche Mode - One Night In Paris 2001 (2014) [HDTV, 1080i] Fast Download via Rapidshare Hotfile Fileserve Filesonic Megaupload, Depeche Mode - One Night In Paris 2001 (2014) [HDTV, 1080i] Torrents and Emule Download or anything related.
Leave a Comment
Your Name:
E-Mail:
Add Comments:

Enter Code: