Golden Earring - Moontan (1973/2001)

Download Now

Golden Earring - Moontan (1973/2001)

Golden Earring - Moontan (1973/2001)
EAC Rip | FLAC (Img) + Cue + Log ~ 330 Mb | MP3 CBR320 ~ 129 Mb
Scans Included (JPG, 600 dpi) | RAR 5% Recovery
Hard Rock, Progressive Rock | Red Bullet #RB 66.206

"Moontan is an album by Dutch rock band Golden Earring, released in 1973. It contains their most notable radio hit, "Radar Love" and was voted best Dutch pop album ever by readers of music magazine Oor in 2008. In the Q & Mojo Classic Special Edition Pink Floyd & The Story of Prog Rock, the album came #32 in its list of "40 Cosmic Rock Albums"..."

Wiki | Discogs | All Music
***************

Golden Earring - Moontan (1973/2001)

Track List:

01. Candy's Going Bad [06:13]
02. Are You Receiving Me [09:33]
03. Suzy Lunacy (Mental Rock) [04:26]
04. Radar Love [06:27]
05. Just Like Vince Taylor [04:33]
06. The Vanilla Queen [09:17]

Exact Audio Copy V1.0 beta 1 from 15. November 2010

EAC extraction logfile from 13. October 2015, 19:31

Golden Earring / Moontan

Used drive : MATSHITADVD-RAM UJ8A0AS Adapter: 0 ID: 1

Read mode : Secure
Utilize accurate stream : Yes
Defeat audio cache : Yes
Make use of C2 pointers : No

Read offset correction

: 102
Overread into Lead-In and Lead-Out : No
Fill up missing offset samples with silence : Yes
Delete leading and trailing silent blocks : No
Null samples used in CRC calculations : Yes
Used interface
: Native Win32 interface for Win NT & 2000

Used output format : Internal WAV Routines
Sample format : 44.100 Hz; 16 Bit; Stereo

TOC of the extracted CD Track | Start | Length | Start sector | End sector
--1 | 0:00.00 | 6:12.40 | 0 | 27939 2 | 6:12.40 | 9:32.07 | 27940 | 70846 3 | 15:44.47 | 4:25.60 | 70847 | 90781 4 | 20:10.32 | 6:26.53 | 90782 | 119784 5 | 26:37.10 | 4:32.70 | 119785 | 140254 6 | 31:10.05 | 9:16.32 | 140255 | 181986

Range status and errors

Selected range Filename C:\Users\Alex\Music\Alexharvey\Golden Earring - Moontan.wav Peak level 100.0 %
Extraction speed 0.2 X
Range quality 100.0 %
Test CRC 89C22510
Copy CRC 89C22510
Copy OK

No errors occurred


AccurateRip summary

Track 1 accurately ripped (confidence 34) [C23B8007]
Track 2 accurately ripped (confidence 34) [98A79A26]
Track 3 accurately ripped (confidence 34) [5CE44285]
Track 4 accurately ripped (confidence 34) [FDDA8E28]
Track 5 accurately ripped (confidence 34) [9ECFD7D6]
Track 6 accurately ripped (confidence 34) [9A21AB7A]

All tracks accurately ripped

End of status report

==== Log checksum 2753ACFEC64A379821699D4F969216B11B39B90AD232AA81E0E3F8D782AA1764 ====

foobar2000 1.2.6 / Dynamic Range Meter 1.1.1
log date: 2015-10-14 08:07:12

Analyzed: Golden Earring / Moontan

DR Peak RMS Duration Track

DR8 0.00 dB -9.77 dB 6:13 01-Candy's Going Bad
DR9 0.00 dB -11.37 dB 9:32 02-Are You Receiving Me
DR9 0.00 dB -10.61 dB 4:26 03-Suzy Lunacy (Mental Rock)
DR8 0.00 dB -11.11 dB 6:27 04-Radar Love
DR8 0.00 dB -9.88 dB 4:33 05-Just Like Vince Taylor
DR8 0.00 dB -10.51 dB 9:16 06-The Vanilla Queen

Number of tracks: 6
Official DR value: DR8

Samplerate: 44100 Hz
Channels: 2
Bits per sample: 16
Bitrate: 982 kbps
Codec: FLAC

[CUETools log; Date: 14.10.2015 8:07:05; Version: 2.1.5]
[CTDB TOCID: 7VcesVFmlqVeKgCVL.l7o2PbC.Y-] found.
Track | CTDB Status
1 | (25/25) Accurately ripped
2 | (25/25) Accurately ripped
3 | (25/25) Accurately ripped
4 | (25/25) Accurately ripped
5 | (25/25) Accurately ripped
6 | (24/25) Accurately ripped
[AccurateRip ID: 0009a32c-00330dfa-53097a06] found.
Track [ CRC | V2 ] Status
01 [c23b8007|eba930cb] (26+34/60) Accurately ripped
02 [98a79a26|339517a0] (27+34/61) Accurately ripped
03 [5ce44285|37e2c7e6] (27+34/61) Accurately ripped
04 [fdda8e28|3d331b09] (26+34/60) Accurately ripped
05 [9ecfd7d6|7d7efc4f] (26+34/60) Accurately ripped
06 [9a21ab7a|dbae2742] (26+34/60) Accurately ripped

Track Peak [ CRC32 ] [W/O NULL] [ LOG ]
-- 100,0 [89C22510] [FAA8CD63] CRC32
01 100,0 [5B3920F9] [A86CAFCE]
02 100,0 [C4B58BD0] [12F8271E]
03 100,0 [06E2EA20] [7A04CE84]
04 100,0 [F9874091] [7A4AF231]
05 100,0 [32FC8135] [A15DC0C0]
06 100,0 [946ACD60] [6FEDF679]

Golden Earring - Moontan (1973/2001)


DOWNLOAD LINKS
Buy Premium From My Links To Get Resumable Support & Max Speed & To Support Me


Links are Interchangeable - No Password - Single Extraction
Direct Download

Tags: Golden, Earring, Moontan

Golden Earring - Moontan (1973/2001) Download via Hotfile Rapidshare Fileserve Megaupload & FileSonic, Golden Earring - Moontan (1973/2001) free torrent downloads included crack, serial, keygen.Golden Earring - Moontan (1973/2001) Fast Download via Rapidshare Hotfile Fileserve Filesonic Megaupload, Golden Earring - Moontan (1973/2001) Torrents and Emule Download or anything related.
Leave a Comment
Your Name:
E-Mail:
Add Comments:

Enter Code: