Clutch - Psychic Warfare (2015)

Download Now

Clutch - Psychic Warfare (2015)

Clutch - Psychic Warfare (2015)
EAC Rip | FLAC, IMG+CUE+LOG | 330 MB | MP3 CBR 320 Kbps | 110 MB | Complete HQ Scans | PNG -> 140 MB
Stone Rock | Label: Weathermaker Music #WM040 | RAR 3% Rec. | Nitroflare.com

"Clutch have really been on a roll the last few years. The band has been around for more than two decades and released some very well-received albums like 2004‘s Blast Tyrant. Since they started their own label Weathermaker Music a few years back, they've taken things to an even higher level. 2013‘s Earth Rocker received rave reviews, reintroducing them after a four year album absence and drawing a whole new generation of fans. Their latest opus, Psychic Warfare, takes a similar path that turns in a slightly different direction. Frontman Neil Fallon is a masterful storyteller, or as he calls it, "a professional liar." A narrator sets the stage with the brief spoken word intro "The Affidavit," and Clutch take it from there. "X-Ray Visions" is a glorious opener with thick riffs and driving beat. It's not a true title track, but the chorus "Psychic warfare is real" is what inspired the album title. After a ripping guitar solo, Fallon slows down the proceedings and introduces the band using their astrological signs before kicking things back into gear. It's an odd but endearing moment. Psychic Warfare has the accessibility and raucousness of Earth Rocker, typified in singalong jams like "Firebirds" and "Noble Savage." Clutch also add darker and more ominous textures that provide depth without spoiling the party. The band once again worked with producer Machine (Lamb of God, Crobot, Suicide Silence). They work well together, and the album's tones are impeccable. There's plenty of bottom end so you can hear talented bassist Dan Maines and drummer Jean-Paul Gaster. Machine's studio is now located in Texas, which may have influenced the funky "A Quick Death in Texas" and the instrumental "Doom Saloon." While the majority of the record cruises along at a pretty good clip, Clutch slow down the tempo from time to time. "Our Lady of Electric Light" has Fallon in troubador mode, accompanied by guitars that are sometimes shimmering,other times twangy. One of the things that makes Clutch so appealing is their ability to shift from balls out rock ‘n' roll to more subdued and subtle styles. Psychic Warfare is a tour de force that saves the best for last. Album closer "Son of Virginia" is about twice as long as any other track and makes the most of all seven plus minutes. The song starts off countrified and mellow before the heaviness kicks in, eases back and then takes off. Fallon's vocals on the song are diverse, ranging from a subdued croon to full out belting, testifying to his musical congregation. After the song ends, the narrator returns, bookending the album. If you haven't got on the Clutch train yet, Psychic Warfare is the perfect place to board. It's the sound of a band that's mature enough to put their musical talents to optimum use while still keeping the party going strong until the break of dawn.

~ by pitchfork.com
"

Tracklist :

1. The Affidavit - 0:25
2. X-Ray Visions - 3:42
3. Firebirds! - 3:00
4. A Quick Death In Texas - 3:57
5. Sucker For The Witch - 3:22
6. Your Love Is Incarceration - 3:14
7. Doom Saloon - 1:13
8. Our Lady Of Electric Light - 3:52
9. Noble Savage - 2:50
10. Behold The Colossus - 3:52
11. Decapitation Blues - 3:11
12. Son Of Virginia - 7:15

Exact Audio Copy V1.1 from 23. June 2015

EAC extraction logfile from 13. October 2015, 16:13

Clutch / Psychic Warfare

Used drive : PIONEER DVD-RW DVR-219L Adapter: 1 ID: 1

Read mode : Secure
Utilize accurate stream : Yes
Defeat audio cache : Yes
Make use of C2 pointers : No

Read offset correction

: 6
Overread into Lead-In and Lead-Out : No
Fill up missing offset samples with silence : Yes
Delete leading and trailing silent blocks : No
Null samples used in CRC calculations : Yes
Used interface
: Native Win32 interface for Win NT & 2000

Used output format : Internal WAV Routines
Sample format : 44.100 Hz; 16 Bit; Stereo

TOC of the extracted CD Track | Start | Length | Start sector | End sector
--1 | 0:00.00 | 0:25.15 | 0 | 1889 2 | 0:25.15 | 3:42.10 | 1890 | 18549 3 | 4:07.25 | 3:00.26 | 18550 | 32075 4 | 7:07.51 | 3:57.33 | 32076 | 49883 5 | 11:05.09 | 3:21.39 | 49884 | 64997 6 | 14:26.48 | 3:14.21 | 64998 | 79568 7 | 17:40.69 | 1:12.65 | 79569 | 85033 8 | 18:53.59 | 3:51.70 | 85034 | 102428 9 | 22:45.54 | 2:49.62 | 102429 | 115165
10 | 25:35.41 | 3:51.68 | 115166 | 132558
11 | 29:27.34 | 3:11.22 | 132559 | 146905
12 | 32:38.56 | 7:15.27 | 146906 | 179557

Range status and errors

Selected range Filename D:\.by necromandus for avaxhome\Clutch - Psychic Warfare.wav Peak level 98.8 %
Extraction speed 3.9 X
Range quality 100.0 %
Test CRC D647CDA1
Copy CRC D647CDA1
Copy OK

No errors occurred


AccurateRip summary

Track 1 not present in database
Track 2 not present in database
Track 3 not present in database
Track 4 not present in database
Track 5 not present in database
Track 6 not present in database
Track 7 not present in database
Track 8 not present in database
Track 9 not present in database
Track 10 not present in database
Track 11 not present in database
Track 12 not present in database

None of the tracks are present in the AccurateRip database

End of status report

- CUETools DB Plugin V2.1.6

[CTDB TOCID: uP6RPbrPkbAd8fcthUX9LRtFay4-] found
Submit result: uP6RPbrPkbAd8fcthUX9LRtFay4- has been confirmed
Track | CTDB Status
1 | (43/43) Accurately ripped
2 | (43/43) Accurately ripped
3 | (43/43) Accurately ripped
4 | (42/43) Accurately ripped
5 | (43/43) Accurately ripped
6 | (43/43) Accurately ripped
7 | (43/43) Accurately ripped
8 | (43/43) Accurately ripped
9 | (43/43) Accurately ripped
10 | (43/43) Accurately ripped
11 | (43/43) Accurately ripped
12 | (43/43) Accurately ripped

==== Log checksum A7932999E343585470DA20E16E6676A65D743CE9FFEA56EAE66D8AF88A785F4B ====
s

* Neil Fallon - Vocals, guitar
* Tim Sult - Guitar
* Dan Maines - Bass
* Jean-Paul Gaster - Drums, percussion

Produced, engineered and mixed by Machine
Basic tracks recorded at The Machine Shop, Austin, TX.
Vocals and overdubs recorded at The Doom Saloon, Frederick, MO.
Enginnered by Alberto De Icaza, mastered by Paul Logus tor PLX Mastering
DOWNLOAD LINKS
Buy Premium From My Links To Get Resumable Support & Max Speed & To Support Me


Links are Interchangeable - No Password - Single Extraction
Direct Download

Tags: Clutch, Psychic, Warfare

Clutch - Psychic Warfare (2015) Download via Hotfile Rapidshare Fileserve Megaupload & FileSonic, Clutch - Psychic Warfare (2015) free torrent downloads included crack, serial, keygen.Clutch - Psychic Warfare (2015) Fast Download via Rapidshare Hotfile Fileserve Filesonic Megaupload, Clutch - Psychic Warfare (2015) Torrents and Emule Download or anything related.
Leave a Comment
Your Name:
E-Mail:
Add Comments:

Enter Code: