Francois Ier: Musiques D'un Regne - Doulce Memoire, Denis Raisin Dadre (2015) [2CD] {Zig Zag Territoires}

Download Now


Francois Ier: Musiques D'un Regne - Doulce Memoire, Denis Raisin Dadre (2015) [2CD] {Zig Zag Territoires}
Francois Ier: Musiques D'un Regne - Doulce Memoire, Denis Raisin Dadre (2015) [2CD] {Zig Zag Territoires}
EAC rip (secure mode) | FLAC (tracks)+CUE+LOG -> 681 Mb | MP3 @320 -> 358 Mb
Full Artwork @ 300 dpi (pdf+jpg) -> 53 Mb | 5% repair rar
© 2015 Zig Zag Territoires | ZZT372
Classical / Early Music / Renaissance / Sacred / Vocal Music

"Francis I, as a princely patron of the arts, realised that music was a very useful tool for his policy of prestige: Official music for great diplomatic events like the amazing musical ‘tournament' between the Chapelle of the King of France and the Chapel Royal of Henry VIII of England at the Mass for the Field of the Cloth of Gold, reconstructed in this recording; but also more intimate music with the exceptionally subtle, refined and learned repertory to be heard in the monarch's châteaux such as Chambord and Fontainebleau, performed by the finest singers and instrumentalists of the realm under the aegis of the Chambre du Roi. Here is a feast of previously unrecorded music for King Francis I, the symbol of a happy Renaissance."

Francois Ier: Musiques D'un Regne - Doulce Memoire, Denis Raisin Dadre (2015) [2CD] {Zig Zag Territoires}

"This volume looks more like a book than a pair of CDs, with 132pp including monochrome pictures of the performers, the others being full colour facsimiles of pictures and music. The two discs are slipped into the front and back covers. The first is concerned with the Mass for the Field of the Cloth of Gold. This was a combined event, shared between French and English singers on 23rd June 1520 and led by Cardinal Wolsey and the Papal Legate. It would be interesting to prepare an edition for a celebration of the 500th anniversary which choirs and ad hoc bodies could enjoy, especially if the two nationalities were alternated as in the original. The pronunciation, however, was entirely French. There were eight singers and seven players - the 24 English trumpeters presumably were banned from the Mass."


Francois Ier: Musiques D'un Regne - Doulce Memoire, Denis Raisin Dadre (2015) [2CD] {Zig Zag Territoires}

"The second disc is concerned with the chanson (five singers and seven instrumentalists). The section on "women, music, and prohibitions" draws on the usual complaints of women singing in public: "With music the rude peasant lass, who is up before day to spin or weave, wards off her drowsiness and makes her toil a pleasure"! The music, however, is elegant, and presumably not related to peasant lasses. I'd be happier if the discussion of the chansons had been placed together with the sources, texts and translations. As it is, the contents of CD2 are more awkward to read than CD1. These reservations aside, this is an impressive publication."


Francois Ier: Musiques D'un Regne - Doulce Memoire, Denis Raisin Dadre (2015) [2CD] {Zig Zag Territoires}


Personnel:
Ensemble Doulce Mémoire
Denis Raisin Dadre, conductor

Philippe Vallepin, Véronique Bourin, Clara Coutouly, Paulin Bündgen, Hugues Primard, Marc Manodritta, Vincent Bouchot, François Fauché, Marc Busnel, Eva Godard, Franck Poitrineau, Stéphane Müller, Elsa Frank, Jérémie Papasergio, Bruno Caillat and others...

tracklist:
CD1 - Camp du Drap d'Or

01 - Pavanes
02 - ''Apres que les trompettes, ...'' (Texte)
03 - Introit - Da pacem, Domine
04 - Kyrie
05 - Da pacem Domine
06 - Gloria
07 - Bonus et miserator
08 - ''En ce vingt-troisieme jour...'' (Texte)
09 - Credo
10 - Reges terrae congregati sunt
11 - Sanctus
12 - Elevation - O salutaris Hostia
13 - Benedictus
14 - Agnus Dei
15 - Texte - ''Apres la messe,...''
16 - Verbum bonum et suave

Francois Ier: Musiques D'un Regne - Doulce Memoire, Denis Raisin Dadre (2015) [2CD] {Zig Zag Territoires}


CD2 - Musique pour la Chambre du Roy
01 - Pavane
02 - Je suis desheritee
03 - Meslanges- Je suis desheritee
04 - Susanne un jour
05 - Meslanges- Susanne un jour
06 - La volunte
07 - La volunte
08 - La volunte (Basse danse)
09 - Celle qui m'a le nom d'amy donne
10 - Celle qui m'a le nom (Basse danse)
11 - Contre raison
12 - Contre raison (Gaillarde)
13 - Meslanges- Tant que vivray
14 - Tant que vivray
15 - Content desir
16 - Content desir (Basse danse)
17 - Las je my plains
18 - Meslanges- Las je my plains
19 - Meslanges- Reviens vers moy
20 - Au joly bois
21 - Meslanges- Au joly bois
22 - O combien est
23 - Si par fortune
24 - Meslanges- Si par fortune
25 - L'oeil pres et loing
26 - L'oeil pres et loing (Pavane et gaillarde)
27 - Reviens vers moy
28 - Contentez-vous
29 - Meslanges- Contentez-vous
30 - Vecy le may
31 - Vecy le may

Francois Ier: Musiques D'un Regne - Doulce Memoire, Denis Raisin Dadre (2015) [2CD] {Zig Zag Territoires}



Exact Audio Copy V1.1 from 23. June 2015

EAC extraction logfile from 12. October 2015, 18:01

Doulce Memoire / Francois Ier, musiques d'un regne CD1

Used drive : ATAPI iHBS112 2 Adapter: 1 ID: 0

Read mode : Secure
Utilize accurate stream : Yes
Defeat audio cache : Yes
Make use of C2 pointers : No

Read offset correction

: 6
Overread into Lead-In and Lead-Out : No
Fill up missing offset samples with silence : Yes
Delete leading and trailing silent blocks : No
Null samples used in CRC calculations : Yes
Used interface
: Native Win32 interface for Win NT & 2000
Gap handling
: Appended to previous track

Used output format : User Defined Encoder
Selected bitrate : 1024 kBit/s
Quality : High
Add ID3 tag : No
Command line compressor : C:\Program Files\Exact Audio Copy\Flac\flac.exe
Additional command line options : -8 -V -T "ARTIST=%artist%" -T "TITLE=%title%" -T "ALBUM=%albumtitle%" -T "DATE=%year%" -T "TRACKNUMBER=%tracknr%" -T "TOTALTRACKS=%numtracks%" -T "GENRE=%genre%" -T "ALBUMARTIST=%albumartist%" -T "ALBUM ARTIST=%albumartist%" -T "COMPOSER=%composer%" -T "PERFORMER=%albuminterpret%" -T "DISCNUMBER=%cdnumber%" -T "TOTALDISCS=%totalcds%" -T "COMMENT=EAC Secure Mode, Test & Copy, AccurateRip, FLAC -8" %source%

TOC of the extracted CD Track | Start | Length | Start sector | End sector
--1 | 0:00.00 | 3:34.01 | 0 | 16050 2 | 3:34.01 | 1:01.52 | 16051 | 20677 3 | 4:35.53 | 1:49.62 | 20678 | 28914 4 | 6:25.40 | 8:06.53 | 28915 | 65417 5 | 14:32.18 | 3:25.33 | 65418 | 80825 6 | 17:57.51 | 9:32.30 | 80826 | 123755 7 | 27:30.06 | 1:40.25 | 123756 | 131280 8 | 29:10.31 | 0:38.12 | 131281 | 134142 9 | 29:48.43 | 9:35.59 | 134143 | 177326
10 | 39:24.27 | 5:38.29 | 177327 | 202705
11 | 45:02.56 | 5:36.31 | 202706 | 227936
12 | 50:39.12 | 2:03.23 | 227937 | 237184
13 | 52:42.35 | 4:17.11 | 237185 | 256470
14 | 56:59.46 | 5:54.53 | 256471 | 283073
15 | 62:54.24 | 0:36.62 | 283074 | 285835
16 | 63:31.11 | 9:14.19 | 285836 | 327404

Track 1 Filename P:\DL\Doulce Memoire - Francois Ier, musiques d'un regne CD1 (2015) [FLAC]\01 - Pavanes.wav Pre-gap length 0:00:02.00 Copy aborted

Track 2 Copy aborted

Track 3 Copy aborted

Track 4 Copy aborted

Track 5 Copy aborted

Track 6 Copy aborted

Track 7 Copy aborted

Track 8 Copy aborted

Track 9 Copy aborted

Track 10 Copy aborted

Track 11 Copy aborted

Track 12 Copy aborted

Track 13 Copy aborted

Track 14 Copy aborted

Track 15 Copy aborted

Track 16 Copy aborted

No tracks could be verified as accurate

There were errors

End of status report

==== Log checksum 74C7BC7DF9F299797FC647DAB8DF936046A1D3B685274A631FEDFD5B7DE7F621 ====

--

Exact Audio Copy V1.1 from 23. June 2015

EAC extraction logfile from 12. October 2015, 18:45

Doulce Memoire / Francois Ier, musiques d'un regne CD1

Used drive : ATAPI iHBS112 2 Adapter: 1 ID: 0

Read mode : Secure
Utilize accurate stream : Yes
Defeat audio cache : Yes
Make use of C2 pointers : No

Read offset correction

: 6
Overread into Lead-In and Lead-Out : No
Fill up missing offset samples with silence : Yes
Delete leading and trailing silent blocks : No
Null samples used in CRC calculations : Yes
Used interface
: Native Win32 interface for Win NT & 2000
Gap handling
: Appended to previous track

Used output format : User Defined Encoder
Selected bitrate : 1024 kBit/s
Quality : High
Add ID3 tag : No
Command line compressor : C:\Program Files\Exact Audio Copy\Flac\flac.exe
Additional command line options : -8 -V -T "ARTIST=%artist%" -T "TITLE=%title%" -T "ALBUM=%albumtitle%" -T "DATE=%year%" -T "TRACKNUMBER=%tracknr%" -T "TOTALTRACKS=%numtracks%" -T "GENRE=%genre%" -T "ALBUMARTIST=%albumartist%" -T "ALBUM ARTIST=%albumartist%" -T "COMPOSER=%composer%" -T "PERFORMER=%albuminterpret%" -T "DISCNUMBER=%cdnumber%" -T "TOTALDISCS=%totalcds%" -T "COMMENT=EAC Secure Mode, Test & Copy, AccurateRip, FLAC -8" %source%

TOC of the extracted CD Track | Start | Length | Start sector | End sector
--1 | 0:00.00 | 3:34.01 | 0 | 16050 2 | 3:34.01 | 1:01.52 | 16051 | 20677 3 | 4:35.53 | 1:49.62 | 20678 | 28914 4 | 6:25.40 | 8:06.53 | 28915 | 65417 5 | 14:32.18 | 3:25.33 | 65418 | 80825 6 | 17:57.51 | 9:32.30 | 80826 | 123755 7 | 27:30.06 | 1:40.25 | 123756 | 131280 8 | 29:10.31 | 0:38.12 | 131281 | 134142 9 | 29:48.43 | 9:35.59 | 134143 | 177326
10 | 39:24.27 | 5:38.29 | 177327 | 202705
11 | 45:02.56 | 5:36.31 | 202706 | 227936
12 | 50:39.12 | 2:03.23 | 227937 | 237184
13 | 52:42.35 | 4:17.11 | 237185 | 256470
14 | 56:59.46 | 5:54.53 | 256471 | 283073
15 | 62:54.24 | 0:36.62 | 283074 | 285835
16 | 63:31.11 | 9:14.19 | 285836 | 327404

Track 1 Filename P:\DL\Doulce Memoire - Francois Ier, musiques d'un regne CD1 (2015) [FLAC]\01 - Pavanes.wav Pre-gap length 0:00:02.00 Peak level 93.9 %
Extraction speed 3.8 X
Track quality 100.0 %
Test CRC 6C7EFDFE
Copy CRC 6C7EFDFE
Accurately ripped (confidence 2) [F7D49890] (AR v2)
Copy OK

Track 2 Filename P:\DL\Doulce Memoire - Francois Ier, musiques d'un regne CD1 (2015) [FLAC]\02 - ''Apres que les trompettes, ...'' (Texte).wav Peak level 34.1 %
Extraction speed 2.9 X
Track quality 100.0 %
Test CRC 57B3702E
Copy CRC 57B3702E
Accurately ripped (confidence 2) [7D27E600] (AR v2)
Copy OK

Track 3 Filename P:\DL\Doulce Memoire - Francois Ier, musiques d'un regne CD1 (2015) [FLAC]\03 - Introit - Da pacem, Domine.wav Peak level 36.4 %
Extraction speed 3.7 X
Track quality 100.0 %
Test CRC E3F3C512
Copy CRC E3F3C512
Accurately ripped (confidence 2) [30057C65] (AR v2)
Copy OK

Track 4 Filename P:\DL\Doulce Memoire - Francois Ier, musiques d'un regne CD1 (2015) [FLAC]\04 - Kyrie.wav Peak level 77.3 %
Extraction speed 4.7 X
Track quality 99.9 %
Test CRC A23DA5EB
Copy CRC A23DA5EB
Accurately ripped (confidence 2) [AE753E35] (AR v2)
Copy OK

Track 5 Filename P:\DL\Doulce Memoire - Francois Ier, musiques d'un regne CD1 (2015) [FLAC]\05 - Da pacem Domine.wav Peak level 76.4 %
Extraction speed 5.0 X
Track quality 100.0 %
Test CRC 38B818E0
Copy CRC 38B818E0
Accurately ripped (confidence 2) [725B0A11] (AR v2)
Copy OK

Track 6 Filename P:\DL\Doulce Memoire - Francois Ier, musiques d'un regne CD1 (2015) [FLAC]\06 - Gloria.wav Peak level 88.5 %
Extraction speed 6.0 X
Track quality 100.0 %
Test CRC 909BA9F6
Copy CRC 909BA9F6
Accurately ripped (confidence 2) [99FA5CA0] (AR v2)
Copy OK

Track 7 Filename P:\DL\Doulce Memoire - Francois Ier, musiques d'un regne CD1 (2015) [FLAC]\07 - Bonus et miserator.wav Peak level 78.9 %
Extraction speed 4.9 X
Track quality 100.0 %
Test CRC 318819F2
Copy CRC 318819F2
Accurately ripped (confidence 2) [001DAB05] (AR v2)
Copy OK

Track 8 Filename P:\DL\Doulce Memoire - Francois Ier, musiques d'un regne CD1 (2015) [FLAC]\08 - ''En ce vingt-troisieme jour...'' (Texte).wav Peak level 40.5 %
Extraction speed 2.4 X
Track quality 99.7 %
Test CRC F79D3C3B
Copy CRC F79D3C3B
Accurately ripped (confidence 2) [48A6AB10] (AR v2)
Copy OK

Track 9 Filename P:\DL\Doulce Memoire - Francois Ier, musiques d'un regne CD1 (2015) [FLAC]\09 - Credo.wav Peak level 98.1 %
Extraction speed 6.7 X
Track quality 100.0 %
Test CRC C72E0116
Copy CRC C72E0116
Accurately ripped (confidence 2) [D1D7A6D9] (AR v2)
Copy OK

Track 10 Filename P:\DL\Doulce Memoire - Francois Ier, musiques d'un regne CD1 (2015) [FLAC]\10 - Reges terrae congregati sunt.wav Peak level 54.0 %
Extraction speed 6.9 X
Track quality 100.0 %
Test CRC 3536301D
Copy CRC 3536301D
Accurately ripped (confidence 2) 5305607 (AR v2)
Copy OK

Track 11 Filename P:\DL\Doulce Memoire - Francois Ier, musiques d'un regne CD1 (2015) [FLAC]\11 - Sanctus.wav Peak level 96.7 %
Extraction speed 7.2 X
Track quality 100.0 %
Test CRC A831A059
Copy CRC A831A059
Accurately ripped (confidence 2) [3E3D30D1] (AR v2)
Copy OK

Track 12 Filename P:\DL\Doulce Memoire - Francois Ier, musiques d'un regne CD1 (2015) [FLAC]\12 - Elevation - O salutaris Hostia.wav Peak level 58.8 %
Extraction speed 6.3 X
Track quality 100.0 %
Test CRC 1C8469D7
Copy CRC 1C8469D7
Accurately ripped (confidence 2) [0EACC04D] (AR v2)
Copy OK

Track 13 Filename P:\DL\Doulce Memoire - Francois Ier, musiques d'un regne CD1 (2015) [FLAC]\13 - Benedictus.wav Peak level 35.5 %
Extraction speed 7.3 X
Track quality 100.0 %
Test CRC 74A6EA64
Copy CRC 74A6EA64
Accurately ripped (confidence 2) [8EFF59A4] (AR v2)
Copy OK

Track 14 Filename P:\DL\Doulce Memoire - Francois Ier, musiques d'un regne CD1 (2015) [FLAC]\14 - Agnus Dei.wav Peak level 57.2 %
Extraction speed 7.8 X
Track quality 100.0 %
Test CRC F0D7F518
Copy CRC F0D7F518
Accurately ripped (confidence 2) [ADF9D264] (AR v2)
Copy OK

Track 15 Filename P:\DL\Doulce Memoire - Francois Ier, musiques d'un regne CD1 (2015) [FLAC]\15 - Texte - ''Apres la messe,...''.wav Peak level 47.4 %
Extraction speed 2.9 X
Track quality 99.7 %
Test CRC D697ECBD
Copy CRC D697ECBD
Accurately ripped (confidence 2) [115D5F30] (AR v2)
Copy OK

Track 16 Filename P:\DL\Doulce Memoire - Francois Ier, musiques d'un regne CD1 (2015) [FLAC]\16 - Verbum bonum et suave.wav Peak level 82.1 %
Extraction speed 8.4 X
Track quality 100.0 %
Test CRC 4A686C91
Copy CRC 4A686C91
Accurately ripped (confidence 1) [8693B018] (AR v2)
Copy OK

All tracks accurately ripped

No errors occurred

End of status report

- CUETools DB Plugin V2.1.6

[CTDB TOCID: ZoQS79VQ8ZuCjX5x4c7agkFu1fA-] found
Submit result:
Track | CTDB Status
1 | (1/1) Accurately ripped
2 | (1/1) Accurately ripped
3 | (1/1) Accurately ripped
4 | (1/1) Accurately ripped
5 | (1/1) Accurately ripped
6 | (1/1) Accurately ripped
7 | (1/1) Accurately ripped
8 | (1/1) Accurately ripped
9 | (1/1) Accurately ripped
10 | (1/1) Accurately ripped
11 | (1/1) Accurately ripped
12 | (1/1) Accurately ripped
13 | (1/1) Accurately ripped
14 | (1/1) Accurately ripped
15 | (1/1) Accurately ripped
16 | (1/1) Accurately ripped

==== Log checksum F6CD03860F22F7D780E4B6A83719DA63E6765F9859E87AC7CDF3F159AED8A16E ====

Exact Audio Copy V1.1 from 23. June 2015

EAC extraction logfile from 12. October 2015, 21:05

Doulce Memoire / Francois Ier, musiques d'un regne CD2

Used drive : ATAPI iHBS112 2 Adapter: 1 ID: 0

Read mode : Secure
Utilize accurate stream : Yes
Defeat audio cache : Yes
Make use of C2 pointers : No

Read offset correction

: 6
Overread into Lead-In and Lead-Out : No
Fill up missing offset samples with silence : Yes
Delete leading and trailing silent blocks : No
Null samples used in CRC calculations : Yes
Used interface
: Native Win32 interface for Win NT & 2000
Gap handling
: Appended to previous track

Used output format : User Defined Encoder
Selected bitrate : 1024 kBit/s
Quality : High
Add ID3 tag : No
Command line compressor : C:\Program Files\Exact Audio Copy\Flac\flac.exe
Additional command line options : -8 -V -T "ARTIST=%artist%" -T "TITLE=%title%" -T "ALBUM=%albumtitle%" -T "DATE=%year%" -T "TRACKNUMBER=%tracknr%" -T "TOTALTRACKS=%numtracks%" -T "GENRE=%genre%" -T "ALBUMARTIST=%albumartist%" -T "ALBUM ARTIST=%albumartist%" -T "COMPOSER=%composer%" -T "PERFORMER=%albuminterpret%" -T "DISCNUMBER=%cdnumber%" -T "TOTALDISCS=%totalcds%" -T "COMMENT=EAC Secure Mode, Test & Copy, AccurateRip, FLAC -8" %source%

TOC of the extracted CD Track | Start | Length | Start sector | End sector
--1 | 0:00.00 | 3:29.26 | 0 | 15700 2 | 3:29.26 | 2:26.53 | 15701 | 26703 3 | 5:56.04 | 3:57.35 | 26704 | 44513 4 | 9:53.39 | 2:09.41 | 44514 | 54229 5 | 12:03.05 | 4:29.31 | 54230 | 74435 6 | 16:32.36 | 2:30.21 | 74436 | 85706 7 | 19:02.57 | 1:41.45 | 85707 | 93326 8 | 20:44.27 | 1:52.73 | 93327 | 101799 9 | 22:37.25 | 1:42.58 | 101800 | 109507
10 | 24:20.08 | 1:38.04 | 109508 | 116861
11 | 25:58.12 | 3:02.39 | 116862 | 130550
12 | 29:00.51 | 2:41.65 | 130551 | 142690
13 | 31:42.41 | 2:21.42 | 142691 | 153307
14 | 34:04.08 | 1:37.59 | 153308 | 160641
15 | 35:41.67 | 1:23.30 | 160642 | 166896
16 | 37:05.22 | 1:52.53 | 166897 | 175349
17 | 38:58.00 | 2:16.36 | 175350 | 185585
18 | 41:14.36 | 2:47.36 | 185586 | 198146
19 | 44:01.72 | 3:21.48 | 198147 | 213269
20 | 47:23.45 | 2:39.13 | 213270 | 225207
21 | 50:02.58 | 4:25.45 | 225208 | 245127
22 | 54:28.28 | 2:16.04 | 245128 | 255331
23 | 56:44.32 | 1:42.21 | 255332 | 263002
24 | 58:26.53 | 2:22.37 | 263003 | 273689
25 | 60:49.15 | 2:51.35 | 273690 | 286549
26 | 63:40.50 | 3:44.36 | 286550 | 303385
27 | 67:25.11 | 2:00.20 | 303386 | 312405
28 | 69:25.31 | 1:49.17 | 312406 | 320597
29 | 71:14.48 | 2:05.55 | 320598 | 330027
30 | 73:20.28 | 1:05.71 | 330028 | 334973
31 | 74:26.24 | 2:54.64 | 334974 | 348087

Track 1 Filename P:\DL\Doulce Memoire - Francois Ier, musiques d'un regne CD2 (2015) [FLAC]\01 - Pavane.wav Pre-gap length 0:00:02.00 Peak level 52.4 %
Extraction speed 3.8 X
Track quality 100.0 %
Test CRC 5CF2A7A3
Copy CRC 5CF2A7A3
Accurately ripped (confidence 1) [CF902903] (AR v2)
Copy OK

Track 2 Filename P:\DL\Doulce Memoire - Francois Ier, musiques d'un regne CD2 (2015) [FLAC]\02 - Je suis desheritee.wav Peak level 50.8 %
Extraction speed 3.2 X
Track quality 99.9 %
Test CRC 52B2B350
Copy CRC 52B2B350
Accurately ripped (confidence 1) [FF6C7B51] (AR v2)
Copy OK

Track 3 Filename P:\DL\Doulce Memoire - Francois Ier, musiques d'un regne CD2 (2015) [FLAC]\03 - Meslanges- Je suis desheritee.wav Peak level 80.2 %
Extraction speed 4.4 X
Track quality 100.0 %
Test CRC 4ED947B3
Copy CRC 4ED947B3
Accurately ripped (confidence 1) [8A831461] (AR v2)
Copy OK

Track 4 Filename P:\DL\Doulce Memoire - Francois Ier, musiques d'un regne CD2 (2015) [FLAC]\04 - Susanne un jour.wav Peak level 77.1 %
Extraction speed 4.1 X
Track quality 100.0 %
Test CRC 292675EF
Copy CRC 292675EF
Accurately ripped (confidence 1) [E94E04CE] (AR v2)
Copy OK

Track 5 Filename P:\DL\Doulce Memoire - Francois Ier, musiques d'un regne CD2 (2015) [FLAC]\05 - Meslanges- Susanne un jour.wav Peak level 74.8 %
Extraction speed 5.0 X
Track quality 100.0 %
Test CRC 6BB5EAD1
Copy CRC 6BB5EAD1
Accurately ripped (confidence 1) [ED4E1874] (AR v2)
Copy OK

Track 6 Filename P:\DL\Doulce Memoire - Francois Ier, musiques d'un regne CD2 (2015) [FLAC]\06 - La volunte.wav Peak level 36.9 %
Extraction speed 4.8 X
Track quality 100.0 %
Test CRC 0529AE04
Copy CRC 0529AE04
Accurately ripped (confidence 1) [757DCBA2] (AR v2)
Copy OK

Track 7 Filename P:\DL\Doulce Memoire - Francois Ier, musiques d'un regne CD2 (2015) [FLAC]\07 - La volunte.wav Peak level 94.8 %
Extraction speed 3.6 X
Track quality 99.8 %
Test CRC 16E82BD8
Copy CRC 16E82BD8
Accurately ripped (confidence 1) [0DC5083B] (AR v2)
Copy OK

Track 8 Filename P:\DL\Doulce Memoire - Francois Ier, musiques d'un regne CD2 (2015) [FLAC]\08 - La volunte (Basse danse).wav Peak level 60.1 %
Extraction speed 4.8 X
Track quality 100.0 %
Test CRC C9EF1B78
Copy CRC C9EF1B78
Accurately ripped (confidence 1) [037D11E8] (AR v2)
Copy OK

Track 9 Filename P:\DL\Doulce Memoire - Francois Ier, musiques d'un regne CD2 (2015) [FLAC]\09 - Celle qui m'a le nom d'amy donne.wav Peak level 85.3 %
Extraction speed 4.7 X
Track quality 100.0 %
Test CRC C8AB91F8
Copy CRC C8AB91F8
Accurately ripped (confidence 1) [829C1FC8] (AR v2)
Copy OK

Track 10 Filename P:\DL\Doulce Memoire - Francois Ier, musiques d'un regne CD2 (2015) [FLAC]\10 - Celle qui m'a le nom (Basse danse).wav Peak level 75.4 %
Extraction speed 4.7 X
Track quality 100.0 %
Test CRC 41C41AF2
Copy CRC 41C41AF2
Accurately ripped (confidence 1) [CA4CF973] (AR v2)
Copy OK

Track 11 Filename P:\DL\Doulce Memoire - Francois Ier, musiques d'un regne CD2 (2015) [FLAC]\11 - Contre raison.wav Peak level 97.6 %
Extraction speed 5.5 X
Track quality 100.0 %
Test CRC E4598F1D
Copy CRC E4598F1D
Accurately ripped (confidence 1) [EE0A6E68] (AR v2)
Copy OK

Track 12 Filename P:\DL\Doulce Memoire - Francois Ier, musiques d'un regne CD2 (2015) [FLAC]\12 - Contre raison (Gaillarde).wav Peak level 98.3 %
Extraction speed 5.6 X
Track quality 100.0 %
Test CRC 2FF33A78
Copy CRC 2FF33A78
Accurately ripped (confidence 1) 65C3C25 (AR v2)
Copy OK

Track 13 Filename P:\DL\Doulce Memoire - Francois Ier, musiques d'un regne CD2 (2015) [FLAC]\13 - Meslanges- Tant que vivray.wav Peak level 98.2 %
Extraction speed 5.5 X
Track quality 100.0 %
Test CRC 76643136
Copy CRC 76643136
Accurately ripped (confidence 1) 1A235FF (AR v2)
Copy OK

Track 14 Filename P:\DL\Doulce Memoire - Francois Ier, musiques d'un regne CD2 (2015) [FLAC]\14 - Tant que vivray.wav Peak level 53.1 %
Extraction speed 5.2 X
Track quality 100.0 %
Test CRC 37D96FCE
Copy CRC 37D96FCE
Accurately ripped (confidence 1) [3FF7A018] (AR v2)
Copy OK

Track 15 Filename P:\DL\Doulce Memoire - Francois Ier, musiques d'un regne CD2 (2015) [FLAC]\15 - Content desir.wav Peak level 97.2 %
Extraction speed 5.0 X
Track quality 100.0 %
Test CRC 9A825FAA
Copy CRC 9A825FAA
Accurately ripped (confidence 1) [2B20934F] (AR v2)
Copy OK

Track 16 Filename P:\DL\Doulce Memoire - Francois Ier, musiques d'un regne CD2 (2015) [FLAC]\16 - Content desir (Basse danse).wav Peak level 86.4 %
Extraction speed 5.6 X
Track quality 100.0 %
Test CRC AF0BC0BC
Copy CRC AF0BC0BC
Accurately ripped (confidence 1) [89CA33A8] (AR v2)
Copy OK

Track 17 Filename P:\DL\Doulce Memoire - Francois Ier, musiques d'un regne CD2 (2015) [FLAC]\17 - Las je my plains.wav Peak level 96.6 %
Extraction speed 5.8 X
Track quality 100.0 %
Test CRC 386B254D
Copy CRC 386B254D
Accurately ripped (confidence 1) [C65CE041] (AR v2)
Copy OK

Track 18 Filename P:\DL\Doulce Memoire - Francois Ier, musiques d'un regne CD2 (2015) [FLAC]\18 - Meslanges- Las je my plains.wav Peak level 83.0 %
Extraction speed 6.2 X
Track quality 100.0 %
Test CRC EC4A8794
Copy CRC EC4A8794
Accurately ripped (confidence 1) [C9B41224] (AR v2)
Copy OK

Track 19 Filename P:\DL\Doulce Memoire - Francois Ier, musiques d'un regne CD2 (2015) [FLAC]\19 - Meslanges- Reviens vers moy.wav Peak level 95.8 %
Extraction speed 6.6 X
Track quality 100.0 %
Test CRC 23F675DD
Copy CRC 23F675DD
Accurately ripped (confidence 1) [94C824BA] (AR v2)
Copy OK

Track 20 Filename P:\DL\Doulce Memoire - Francois Ier, musiques d'un regne CD2 (2015) [FLAC]\20 - Au joly bois.wav Peak level 44.8 %
Extraction speed 6.5 X
Track quality 100.0 %
Test CRC 31B2D29C
Copy CRC 31B2D29C
Accurately ripped (confidence 1) [D5A9FD80] (AR v2)
Copy OK

Track 21 Filename P:\DL\Doulce Memoire - Francois Ier, musiques d'un regne CD2 (2015) [FLAC]\21 - Meslanges- Au joly bois.wav Peak level 97.7 %
Extraction speed 6.5 X
Track quality 99.9 %
Test CRC 86D35C3E
Copy CRC 86D35C3E
Accurately ripped (confidence 1) [46AB6133] (AR v2)
Copy OK

Track 22 Filename P:\DL\Doulce Memoire - Francois Ier, musiques d'un regne CD2 (2015) [FLAC]\22 - O combien est.wav Peak level 31.1 %
Extraction speed 6.6 X
Track quality 100.0 %
Test CRC A5D36EDB
Copy CRC A5D36EDB
Accurately ripped (confidence 1) [0EF4DA76] (AR v2)
Copy OK

Track 23 Filename P:\DL\Doulce Memoire - Francois Ier, musiques d'un regne CD2 (2015) [FLAC]\23 - Si par fortune.wav Peak level 86.0 %
Extraction speed 6.1 X
Track quality 100.0 %
Test CRC CC2925A2
Copy CRC CC2925A2
Accurately ripped (confidence 1) [3C6A4081] (AR v2)
Copy OK

Track 24 Filename P:\DL\Doulce Memoire - Francois Ier, musiques d'un regne CD2 (2015) [FLAC]\24 - Meslanges- Si par fortune.wav Peak level 73.7 %
Extraction speed 6.8 X
Track quality 100.0 %
Test CRC 0951D0FF
Copy CRC 0951D0FF
Accurately ripped (confidence 1) [32ECE141] (AR v2)
Copy OK

Track 25 Filename P:\DL\Doulce Memoire - Francois Ier, musiques d'un regne CD2 (2015) [FLAC]\25 - L'oeil pres et loing.wav Peak level 90.1 %
Extraction speed 7.2 X
Track quality 100.0 %
Test CRC F0B29D35
Copy CRC F0B29D35
Accurately ripped (confidence 1) [45E91FE4] (AR v2)
Copy OK

Track 26 Filename P:\DL\Doulce Memoire - Francois Ier, musiques d'un regne CD2 (2015) [FLAC]\26 - L'oeil pres et loing (Pavane et gaillarde).wav Peak level 87.8 %
Extraction speed 7.6 X
Track quality 100.0 %
Test CRC 58D990B6
Copy CRC 58D990B6
Accurately ripped (confidence 1) [AA11DF1A] (AR v2)
Copy OK

Track 27 Filename P:\DL\Doulce Memoire - Francois Ier, musiques d'un regne CD2 (2015) [FLAC]\27 - Reviens vers moy.wav Peak level 85.7 %
Extraction speed 6.8 X
Track quality 100.0 %
Test CRC A9190BC8
Copy CRC A9190BC8
Accurately ripped (confidence 1) [6378DCDA] (AR v2)
Copy OK

Track 28 Filename P:\DL\Doulce Memoire - Francois Ier, musiques d'un regne CD2 (2015) [FLAC]\28 - Contentez-vous.wav Peak level 88.9 %
Extraction speed 5.5 X
Track quality 99.9 %
Test CRC 5E53E161
Copy CRC 5E53E161
Accurately ripped (confidence 1) [F11194DC] (AR v2)
Copy OK

Track 29 Filename P:\DL\Doulce Memoire - Francois Ier, musiques d'un regne CD2 (2015) [FLAC]\29 - Meslanges- Contentez-vous.wav Peak level 98.5 %
Extraction speed 7.1 X
Track quality 100.0 %
Test CRC 97456213
Copy CRC 97456213
Accurately ripped (confidence 1) [F267B89D] (AR v2)
Copy OK

Track 30 Filename P:\DL\Doulce Memoire - Francois Ier, musiques d'un regne CD2 (2015) [FLAC]\30 - Vecy le may.wav Peak level 34.4 %
Extraction speed 6.0 X
Track quality 100.0 %
Test CRC AE3343FB
Copy CRC AE3343FB
Accurately ripped (confidence 1) [F6E62DDB] (AR v2)
Copy OK

Track 31 Filename P:\DL\Doulce Memoire - Francois Ier, musiques d'un regne CD2 (2015) [FLAC]\31 - Vecy le may.wav Peak level 40.9 %
Extraction speed 7.6 X
Track quality 100.0 %
Test CRC B9AF21BF
Copy CRC B9AF21BF
Accurately ripped (confidence 1) [CB9A5EA6] (AR v2)
Copy OK

All tracks accurately ripped

No errors occurred

End of status report

- CUETools DB Plugin V2.1.6

[CTDB TOCID: kfVlu_Z3mnGZ4OS3g2CS9nD97hg-] found
Submit result:
Track | CTDB Status
1 | (2/2) Accurately ripped
2 | (2/2) Accurately ripped
3 | (2/2) Accurately ripped
4 | (2/2) Accurately ripped
5 | (2/2) Accurately ripped
6 | (2/2) Accurately ripped
7 | (2/2) Accurately ripped
8 | (2/2) Accurately ripped
9 | (2/2) Accurately ripped
10 | (2/2) Accurately ripped
11 | (2/2) Accurately ripped
12 | (2/2) Accurately ripped
13 | (2/2) Accurately ripped
14 | (2/2) Accurately ripped
15 | (2/2) Accurately ripped
16 | (2/2) Accurately ripped
17 | (2/2) Accurately ripped
18 | (2/2) Accurately ripped
19 | (2/2) Accurately ripped
20 | (2/2) Accurately ripped
21 | (2/2) Accurately ripped
22 | (2/2) Accurately ripped
23 | (2/2) Accurately ripped
24 | (2/2) Accurately ripped
25 | (2/2) Accurately ripped
26 | (2/2) Accurately ripped
27 | (2/2) Accurately ripped
28 | (2/2) Accurately ripped
29 | (2/2) Accurately ripped
30 | (2/2) Accurately ripped
31 | (2/2) Accurately ripped

==== Log checksum E08A95C66F6FB21FD9807324525CDA2536C73614363583D0380FC20808A1C436 ====

Francois Ier: Musiques D'un Regne - Doulce Memoire, Denis Raisin Dadre (2015) [2CD] {Zig Zag Territoires}


thanks to dtromp...
DOWNLOAD LINKS:
Buy Premium To Support Me & Get Resumable Support & Max Speed


Links are Interchangeable - No Password - Single Extraction
Direct Download

Tags: Francois, Musiques, Doulce, Memoire, Raisin, Territoires

Francois Ier: Musiques D'un Regne - Doulce Memoire, Denis Raisin Dadre (2015) [2CD] {Zig Zag Territoires} Download via Hotfile Rapidshare Fileserve Megaupload & FileSonic, Francois Ier: Musiques D'un Regne - Doulce Memoire, Denis Raisin Dadre (2015) [2CD] {Zig Zag Territoires} free torrent downloads included crack, serial, keygen.Francois Ier: Musiques D'un Regne - Doulce Memoire, Denis Raisin Dadre (2015) [2CD] {Zig Zag Territoires} Fast Download via Rapidshare Hotfile Fileserve Filesonic Megaupload, Francois Ier: Musiques D'un Regne - Doulce Memoire, Denis Raisin Dadre (2015) [2CD] {Zig Zag Territoires} Torrents and Emule Download or anything related.
Leave a Comment
Your Name:
E-Mail:
Add Comments:

Enter Code: