Collin Walcott - Grazing Dreams (1977) {ECM 1096} [Re-Up]

Download Now

Collin Walcott - Grazing Dreams (1977) {ECM 1096} [Re-Up]

Collin Walcott - Grazing Dreams (1977) {ECM 1096}
EAC 0.95b4 | FLAC tracks level 8 | Cue+Log+M3U | Full Scans 300dpi | 205MB + 5% Recovery
Genre: Jazz, Ethnic Fusion

"A plaintive, leisurely journey from Collin Walcott, North American pioneer in the art of the jazz sitar and ECM visionary whose life ended all too soon at the age 39. To anyone put off by this summary, I cannot stress enough the soulfulness of his playing. Walcott, who studied with the inimitable Ravi Shankar, does not treat his instrument as a mere substitute. Rather, he awakens the sitar to a whole new method of understanding, constructing a viable world around it rather than simply tossing it into the mix as a gimmick or afterthought."

Track List
01. Song Of The Morrow 9:14
02. Gold Sun 7:03
03. The Swarm 6:07
04. Mountain Morning 1:57
05. Jewel Ornament 5:02
06. Grazing Dream 6:49
07. Samba Tala 1:29
08. Moon Lake 8:27

musicians
Collin Walcott - sitar, tabla
John Abercrombie - electric and acoustic guitars, electric mandolin
Don Cherry - trumpet, wood flute, doussn' gouni
Palle Danielsson - bass
Dom Um Romao - berimbau, chica, tambourine, percussion

Produced by Manfred Eicher

EAC extraction logfile from 13. June 2009, 21:47 for CD
Colin Walcott / Grazing Dreams

Used drive : HL-DT-STDVDRAM GSA-H10N Adapter: 0 ID: 0
Read mode : Secure with NO C2, accurate stream, disable cache
Read offset correction : 667
Overread into Lead-In and Lead-Out : No

Used output format : C:\Program Files\FLAC\flac.exe (User Defined Encoder) 128 kBit/s Additional command line options : -8 -V -T "ARTIST=%a" -T "TITLE=%t" -T "ALBUM=%g" -T "DATE=%y" -T "TRACKNUMBER=%n" -T "GENRE=%m" -T "COMMENT=EAC FLAC -8" %s

Other options :
Fill up missing offset samples with silence : Yes
Delete leading and trailing silent blocks : No
Native Win32 interface for Win NT & 2000

Track 1
Filename D:\Torrents\Colin Walcott - Grazing Dreams (1977) [FLAC]\01 - Song Of The Morrow.wav Pre-gap length 0:00:02.44 Peak level 68.5 %
Track quality 99.9 %
Test CRC 873C1D5B
Copy CRC 873C1D5B
Copy OK

Track 2
Filename D:\Torrents\Colin Walcott - Grazing Dreams (1977) [FLAC]\02 - Gold Sun.wav Pre-gap length 0:00:00.53 Peak level 70.8 %
Track quality 100.0 %
Test CRC 4C4B4AB1
Copy CRC 4C4B4AB1
Copy OK

Track 3
Filename D:\Torrents\Colin Walcott - Grazing Dreams (1977) [FLAC]\03 - The Swarm.wav Pre-gap length 0:00:00.20 Peak level 66.3 %
Track quality 99.9 %
Test CRC 8846EF4E
Copy CRC 8846EF4E
Copy OK

Track 4
Filename D:\Torrents\Colin Walcott - Grazing Dreams (1977) [FLAC]\04 - Mountain Morning.wav Pre-gap length 0:00:01.62 Peak level 42.0 %
Track quality 99.9 %
Test CRC 5BA2211A
Copy CRC 5BA2211A
Copy OK

Track 5
Filename D:\Torrents\Colin Walcott - Grazing Dreams (1977) [FLAC]\05 - Jewel Ornament.wav Pre-gap length 0:00:00.36 Peak level 53.7 %
Track quality 100.0 %
Test CRC 8C2063AC
Copy CRC 8C2063AC
Copy OK

Track 6
Filename D:\Torrents\Colin Walcott - Grazing Dreams (1977) [FLAC]\06 - Grazing Dreams.wav Pre-gap length 0:00:02.09 Peak level 83.1 %
Track quality 100.0 %
Test CRC 5A5EC1CA
Copy CRC 5A5EC1CA
Copy OK

Track 7
Filename D:\Torrents\Colin Walcott - Grazing Dreams (1977) [FLAC]\07 - Samba Tala.wav Pre-gap length 0:00:03.82 Peak level 62.4 %
Track quality 99.8 %
Test CRC 28260198
Copy CRC 28260198
Copy OK

Track 8
Filename D:\Torrents\Colin Walcott - Grazing Dreams (1977) [FLAC]\08 - Moon Lake.wav Pre-gap length 0:00:01.33 Peak level 76.6 %
Track quality 100.0 %
Test CRC 3FC60C79
Copy CRC 3FC60C79
Copy OK

No errors occured

End of status report

Analyzed: Colin Walcott / Grazing Dreams

DR Peak RMS Duration Track

DR14 -3.28 dB -22.42 dB 9:15 01-Song Of The Morrow
DR14 -3.00 dB -21.02 dB 7:03 02-Gold Sun
DR14 -3.56 dB -23.24 dB 6:09 03-The Swarm
DR10 -7.52 dB -26.97 dB 1:58 04-Mountain Morning
DR12 -5.39 dB -21.49 dB 5:04 05-Jewel Ornament
DR15 -1.61 dB -22.24 dB 6:53 06-Grazing Dreams
DR16 -4.08 dB -24.12 dB 1:31 07-Samba Tala
DR15 -2.31 dB -23.93 dB 8:27 08-Moon Lake

Number of tracks: 8
Official DR value: DR14

Samplerate: 44100 Hz
Channels: 2
Bits per sample: 16
Bitrate: 569 kbps
Codec: FLAC

Collin Walcott - Grazing Dreams (1977) {ECM 1096} [Re-Up]

Collin Walcott - Grazing Dreams (1977) {ECM 1096} [Re-Up]

Collin Walcott - Grazing Dreams (1977) {ECM 1096} [Re-Up]

Rip by Wildstrings


DOWNLOAD:
Buy Premium To Support Me & Get Resumable Support & Max Speed


Links are Interchangeable - No Password
Direct Download

Tags: Collin, Walcott, Grazing, Dreams

Collin Walcott - Grazing Dreams (1977) {ECM 1096} [Re-Up] Download via Hotfile Rapidshare Fileserve Megaupload & FileSonic, Collin Walcott - Grazing Dreams (1977) {ECM 1096} [Re-Up] free torrent downloads included crack, serial, keygen.Collin Walcott - Grazing Dreams (1977) {ECM 1096} [Re-Up] Fast Download via Rapidshare Hotfile Fileserve Filesonic Megaupload, Collin Walcott - Grazing Dreams (1977) {ECM 1096} [Re-Up] Torrents and Emule Download or anything related.
Leave a Comment
Your Name:
E-Mail:
Add Comments:

Enter Code: