Bjork - Biophilia Live (2014) [BDRip 1080p]

Download Now

Bjork - Biophilia Live (2014) [BDRip 1080p]

Bjork - Biophilia Live (2014)
BDRip 1080p | MKV | 10.7 Mbps, 1920x1080 at 23.976, AVC ([email protected]) | 7.6 GB
Audio: 640 kbps, 48 kHz, 16 bits, 6 channels, AC-3 | Length: 01:36:00
Genre: Electronic, Experimental | Nitroflare/Uploadable/Filefactory

""There are not many artists who can combine the lifecycle of a jellyfish with a breakbeat and make it work. But this is an extraordinary piece, perhaps more an opera, where Björk and drummer Manu Delago are at their virtuosic best. It's utterly bonkers yet moving - especially a strange love song set to a mutating virus. It should be mandatory viewing for anyone about to dam a glacial river to facilitate aluminium smelting." --The Guardian

"a dazzling audiovisual spectacle that benefits from the full cinematic treatment . . . Heavenly constellations billow across dark sections of screen above the stage, sometimes engulfing Björk like she is some kind of gargantuan space goddess. . . . there are some gorgeous emotional depths here too, especially when the swooping harmonies of [the accompanying all-female Icelandic chorus] are given full rein." --The Hollywood Reporter"


Bjork - Biophilia Live (2014) [BDRip 1080p]


Tracklist
01. Oskasteinar
02. Thunderbolt
03. Moon
04. Crystalline
05. Hollow
06. Dark Matter
07. Hidden Place
08. Virus
09. Possibly Maybe
10. Mouth's Cradle
11. Isobel
12. Sonnets/Unrealities XI
13. Mutual Core
14. Cosmogony
15. Solstice
16. One Day
17. Nattura
18. Declare Independence
19. Sacrifice
20. Bat Sounds

General
Unique ID
: 223865414841416057176910047914452972973 (0xA86AE91CCAA82FDDAA55A71C9BEDF5AD)
Complete name : C:\Users\ggu\Desktop\ggu\Bjoerk.Biophilia.Live.2013.READNFO.1080p.MBluRay.x264-LiQUiD\bjoerkbiophilia1080p.mkv
Format
: Matroska
Format version : Version 4 / Version 2
File size
: 7.65 GiB
Duration
: 1h 36mn
Overall bit rate : 11.3 Mbps
Encoded date : UTC 2014-12-20 00:39:31
Writing application

: mkvmerge v7.4.0 ('Circles') 64bit built on Dec 12 2014 12:19:56
Writing library : libebml v1.3.0 + libmatroska v1.4.1
DURATION
: 01:36:32.928000000
NUMBER_OF_FRAMES : 181029
NUMBER_OF_BYTES : 463434240
_STATISTICS_WRITING_APP : mkvmerge v7.4.0 ('Circles') 64bit built on Dec 12 2014 12:19:56
_STATISTICS_WRITING_DATE_UTC : 2014-12-20 00:39:31
_STATISTICS_TAGS : BPS DURATION NUMBER_OF_FRAMES NUMBER_OF_BYTES

Video
ID : 1
Format
: AVC
Format/Info
: Advanced Video Codec
Format profile : [email protected]
Format settings, CABAC : Yes
Format settings, ReFrames : 4 frames
Codec ID
: V_MPEG4/ISO/AVC
Duration
: 1h 36mn
Bit rate
: 10.7 Mbps
Width
: 1 920 pixels
Height
: 1 080 pixels
Display aspect ratio : 16:9
Frame rate mode : Constant
Frame rate
: 23.976 fps
Color space
: YUV
Chroma subsampling

: 4:2:0
Bit depth
: 8 bits
Scan type
: Progressive
Bits/(Pixel*Frame)

: 0.215
Stream size
: 7.07 GiB (92%)
Writing library : x264 core 142 r2479 dd79a61
Encoding settings: cabac=1 / ref=4 / deblock=1:0:0 / analyse=0x3:0x133 / me=umh / subme=8 / psy=1 / psy_rd=1.00:0.00 / mixed_ref=1 / me_range=16 / chroma_me=1 / trellis=1 / 8x8dct=1 / cqm=0 / deadzone=21,11 / fast_pskip=0 / chroma_qp_offset=-2 / threads=12 / lookahead_threads=2 / sliced_threads=0 / nr=0 / decimate=1 / interlaced=0 / bluray_compat=0 / constrained_intra=0 / bframes=3 / b_pyramid=2 / b_adapt=1 / b_bias=0 / direct=1 / weightb=1 / open_gop=0 / weightp=2 / keyint=250 / keyint_min=23 / scenecut=40 / intra_refresh=0 / rc_lookahead=40 / rc=2pass / mbtree=1 / bitrate=10709 / ratetol=1.0 / qcomp=0.60 / qpmin=0 / qpmax=69 / qpstep=4 / cplxblur=20.0 / qblur=0.5 / ip_ratio=1.40 / aq=1:1.00
Language
: English
Default
: Yes
Forced
: No
DURATION
: 01:36:32.829000000
NUMBER_OF_FRAMES : 138889
NUMBER_OF_BYTES : 7752158334
_STATISTICS_WRITING_APP : mkvmerge v7.4.0 ('Circles') 64bit built on Dec 12 2014 12:19:56
_STATISTICS_WRITING_DATE_UTC : 2014-12-20 00:39:31
_STATISTICS_TAGS : BPS DURATION NUMBER_OF_FRAMES NUMBER_OF_BYTES

Audio
ID : 2
Format
: AC-3
Format/Info
: Audio Coding 3
Mode extension : CM (complete main)
Format settings, Endianness : Big
Codec ID
: A_AC3
Duration
: 1h 36mn
Bit rate mode : Constant
Bit rate
: 640 Kbps
Channel(s)
: 6 channels
Channel positions: Front: L C R, Side: L R, LFE
Sampling rate : 48.0 KHz
Bit depth
: 16 bits
Compression mode : Lossy
Stream size
: 442 MiB (6%)
Default
: Yes
Forced
: No

Menu
00:00:00.000 : en:00:00:00.000
00:02:51.171 : en:00:02:51.171
00:08:14.035 : en:00:08:14.035
00:14:16.856 : en:00:14:16.856
00:19:31.921 : en:00:19:31.921
00:25:30.988 : en:00:25:30.988
00:28:33.503 : en:00:28:33.503
00:34:23.603 : en:00:34:23.603
00:40:00.148 : en:00:40:00.148
00:45:05.995 : en:00:45:05.995
00:49:19.874 : en:00:49:19.874
00:55:31.453 : en:00:55:31.453
00:58:01.353 : en:00:58:01.353
01:02:53.186 : en:01:02:53.186
01:08:15.675 : en:01:08:15.675
01:13:58.851 : en:01:13:58.851
01:19:44.697 : en:01:19:44.697
01:21:15.496 : en:01:21:15.496
01:24:12.798 : en:01:24:12.798
01:29:34.369 : en:01:29:34.369

Thanks to the original uploader
DOWNLOAD LINKS
Buy Premium From My Links To Get Resumable Support & Max Speed & To Support Me

Rapidgator.net:
http://rapidgator.net/file/a4d24aa4adfb70bfd58942ea0175a670/x9f3b.B.B.L.2014.BDR.1080p.part01.rar.html
http://rapidgator.net/file/99800b447d0e3e112d673e80e326bb6a/x9f3b.B.B.L.2014.BDR.1080p.part02.rar.html
http://rapidgator.net/file/69ffdd3731cb9df9f6f0580faed8f174/x9f3b.B.B.L.2014.BDR.1080p.part03.rar.html
http://rapidgator.net/file/dcd0bd74a243ddfe886ba24a3a9cd708/x9f3b.B.B.L.2014.BDR.1080p.part04.rar.html
http://rapidgator.net/file/4ea2d8633d4aebb1299fef704433019b/x9f3b.B.B.L.2014.BDR.1080p.part05.rar.html
http://rapidgator.net/file/ba449997aa8056a042f552b2f0dfc8ca/x9f3b.B.B.L.2014.BDR.1080p.part06.rar.html
http://rapidgator.net/file/784af45bc1707f2ba1bc9ec055b22429/x9f3b.B.B.L.2014.BDR.1080p.part07.rar.html
http://rapidgator.net/file/f2605a181c156b9f247e0adf327c89ef/x9f3b.B.B.L.2014.BDR.1080p.part08.rar.html
http://rapidgator.net/file/61294ed51a845cc99e931249175383af/x9f3b.B.B.L.2014.BDR.1080p.part09.rar.html
http://rapidgator.net/file/dfaeb73d48b1458b6bbd1a25515093ad/x9f3b.B.B.L.2014.BDR.1080p.part10.rar.html
http://rapidgator.net/file/513e32c3bcc7d92075c7defe19b53d94/x9f3b.B.B.L.2014.BDR.1080p.part11.rar.html
http://rapidgator.net/file/450d92cc22e153b2c399d267f579ce56/x9f3b.B.B.L.2014.BDR.1080p.part12.rar.html

Uploaded.net:
http://uploaded.net/file/ut2o0f7b/x9f3b.B.B.L.2014.BDR.1080p.part01.rar
http://uploaded.net/file/907cpxek/x9f3b.B.B.L.2014.BDR.1080p.part02.rar
http://uploaded.net/file/dh9abhor/x9f3b.B.B.L.2014.BDR.1080p.part03.rar
http://uploaded.net/file/qousehxk/x9f3b.B.B.L.2014.BDR.1080p.part04.rar
http://uploaded.net/file/9mqh2lq9/x9f3b.B.B.L.2014.BDR.1080p.part05.rar
http://uploaded.net/file/6rzab5ga/x9f3b.B.B.L.2014.BDR.1080p.part06.rar
http://uploaded.net/file/qo1xpau8/x9f3b.B.B.L.2014.BDR.1080p.part07.rar
http://uploaded.net/file/m3p8wz8q/x9f3b.B.B.L.2014.BDR.1080p.part08.rar
http://uploaded.net/file/o7ozanym/x9f3b.B.B.L.2014.BDR.1080p.part09.rar
http://uploaded.net/file/9z6s386f/x9f3b.B.B.L.2014.BDR.1080p.part10.rar
http://uploaded.net/file/3n2zinqr/x9f3b.B.B.L.2014.BDR.1080p.part11.rar
http://uploaded.net/file/pealh0qi/x9f3b.B.B.L.2014.BDR.1080p.part12.rar

OBoom.com:
https://www.oboom.com/2LFIFYBP/x9f3b.B.B.L.2014.BDR.1080p.part01.rar
https://www.oboom.com/BLH6PH79/x9f3b.B.B.L.2014.BDR.1080p.part02.rar
https://www.oboom.com/QAZDCGMG/x9f3b.B.B.L.2014.BDR.1080p.part03.rar
https://www.oboom.com/H41GVZFR/x9f3b.B.B.L.2014.BDR.1080p.part04.rar
https://www.oboom.com/RY5SM0UC/x9f3b.B.B.L.2014.BDR.1080p.part05.rar
https://www.oboom.com/ZDE0E9LG/x9f3b.B.B.L.2014.BDR.1080p.part06.rar
https://www.oboom.com/IY8ZLKRC/x9f3b.B.B.L.2014.BDR.1080p.part07.rar
https://www.oboom.com/OD0XGCY6/x9f3b.B.B.L.2014.BDR.1080p.part08.rar
https://www.oboom.com/IS6C9PX6/x9f3b.B.B.L.2014.BDR.1080p.part09.rar
https://www.oboom.com/T0LTKJUW/x9f3b.B.B.L.2014.BDR.1080p.part10.rar
https://www.oboom.com/GTXBP5UL/x9f3b.B.B.L.2014.BDR.1080p.part11.rar
https://www.oboom.com/HAPIJO27/x9f3b.B.B.L.2014.BDR.1080p.part12.rar

Links are Interchangeable - No Password - Single Extraction
Direct Download

Tags: Biophilia

Bjork - Biophilia Live (2014) [BDRip 1080p] Download via Hotfile Rapidshare Fileserve Megaupload & FileSonic, Bjork - Biophilia Live (2014) [BDRip 1080p] free torrent downloads included crack, serial, keygen.Bjork - Biophilia Live (2014) [BDRip 1080p] Fast Download via Rapidshare Hotfile Fileserve Filesonic Megaupload, Bjork - Biophilia Live (2014) [BDRip 1080p] Torrents and Emule Download or anything related.
Leave a Comment
Your Name:
E-Mail:
Add Comments:

Enter Code: