Angel Ontalva - Mundo Flotante (2012)

Download Now

Angel Ontalva - Mundo Flotante (2012)

Angel Ontalva - Mundo Flotante (2012)
EAC Rip | FLAC (Img) + Cue + Log ~ 263 Mb | MP3 CBR320 ~ 105 Mb
Scans (PNG, 600 dpi) ~ 162 Mb | RAR 5% Recovery
Progressive Rock, Jazz Rock | OctoberXart Records #ao01

"Spanish composer and musician Ángel Ontalva is perhaps best known as a central member of the Spanish band October Equus, but he has been involved in multiple side projects and collaborative productions in the last few years as well, in addition to establishing a solo career. Ángel Ontalva released his first solo album, Mundo Flotante, in 2012. For the album he is accompanied by almost all the current members of his band. However, the sound is quite different. The album consists of instrumental progressive rock with an arguable foundation in jazz rock seasoned with details and elements from avant-garde, symphonic, chamber and folk/world music. Intricate chamber music compositions alternate with collective improvisations weaving a sound tapestry full of color and shades..."

Prog Archives | Discogs
***************

Angel Ontalva - Mundo Flotante (2012)

Track List:

01. Sopla viento del Este [04:37]
02. Bounkam Reverie [04:09]
03. Leylia [04:01]
04. Una para Lars [03:58]
05. Suite Sendas de Ofir / En Ruta [01:40]
06. Suite Sendas de Ofir / White Bird [06:22]
07. Suite Sendas de Ofir / Sendas de Ofir [04:45]
08. Suite Sendas de Ofir / Oricalco [02:33]
09. Suite Sendas de Ofir / Oricalco Coda [02:29]
10. Aurelia quiere saber [02:24]
11. Sunda Stream [02:43]
12. Aguas del Bagradas [04:19]

Exact Audio Copy V1.0 beta 3 from 29. August 2011

EAC extraction logfile from 16. November 2013, 9:08

Angel Ontalva / Mundo Flotante

Used drive : PIONEER DVD-RW DVR-220RS Adapter: 0 ID: 0

Read mode : Secure
Utilize accurate stream : Yes
Defeat audio cache : Yes
Make use of C2 pointers : No

Read offset correction

: 6
Overread into Lead-In and Lead-Out : No
Fill up missing offset samples with silence : Yes
Delete leading and trailing silent blocks : No
Null samples used in CRC calculations : Yes
Used interface
: Native Win32 interface for Win NT & 2000

Used output format : User Defined Encoder
Selected bitrate : 128 kBit/s
Quality : High
Add ID3 tag : No
Command line compressor : C:\Program Files (x86)\Exact Audio Copy\Wavpack\wavpack.exe
Additional command line options : -hlm %source% %dest%

TOC of the extracted CD Track | Start | Length | Start sector | End sector
--1 | 0:00.00 | 4:36.06 | 0 | 20705 2 | 4:36.06 | 4:08.42 | 20706 | 39347 3 | 8:44.48 | 4:00.48 | 39348 | 57395 4 | 12:45.21 | 3:57.27 | 57396 | 75197 5 | 16:42.48 | 1:39.40 | 75198 | 82662 6 | 18:22.13 | 6:21.37 | 82663 | 111274 7 | 24:43.50 | 4:44.06 | 111275 | 132580 8 | 29:27.56 | 2:32.44 | 132581 | 144024 9 | 32:00.25 | 2:28.43 | 144025 | 155167
10 | 34:28.68 | 2:23.70 | 155168 | 165962
11 | 36:52.63 | 2:42.14 | 165963 | 178126
12 | 39:35.02 | 4:18.21 | 178127 | 197497

Range status and errors

Selected range Filename C:\NL+\CD44\Angel Ontalva - Mundo Flotante.wav Peak level 100.0 %
Extraction speed 1.8 X
Range quality 100.0 %
Test CRC EB4B0FCC
Copy CRC EB4B0FCC
Copy OK

No errors occurred


AccurateRip summary

Track 1 accurately ripped (confidence 1) [234BB7C2] (AR v2)
Track 2 accurately ripped (confidence 1) [AEC96762] (AR v2)
Track 3 accurately ripped (confidence 1) [F8602E81] (AR v2)
Track 4 accurately ripped (confidence 1) [780454C0] (AR v2)
Track 5 accurately ripped (confidence 1) [68C4D498] (AR v2)
Track 6 accurately ripped (confidence 1) [4B9CF655] (AR v2)
Track 7 accurately ripped (confidence 1) [F37648D8] (AR v2)
Track 8 accurately ripped (confidence 1) [1850E1D5] (AR v2)
Track 9 accurately ripped (confidence 1) [8EE4B9A2] (AR v2)
Track 10 accurately ripped (confidence 1) [01578067] (AR v2)
Track 11 accurately ripped (confidence 1) [EE77D74F] (AR v2)
Track 12 accurately ripped (confidence 1) [88FE7B80] (AR v2)

All tracks accurately ripped

End of status report

- CUETools DB Plugin V2.1.3

[CTDB TOCID: WFj6APKXy_ruRfpKEOpSXMwaI2E-] found, Submit result: WFj6APKXy_ruRfpKEOpSXMwaI2E- has been confirmed
[11056d82] (1/1) Accurately ripped

==== Log checksum 551061ADA6A5F5B35EA6691073EFB7ABA399BE7E40D971FB982EB3CE6D266238 ====

foobar2000 1.2.6 / Dynamic Range Meter 1.1.1
log date: 2015-10-15 14:56:37

Analyzed: Angel Ontalva / Mundo Flotante

DR Peak RMS Duration Track

DR9 -0.01 dB -10.70 dB 4:36 01-Sopla viento del Este
DR10 -0.04 dB -11.40 dB 4:09 02-Bounkam Reverie
DR10 -0.01 dB -11.47 dB 4:01 03-Leylia
DR9 -0.08 dB -11.31 dB 3:57 04-Una para Lars
DR11 -0.05 dB -12.19 dB 1:40 05-Suite Sendas de Ofir / En Ruta
DR10 -0.02 dB -11.60 dB 6:21 06-Suite Sendas de Ofir / White Bird
DR9 0.00 dB -10.93 dB 4:44 07-Suite Sendas de Ofir / Sendas de Ofir
DR9 -0.02 dB -10.52 dB 2:33 08-Suite Sendas de Ofir / Oricalco
DR9 -0.07 dB -12.08 dB 2:29 09-Suite Sendas de Ofir / Oricalco Coda
DR10 -3.71 dB -16.08 dB 2:24 10-Aurelia quiere saber
DR9 -0.01 dB -10.45 dB 2:42 11-Sunda Stream
DR10 -0.01 dB -11.12 dB 4:18 12-Aguas del Bagradas

Number of tracks: 12
Official DR value: DR10

Samplerate: 44100 Hz
Channels: 2
Bits per sample: 16
Bitrate: 796 kbps
Codec: FLAC

[CUETools log; Date: 15.10.2015 14:56:36; Version: 2.1.5]
[CTDB TOCID: WFj6APKXy_ruRfpKEOpSXMwaI2E-] found.
Track | CTDB Status
1 | (3/3) Accurately ripped
2 | (3/3) Accurately ripped
3 | (3/3) Accurately ripped
4 | (3/3) Accurately ripped
5 | (3/3) Accurately ripped
6 | (3/3) Accurately ripped
7 | (3/3) Accurately ripped
8 | (3/3) Accurately ripped
9 | (3/3) Accurately ripped
10 | (3/3) Accurately ripped
11 | (3/3) Accurately ripped
12 | (3/3) Accurately ripped
[AccurateRip ID: 0014c04c-00be6a66-9b0a490c] found.
Track [ CRC | V2 ] Status
01 [54ecbd36|234bb7c2] (0+3/3) Accurately ripped
02 [8d5ed16f|aec96762] (0+3/3) Accurately ripped
03 [3fa9efac|f8602e81] (0+3/3) Accurately ripped
04 [93e86fcf|780454c0] (0+3/3) Accurately ripped
05 [a2eaaf41|68c4d498] (0+3/3) Accurately ripped
06 [efa8046e|4b9cf655] (0+3/3) Accurately ripped
07 [e92ab649|f37648d8] (0+3/3) Accurately ripped
08 [0aee5176|1850e1d5] (0+3/3) Accurately ripped
09 [eaf3f33d|8ee4b9a2] (0+3/3) Accurately ripped
10 [9b4f59c0|01578067] (0+3/3) Accurately ripped
11 [a16c828c|ee77d74f] (0+3/3) Accurately ripped
12 [73dd9b1f|88fe7b80] (0+3/3) Accurately ripped

Track Peak [ CRC32 ] [W/O NULL] [ LOG ]
-- 100,0 [EB4B0FCC] 8574ABB CRC32
01 99,9 [6E7D78E7] [13594D8F]
02 99,5 21B0B63 [D67231FC]
03 99,9 [954B3F1B] [1F66B372]
04 99,0 [7D16D631] [28D5ACFF]
05 99,3 [9023999D] [2734DFD5]
06 99,8 [08B0F73E] [EBF3AE1B]
07 100,0 [3CF166B7] [8CF0AF62]
08 99,7 [1EC3DB6A] [91508556]
09 99,2 [4D91AE9C] [D1973316]
10 65,2 [2FC20F15] [673C9566]
11 99,9 [1DD0C17B] [E04441FA]
12 99,8 [2265B477] A85A8F4

Angel Ontalva - Mundo Flotante (2012)

Angel Ontalva - Mundo Flotante (2012)

DOWNLOAD LINKS:


No Password
Direct Download

Tags: Ontalva, Flotante

Angel Ontalva - Mundo Flotante (2012) Download via Hotfile Rapidshare Fileserve Megaupload & FileSonic, Angel Ontalva - Mundo Flotante (2012) free torrent downloads included crack, serial, keygen.Angel Ontalva - Mundo Flotante (2012) Fast Download via Rapidshare Hotfile Fileserve Filesonic Megaupload, Angel Ontalva - Mundo Flotante (2012) Torrents and Emule Download or anything related.
Leave a Comment
Your Name:
E-Mail:
Add Comments:

Enter Code: