Carmen Maki & Blues Creation - Carmen Maki & Blues Creation (1971)

Download Now

Carmen Maki & Blues Creation - Carmen Maki & Blues Creation (1971)

Carmen Maki & Blues Creation - Carmen Maki & Blues Creation (1971)
EAC | Flac(Image) + Cue + Log & MP3 CBR 320Kbps
1993 | Denon Records, CD-5030 | ~ 249 or 112 Mb | Scans included
Progressive Rock

"The same year that Blues Creation gave us their amazing second album DEMON & ELEVEN CHILDREN, they recorded this collaboration with Carmen Maki. While it's not as consistently great as the aforemntioned album, it is a damn good seventies hard rock record..."

Carmen Maki & Blues Creation - Carmen Maki & Blues Creation (1971)

Carmen Maki at Discogs | Carmen Maki at Allmusic

***********

Carmen Maki & Blues Creation - Carmen Maki & Blues Creation at Discogs
Carmen Maki & Blues Creation - Carmen Maki & Blues Creation (1971):

Carmen Maki & Blues Creation - Carmen Maki & Blues Creation (1971)

Tracklist:

01. Understand (05:00)
02. And You (02:59)
03. Lord, I Can't Be Going No More (03:33)
04. Empty Heart (08:32)
05. Motherless Child (06:57)
06. I Can't Live For Today (04:37)
07. Mean Old Boogie (05:01)
08. St. James Infirmary (06:45)

Musicians:

Carmen Maki - vocals
Hiromi Osawa - vocals
Kazuo Takeda - guitar
Masashi Saeki - bass
Masayuki Higuchi - drums


Exact Audio Copy V1.0 beta 3 from 29. August 2011

EAC extraction logfile from 22. November 2013, 20:30

カルメン。マキ / Blues Creation

Used drive : HL-DT-STDVDRAM GH22NS50 Adapter: 1 ID: 0

Read mode : Secure
Utilize accurate stream : Yes
Defeat audio cache : Yes
Make use of C2 pointers : No

Read offset correction

: 667
Overread into Lead-In and Lead-Out : No
Fill up missing offset samples with silence : Yes
Delete leading and trailing silent blocks : No
Null samples used in CRC calculations : Yes
Used interface
: Native Win32 interface for Win NT & 2000
Gap handling
: Appended to previous track

Used output format : User Defined Encoder
Selected bitrate : 1024 kBit/s
Quality : High
Add ID3 tag : No
Command line compressor : C:\Program Files (x86)\Exact Audio Copy\Flac\flac.exe
Additional command line options : -8 -V -T "ARTIST=%artist%" -T "TITLE=%title%" -T "ALBUM=%albumtitle%" -T "DATE=%year%" -T "TRACKNUMBER=%tracknr%" -T "GENRE=%genre%" -T "PERFORMER=%albuminterpret%" -T "COMPOSER=%composer%" %haslyrics%--tag-from-file=LYRICS="%lyricsfile%"%haslyrics% -T "ALBUMARTIST=%albumartist%" -T "DISCNUMBER=%cdnumber%" -T "TOTALDISCS=%totalcds%" -T "TOTALTRACKS=%numtracks%" -T "COMMENT=%comment%" %source% -o %dest%

TOC of the extracted CD Track | Start | Length | Start sector | End sector
--1 | 0:00.00 | 5:00.34 | 0 | 22533 2 | 5:00.34 | 2:59.12 | 22534 | 35970 3 | 7:59.46 | 3:33.49 | 35971 | 51994 4 | 11:33.20 | 8:32.08 | 51995 | 90402 5 | 20:05.28 | 6:56.64 | 90403 | 121666 6 | 27:02.17 | 4:37.24 | 121667 | 142465 7 | 31:39.41 | 5:01.73 | 142466 | 165113 8 | 36:41.39 | 6:43.37 | 165114 | 195375

Track 1 Filename C:\EAC Rips\01 - Understand.wav Pre-gap length 0:00:02.00 Peak level 91.1 %
Extraction speed 0.9 X
Track quality 99.9 %
Test CRC 67B2296B
Copy CRC 67B2296B
Accurately ripped (confidence 2) [99BDEC1F] (AR v2)
Copy OK

Track 2 Filename C:\EAC Rips\02 - And You.wav Pre-gap length 0:00:04.00 Peak level 79.3 %
Extraction speed 1.1 X
Track quality 100.0 %
Test CRC DDA0B812
Copy CRC DDA0B812
Accurately ripped (confidence 2) [375C2475] (AR v2)
Copy OK

Track 3 Filename C:\EAC Rips\03 - Lord, I Can't Be Going No More.wav Pre-gap length 0:00:03.00 Peak level 91.2 %
Extraction speed 1.2 X
Track quality 100.0 %
Test CRC B888551C
Copy CRC B888551C
Accurately ripped (confidence 2) [91320051] (AR v2)
Copy OK

Track 4 Filename C:\EAC Rips\04 - Empty Heart.wav Pre-gap length 0:00:04.00 Peak level 91.1 %
Extraction speed 1.5 X
Track quality 100.0 %
Test CRC A9C95CEA
Copy CRC A9C95CEA
Accurately ripped (confidence 2) [54207536] (AR v2)
Copy OK

Track 5 Filename C:\EAC Rips\05 - Motherless Child.wav Pre-gap length 0:00:04.00 Peak level 91.2 %
Extraction speed 1.6 X
Track quality 100.0 %
Test CRC 66A5E0B2
Copy CRC 66A5E0B2
Accurately ripped (confidence 2) 1966B19 (AR v2)
Copy OK

Track 6 Filename C:\EAC Rips\06 - I Can't Live For Today.wav Pre-gap length 0:00:03.00 Peak level 91.2 %
Extraction speed 1.7 X
Track quality 100.0 %
Test CRC 8453029F
Copy CRC 8453029F
Accurately ripped (confidence 2) 085CA10 (AR v2)
Copy OK

Track 7 Filename C:\EAC Rips\07 - Mean Old Boogie.wav Pre-gap length 0:00:04.00 Peak level 91.2 %
Extraction speed 1.8 X
Track quality 100.0 %
Test CRC A4B1A3EC
Copy CRC A4B1A3EC
Accurately ripped (confidence 2) [23FB7F6A] (AR v2)
Copy OK

Track 8 Filename C:\EAC Rips\08 - S. James Infirmary.wav Pre-gap length 0:00:03.00 Peak level 91.2 %
Extraction speed 2.0 X
Track quality 100.0 %
Test CRC 8C582AF5
Copy CRC 8C582AF5
Accurately ripped (confidence 2) 01EBC0B (AR v2)
Copy OK

All tracks accurately ripped

No errors occurred

End of status report

==== Log checksum 3FE04977ABD116E4626CF6BE43D8C1479D7B1D175ACE4EF114C528C40E7485AE ====

foobar2000 1.2.9 / Dynamic Range Meter 1.1.1
log date: 2015-10-16 01:55:42

Analyzed: Carmen Maki & Blues Creation / Carmen Maki - Blues Creation

DR Peak RMS Duration Track

DR11 -0.80 dB -13.31 dB 5:00 01-Understand
DR13 -2.01 dB -18.38 dB 2:59 02-And You
DR12 -0.80 dB -15.66 dB 3:34 03-Lord, I Can't Be Goin' No More
DR12 -0.80 dB -16.79 dB 8:32 04-Empty Heart
DR10 -0.80 dB -13.56 dB 6:57 05-Motherless Child
DR10 -0.80 dB -13.84 dB 4:37 06-I Can't Live for Today
DR10 -0.80 dB -13.36 dB 5:02 07-Mean Old Boogie
DR12 -0.80 dB -15.20 dB 6:43 08-St. James infirmary

Number of tracks: 8
Official DR value: DR11

Samplerate: 44100 Hz
Channels: 2
Bits per sample: 16
Bitrate: 751 kbps
Codec: FLAC

[CUETools log; Date: 16.10.2015 1:46:37; Version: 2.1.4]
[AccurateRip ID: 000c98b6-0055bf51-510a2d08] found.
Track [ CRC | V2 ] Status
01 [3fbfd574|99bdec1f] (0+4/4) Accurately ripped
02 [4910dd19|375c2475] (0+4/4) Accurately ripped
03 [f7db4210|91320051] (0+4/4) Accurately ripped
04 [f062ff37|54207536] (0+4/4) Accurately ripped
05 [29184977|b1966b19] (0+4/4) Accurately ripped
06 [5cd87c39|b085ca10] (0+4/4) Accurately ripped
07 [87ca37b1|23fb7f6a] (0+4/4) Accurately ripped
08 [5361cb92|b01ebc0b] (0+4/4) Accurately ripped

Track Peak [ CRC32 ] [W/O NULL] [ LOG ]
-- 91,2 [56E16F3A] 1460FDE
01 91,1 [67B2296B] [6A77B491] CRC32
02 79,3 [DDA0B812] [CCE8D75B] CRC32
03 91,2 888551C [98EB4162] CRC32
04 91,1 [A9C95CEA] [46168055] CRC32
05 91,2 [66A5E0B2] [21FCA13F] CRC32
06 91,1 [8453029F] [2F2454F7] CRC32
07 91,2 [A4B1A3EC] 796D93E CRC32
08 91,2 [8C582AF5] [79ED2B5F] CRC32

Carmen Maki & Blues Creation - Carmen Maki & Blues Creation (1971)

All thanks go to the original releaser
DOWNLOAD LINKS
Buy Premium From My Links To Get Resumable Support & Max Speed & To Support Me


Links are Interchangeable - No Password - Single Extraction
Direct Download

Tags: Carmen, Creation, Carmen, Creation

Carmen Maki & Blues Creation - Carmen Maki & Blues Creation (1971) Download via Hotfile Rapidshare Fileserve Megaupload & FileSonic, Carmen Maki & Blues Creation - Carmen Maki & Blues Creation (1971) free torrent downloads included crack, serial, keygen.Carmen Maki & Blues Creation - Carmen Maki & Blues Creation (1971) Fast Download via Rapidshare Hotfile Fileserve Filesonic Megaupload, Carmen Maki & Blues Creation - Carmen Maki & Blues Creation (1971) Torrents and Emule Download or anything related.
Leave a Comment
Your Name:
E-Mail:
Add Comments:

Enter Code: