The Applejacks - Tell Me When (1990)

Download Now

The Applejacks - Tell Me When (1990)

The Applejacks - Tell Me When (1990)
EAC | FLAC | Tracks (Cue&Log) ~ 277 Mb (incl 5%) | Mp3 (CBR320) ~ 142 Mb (incl 5%) | Scans included
Genre: British Invasion, Beat, Pop/Rock | Label: Decca/Deram | # 820 968-2 | Time: 00:50:43

"This 20-track compilation contains everything from their 1964 self-titled LP, as well as both sides of their three 1964 singles and a cover of Ray Davies' "I Go to Sleep" (found on a 1965 single). Its quaintness and lack of strong tunes (only one of which was a group original) limit its worth to British Invasion obsessives for the most part, with some value for Beatles completists due to the hit cover of "Like Dreamers Do." "No Time," one of several songs co-written by future Honeybus main man Pete Dello, is about the best song, with its moody melody; at their most energetic (as on "See If She Cares") they sound a bit like Gerry & the Pacemakers. The covers of '50s rock classics are dire, but the reading of Davies' "I Go to Sleep," with its eerie organ and high yelping backup vocals, has some curiosity value as the first cover of this song, which the Kinks did not release in the 1960s."



Tracklist:

01. Tell Me When (02:21)
02. Wishing Will Never Make It So (02:18)
03. Over Suzanne (02:27)
04. Hello Josephine (02:22)
05. As A Matter Of Fact (02:08)
06. Too Much Monkey Business (02:55)
07. Mem'ries Of You (02:24)
08. Ain't That Just Like Me (02:12)
09. Kansas City (03:09)
10. I Wonder (03:03)
11. Three Little Words (I Love You) (02:18)
12. Baby Jane (02:01)
13. No Time (02:35)
14. See If She Cares (02:19)
15. What's The Matter Little Girl (02:47)
16. What'd I Say (03:30)
17. Like Dreamers Do (02:37)
18. (Boom, Boom, Boom, Boom) Everybody Fall Down (02:00)
19. You're The One For Me (02:25)
20. I Go To Sleep (02:41)


Exact Audio Copy V1.0 beta 3 from 29. August 2011

EAC extraction logfile from 14. March 2015, 22:27

The Applejacks / Tell Me When

Used drive : Optiarc DVD RW AD-7280S Adapter: 3 ID: 0

Read mode : Secure
Utilize accurate stream : Yes
Defeat audio cache : Yes
Make use of C2 pointers : No

Read offset correction

: 48
Overread into Lead-In and Lead-Out : No
Fill up missing offset samples with silence : Yes
Delete leading and trailing silent blocks : No
Null samples used in CRC calculations : Yes
Used interface
: Native Win32 interface for Win NT & 2000
Gap handling
: Appended to previous track

Used output format : User Defined Encoder
Selected bitrate : 768 kBit/s
Quality : High
Add ID3 tag : No
Command line compressor : C:\Program Files\Exact Audio Copy\Flac\flac.exe
Additional command line options : -V -8 -T "Genre=%genre%" -T "Artist=%artist%" -T "Title=%title%" -T "Album=%albumtitle%" -T "Date=%year%" -T "Tracknumber=%tracknr%" -T "Comment=%comment%" %source%

TOC of the extracted CD Track | Start | Length | Start sector | End sector
--1 | 0:00.33 | 2:21.57 | 33 | 10664 2 | 2:22.15 | 2:18.55 | 10665 | 21069 3 | 4:40.70 | 2:27.25 | 21070 | 32119 4 | 7:08.20 | 2:22.18 | 32120 | 42787 5 | 9:30.38 | 2:08.70 | 42788 | 52457 6 | 11:39.33 | 2:55.65 | 52458 | 65647 7 | 14:35.23 | 2:24.27 | 65648 | 76474 8 | 16:59.50 | 2:12.70 | 76475 | 86444 9 | 19:12.45 | 3:09.33 | 86445 | 100652
10 | 22:22.03 | 3:03.50 | 100653 | 114427
11 | 25:25.53 | 2:18.67 | 114428 | 124844
12 | 27:44.45 | 2:01.53 | 124845 | 133972
13 | 29:46.23 | 2:35.05 | 133973 | 145602
14 | 32:21.28 | 2:19.00 | 145603 | 156027
15 | 34:40.28 | 2:47.22 | 156028 | 168574
16 | 37:27.50 | 3:30.03 | 168575 | 184327
17 | 40:57.53 | 2:37.62 | 184328 | 196164
18 | 43:35.40 | 2:00.73 | 196165 | 205237
19 | 45:36.38 | 2:25.60 | 205238 | 216172
20 | 48:02.23 | 2:41.25 | 216173 | 228272

Track 1 Filename D:\CD\The Applejacks - Tell Me When (1990) [Deram 820 968-2]\01. Tell Me When.wav Pre-gap length 0:00:02.33 Peak level 99.0 %
Extraction speed 1.7 X
Track quality 99.9 %
Test CRC D414E1E8
Copy CRC D414E1E8
Accurately ripped (confidence 4) [3BFF7DFD] (AR v2)
Copy OK

Track 2 Filename D:\CD\The Applejacks - Tell Me When (1990) [Deram 820 968-2]\02. Wishing Will Never Make It So.wav Pre-gap length 0:00:04.17 Peak level 91.6 %
Extraction speed 2.2 X
Track quality 100.0 %
Test CRC 3D0C4674
Copy CRC 3D0C4674
Accurately ripped (confidence 4) [0898572E] (AR v2)
Copy OK

Track 3 Filename D:\CD\The Applejacks - Tell Me When (1990) [Deram 820 968-2]\03. Over Suzanne.wav Pre-gap length 0:00:04.32 Peak level 83.5 %
Extraction speed 2.4 X
Track quality 100.0 %
Test CRC 5152E7D0
Copy CRC 5152E7D0
Accurately ripped (confidence 4) [DC802738] (AR v2)
Copy OK

Track 4 Filename D:\CD\The Applejacks - Tell Me When (1990) [Deram 820 968-2]\04. Hello Josephine.wav Pre-gap length 0:00:04.35 Peak level 70.6 %
Extraction speed 2.5 X
Track quality 100.0 %
Test CRC A080C478
Copy CRC A080C478
Accurately ripped (confidence 4) [48DC0F79] (AR v2)
Copy OK

Track 5 Filename D:\CD\The Applejacks - Tell Me When (1990) [Deram 820 968-2]\05. As A Matter Of Fact.wav Pre-gap length 0:00:04.20 Peak level 91.6 %
Extraction speed 2.6 X
Track quality 100.0 %
Test CRC C451B443
Copy CRC C451B443
Accurately ripped (confidence 4) [D0FF9E9B] (AR v2)
Copy OK

Track 6 Filename D:\CD\The Applejacks - Tell Me When (1990) [Deram 820 968-2]\06. Too Much Monkey Business.wav Pre-gap length 0:00:04.08 Peak level 79.5 %
Extraction speed 2.9 X
Track quality 100.0 %
Test CRC EC884A60
Copy CRC EC884A60
Accurately ripped (confidence 4) [1CBF7926] (AR v2)
Copy OK

Track 7 Filename D:\CD\The Applejacks - Tell Me When (1990) [Deram 820 968-2]\07. Mem'ries Of You.wav Pre-gap length 0:00:04.63 Peak level 95.3 %
Extraction speed 2.9 X
Track quality 100.0 %
Test CRC ACF2AC2C
Copy CRC ACF2AC2C
Accurately ripped (confidence 4) [C98B277C] (AR v2)
Copy OK

Track 8 Filename D:\CD\The Applejacks - Tell Me When (1990) [Deram 820 968-2]\08. Ain't That Just Like Me.wav Pre-gap length 0:00:02.62 Peak level 97.2 %
Extraction speed 3.0 X
Track quality 100.0 %
Test CRC 28E08B41
Copy CRC 28E08B41
Accurately ripped (confidence 4) [AD3E85D1] (AR v2)
Copy OK

Track 9 Filename D:\CD\The Applejacks - Tell Me When (1990) [Deram 820 968-2]\09. Kansas City.wav Pre-gap length 0:00:03.25 Peak level 94.0 %
Extraction speed 3.2 X
Track quality 100.0 %
Test CRC 7C479B61
Copy CRC 7C479B61
Accurately ripped (confidence 4) [A2775F00] (AR v2)
Copy OK

Track 10 Filename D:\CD\The Applejacks - Tell Me When (1990) [Deram 820 968-2]\10. I Wonder.wav Pre-gap length 0:00:04.23 Peak level 88.0 %
Extraction speed 3.4 X
Track quality 100.0 %
Test CRC F471DC9F
Copy CRC F471DC9F
Accurately ripped (confidence 4) [AFA7D52D] (AR v2)
Copy OK

Track 11 Filename D:\CD\The Applejacks - Tell Me When (1990) [Deram 820 968-2]\11. Three Little Words (I Love You).wav Pre-gap length 0:00:02.15 Peak level 99.9 %
Extraction speed 3.3 X
Track quality 100.0 %
Test CRC 52B8799D
Copy CRC 52B8799D
Accurately ripped (confidence 4) [473355E7] (AR v2)
Copy OK

Track 12 Filename D:\CD\The Applejacks - Tell Me When (1990) [Deram 820 968-2]\12. Baby Jane.wav Pre-gap length 0:00:03.30 Peak level 85.4 %
Extraction speed 3.3 X
Track quality 100.0 %
Test CRC 0E7F251B
Copy CRC 0E7F251B
Accurately ripped (confidence 4) [DD051C1A] (AR v2)
Copy OK

Track 13 Filename D:\CD\The Applejacks - Tell Me When (1990) [Deram 820 968-2]\13. No Time.wav Pre-gap length 0:00:03.20 Peak level 77.6 %
Extraction speed 3.5 X
Track quality 100.0 %
Test CRC D9E2AB72
Copy CRC D9E2AB72
Accurately ripped (confidence 4) [97300D19] (AR v2)
Copy OK

Track 14 Filename D:\CD\The Applejacks - Tell Me When (1990) [Deram 820 968-2]\14. See If She Cares.wav Pre-gap length 0:00:04.18 Peak level 87.9 %
Extraction speed 3.6 X
Track quality 100.0 %
Test CRC C90825E1
Copy CRC C90825E1
Accurately ripped (confidence 4) [1D5B9DF9] (AR v2)
Copy OK

Track 15 Filename D:\CD\The Applejacks - Tell Me When (1990) [Deram 820 968-2]\15. What's The Matter Little Girl.wav Pre-gap length 0:00:03.70 Peak level 91.6 %
Extraction speed 3.2 X
Track quality 99.9 %
Test CRC BE8B72A0
Copy CRC BE8B72A0
Accurately ripped (confidence 4) [5F968358] (AR v2)
Copy OK

Track 16 Filename D:\CD\The Applejacks - Tell Me When (1990) [Deram 820 968-2]\16. What'd I Say.wav Pre-gap length 0:00:03.67 Peak level 92.4 %
Extraction speed 4.1 X
Track quality 100.0 %
Test CRC AC6EE068
Copy CRC AC6EE068
Accurately ripped (confidence 4) [6D1275E0] (AR v2)
Copy OK

Track 17 Filename D:\CD\The Applejacks - Tell Me When (1990) [Deram 820 968-2]\17. Like Dreamers Do.wav Pre-gap length 0:00:03.55 Peak level 97.3 %
Extraction speed 4.0 X
Track quality 100.0 %
Test CRC 0A842174
Copy CRC 0A842174
Accurately ripped (confidence 4) [42D73840] (AR v2)
Copy OK

Track 18 Filename D:\CD\The Applejacks - Tell Me When (1990) [Deram 820 968-2]\18. (Boom, Boom, Boom, Boom) Everybody Fall Down.wav Pre-gap length 0:00:04.17 Peak level 89.7 %
Extraction speed 3.8 X
Track quality 100.0 %
Test CRC C6E166CB
Copy CRC C6E166CB
Accurately ripped (confidence 4) [63CA3CFC] (AR v2)
Copy OK

Track 19 Filename D:\CD\The Applejacks - Tell Me When (1990) [Deram 820 968-2]\19. You're The One For Me.wav Pre-gap length 0:00:03.25 Peak level 87.1 %
Extraction speed 4.1 X
Track quality 100.0 %
Test CRC 47C12FC9
Copy CRC 47C12FC9
Accurately ripped (confidence 4) [55F45A27] (AR v2)
Copy OK

Track 20 Filename D:\CD\The Applejacks - Tell Me When (1990) [Deram 820 968-2]\20. I Go To Sleep.wav Pre-gap length 0:00:04.68 Peak level 93.7 %
Extraction speed 3.6 X
Track quality 99.9 %
Test CRC F8C162C4
Copy CRC F8C162C4
Accurately ripped (confidence 4) [2E873743] (AR v2)
Copy OK

All tracks accurately ripped

No errors occurred

End of status report

==== Log checksum 5AE1E597B1AF999AA0ECB7ABB900B81A36F426EE2C9B7995E374B9EFF7C7322C ====

foobar2000 1.2 / Dynamic Range Meter 1.1.1
log date: 2015-10-15 18:11:03

Analyzed: The Applejacks / Tell Me When

DR Peak RMS Duration Track

DR14 -0.08 dB -15.26 dB 2:22 01-Tell Me When
DR10 -0.75 dB -12.69 dB 2:19 02-Wishing Will Never Make It So
DR9 -1.56 dB -11.98 dB 2:27 03-Over Suzanne
DR10 -3.02 dB -15.13 dB 2:22 04-Hello Josephine
DR10 -0.76 dB -11.86 dB 2:09 05-As A Matter Of Fact
DR9 -1.99 dB -13.11 dB 2:56 06-Too Much Monkey Business
DR10 -0.41 dB -12.48 dB 2:24 07-Mem'ries Of You
DR9 -0.24 dB -10.97 dB 2:13 08-Ain't That Just Like Me
DR10 -0.54 dB -12.54 dB 3:09 09-Kansas City
DR10 -1.10 dB -13.17 dB 3:04 10-I Wonder
DR13 -0.01 dB -14.78 dB 2:19 11-Three Little Words (I Love You)
DR11 -1.37 dB -13.49 dB 2:02 12-Baby Jane
DR10 -2.20 dB -14.29 dB 2:35 13-No Time
DR9 -1.11 dB -11.72 dB 2:19 14-See If She Cares
DR9 -0.76 dB -11.39 dB 2:47 15-What's The Matter Little Girl
DR9 -0.68 dB -11.66 dB 3:30 16-What'd I Say
DR10 -0.24 dB -12.11 dB 2:38 17-Like Dreamers Do
DR11 -0.94 dB -13.84 dB 2:01 18-(Boom, Boom, Boom, Boom) Everybody Fall Down
DR9 -1.20 dB -12.40 dB 2:26 19-You're The One For Me
DR10 -0.56 dB -13.07 dB 2:41 20-I Go To Sleep

Number of tracks: 20
Official DR value: DR10

Samplerate: 44100 Hz
Channels: 2
Bits per sample: 16
Bitrate: 666 kbps
Codec: FLAC

The Applejacks - Tell Me When (1990)

The Applejacks - Tell Me When (1990)

All thanks to original releaser - bachelor-62
Password: designol

DOWNLOAD LINKS
Buy Premium From My Links To Get Resumable Support & Max Speed & To Support Me


Links are Interchangeable - No Password - Single Extraction
Direct Download

Tags: Applejacks

The Applejacks - Tell Me When (1990) Download via Hotfile Rapidshare Fileserve Megaupload & FileSonic, The Applejacks - Tell Me When (1990) free torrent downloads included crack, serial, keygen.The Applejacks - Tell Me When (1990) Fast Download via Rapidshare Hotfile Fileserve Filesonic Megaupload, The Applejacks - Tell Me When (1990) Torrents and Emule Download or anything related.
Leave a Comment
Your Name:
E-Mail:
Add Comments:

Enter Code: