Martti Anttila, Jarno Lehtola, Ville Rusanen / Veli-Matti Puumala: Anna Liisa (2015)

Download Now

Martti Anttila, Jarno Lehtola, Ville Rusanen / Veli-Matti Puumala: Anna Liisa (2015)

Martti Anttila, Jarno Lehtola, Ville Rusanen / Veli-Matti Puumala: Anna Liisa (2015)
EAC Rip | Flac (Tracks + cue + log) | 568 MB | MP3 320Kbps CBR | 328 MB | 2 CDs | Full Scans
Genre: Classical | Label: Ondine | Catalog Number: 1254

"Ondine releases the world premiere recording of Veli-Matti Puumala's (b. 1965) opera Anna Liisa. Puumala's opera features several well-known Finnish opera artists, including Helena Juntunen and Jorma Hynninen. The Tapiola Sinfonietta is conducted by Jan Söderblom."

Tracklisting:

Disc 1
Puumala, Veli-Matti
Kakela-Puumala, Tiina / Puumala, Veli-Matti / Kakela-Puumala, Tiina / Puumala, Veli-Matti, lyricist(s)
Anna Liisa
1. Act I: Prologi (Anna Liisa) 00:03:44
2. Act I Scene 1: Ensi pyhana kuuliaiset (Kortesuo, Riikka, Johannes, Anna Liisa, Chorus) 00:03:41
3. Act I Scene 2: Husso! (Anna Liisa, Husso) 00:07:34
4. Act I Scene 3: Nautin elamasta (Mikko, Villagers) 00:06:35
5. Act I Scene 4: Johannes, oletko varma (Anna Liisa, Johannes) 00:06:15
6. Act I Scene 5: Perjantai - lauantai - sunnuntai! (Anna Liisa, Pirkko) 00:05:04
7. Act I Scene 5: Kehtolaulu (Anna Liisa) 00:02:47
8. Act II Scene 1: Han on tulossa Husso! (Pirkko, Riikka, Kortesuo, Husso, Mikko, Johannes, Anna Liisa, Chorus) 00:14:30
9. Act II Scene 2: Nyt tiedatte, kuinka asian laita on (Mikko, Anna Liisa, Husso, Kortesuo, Johannes, Riikka, Chorus) 00:08:59

Exact Audio Copy V1.0 beta 3 from 29. August 2011

EAC extraction logfile from 13. October 2015, 22:26

Veli-Matti Puumala / Anna Liisa CD1

Used drive : MATSHITADVD-RAM UJ8C2 Adapter: 0 ID: 0

Read mode : Secure
Utilize accurate stream : Yes
Defeat audio cache : Yes
Make use of C2 pointers : No

Read offset correction

: 103
Overread into Lead-In and Lead-Out : No
Fill up missing offset samples with silence : Yes
Delete leading and trailing silent blocks : No
Null samples used in CRC calculations : Yes
Used interface
: Native Win32 interface for Win NT & 2000
Gap handling
: Appended to previous track

Used output format : User Defined Encoder
Selected bitrate : 128 kBit/s
Quality : High
Add ID3 tag : No
Command line compressor : C:\Program Files (x86)\Exact Audio Copy\Flac\flac.exe
Additional command line options : -8 -V -T "ARTIST=%artist%" -T "TITLE=%title%" -T "ALBUM=%albumtitle%" -T "DATE=%year%" -T "TRACKNUMBER=%tracknr%" -T "GENRE=%genre%" -T "PERFORMER=%albuminterpret%" -T "COMPOSER=%composer%" %haslyrics%--tag-from-file=LYRICS="%lyricsfile%"%haslyrics% -T "ALBUMARTIST=%albumartist%" -T "DISCNUMBER=%cdnumber%" -T "TOTALDISCS=%totalcds%" -T "TOTALTRACKS=%numtracks%" -T "COMMENT=%comment%" %source% -o %dest%

TOC of the extracted CD Track | Start | Length | Start sector | End sector
--1 | 0:00.00 | 3:44.51 | 0 | 16850 2 | 3:44.51 | 3:41.26 | 16851 | 33451 3 | 7:26.02 | 7:34.69 | 33452 | 67570 4 | 15:00.71 | 6:35.22 | 67571 | 97217 5 | 21:36.18 | 6:15.55 | 97218 | 125397 6 | 27:51.73 | 5:04.25 | 125398 | 148222 7 | 32:56.23 | 2:47.29 | 148223 | 160776 8 | 35:43.52 | 14:30.28 | 160777 | 226054 9 | 50:14.05 | 8:59.72 | 226055 | 266551

Track 1 Filename F:\EAC\Veli-Matti Puumala - 2015 - Anna Liisa CD1\01 - Act I- Prologue.wav Pre-gap length 0:00:02.00 Peak level 59.5 %
Extraction speed 2.4 X
Track quality 100.0 %
Test CRC FBC1EA4D
Copy CRC FBC1EA4D
Track not present in AccurateRip database
Copy OK

Track 2 Filename F:\EAC\Veli-Matti Puumala - 2015 - Anna Liisa CD1\02 - Act I- Scene 1- The banns will be read next Sunday.wav Peak level 95.1 %
Extraction speed 2.7 X
Track quality 100.0 %
Test CRC 70FDA490
Copy CRC 70FDA490
Track not present in AccurateRip database
Copy OK

Track 3 Filename F:\EAC\Veli-Matti Puumala - 2015 - Anna Liisa CD1\03 - Act I- Scene 2- Husso!.wav Peak level 94.4 %
Extraction speed 3.3 X
Track quality 100.0 %
Test CRC 11CD3689
Copy CRC 11CD3689
Track not present in AccurateRip database
Copy OK

Track 4 Filename F:\EAC\Veli-Matti Puumala - 2015 - Anna Liisa CD1\04 - Act I- Scene 3- I enjoy life.wav Peak level 87.6 %
Extraction speed 3.6 X
Track quality 100.0 %
Test CRC 361905C8
Copy CRC 361905C8
Track not present in AccurateRip database
Copy OK

Track 5 Filename F:\EAC\Veli-Matti Puumala - 2015 - Anna Liisa CD1\05 - Act I- Scene 4- Johannes, are you sure.wav Peak level 64.6 %
Extraction speed 3.9 X
Track quality 100.0 %
Test CRC 15B725CB
Copy CRC 15B725CB
Track not present in AccurateRip database
Copy OK

Track 6 Filename F:\EAC\Veli-Matti Puumala - 2015 - Anna Liisa CD1\06 - Act I- Scene 5- Friday - Saturday - Sunday!.wav Peak level 92.5 %
Extraction speed 4.1 X
Track quality 100.0 %
Test CRC 99E5ADD4
Copy CRC 99E5ADD4
Track not present in AccurateRip database
Copy OK

Track 7 Filename F:\EAC\Veli-Matti Puumala - 2015 - Anna Liisa CD1\07 - Act I- Lullaby.wav Peak level 15.8 %
Extraction speed 3.9 X
Track quality 100.0 %
Test CRC 45704FA6
Copy CRC 45704FA6
Track not present in AccurateRip database
Copy OK

Track 8 Filename F:\EAC\Veli-Matti Puumala - 2015 - Anna Liisa CD1\08 - Act II- Scene 1- She's coming. Husso!.wav Peak level 94.4 %
Extraction speed 5.0 X
Track quality 100.0 %
Test CRC A55A5BFA
Copy CRC A55A5BFA
Track not present in AccurateRip database
Copy OK

Track 9 Filename F:\EAC\Veli-Matti Puumala - 2015 - Anna Liisa CD1\09 - Act II- Scene 2- Now you know how things stand.wav Peak level 94.7 %
Extraction speed 5.3 X
Track quality 100.0 %
Test CRC DD8F24FE
Copy CRC DD8F24FE
Track not present in AccurateRip database
Copy OK

None of the tracks are present in the AccurateRip database

No errors occurred

End of status report

==== Log checksum F3588DF3E7700D5A7CDF92231ACA52850A2A7907A49D710586F1ED4E564E481B ====

Disc 2
Puumala, Veli-Matti
Kakela-Puumala, Tiina / Puumala, Veli-Matti / Kakela-Puumala, Tiina / Puumala, Veli-Matti, lyricist(s)
Anna Liisa
1. Act II Scene 3: Anna Liisa, Anna Liisa (Mikko, Anna Liisa) 00:13:49
2. Act II: Sina olet niinkuin unennako (Anna Liisa, Mikko, Matti, Jussi) 00:09:33
3. Act II: Epilogi (Anna Liisa) 00:04:27
4. Act III Scene 1a: Niin istuu kuin kuvapatsas (Riikka, Kortesuo, Johannes) 00:09:58
5. Act III Scene 1b: Kost' Jumala (Husso, Kortesuo, Johannes) 00:05:34
6. Act III Scene 2a: Han nousi (Riikka, Kortesuo, Johannes) 00:00:49
7. Act III Scene 2b: Terveisia kirkosta! (Pirkko, Riikka) 00:02:13
8. Act III Scene 3: Antakaa minun olla! (Anna Liisa, Riikka, Chorus) 00:06:50
9. Act III: Jos valonamme et, Jeesus (Riikka, Anna Liisa) 00:05:38
10. Act III Scene 4a: Hoi! Hoi! (Villagers) 00:02:29
11. Act III Scene 4b: Se tuuli sousi seljalla (Husso) 00:02:33
12. Act III Scene 4c: Taalla on sijaa (Villagers) 00:00:53
13. Act III Scene 4d: Elakoon! Elakoon morsian! (Anna Liisa, Rovasti, Johannes, Husso, Mikko, Kortesuo, Riikka, Pirkko, Villagers) 00:09:16
14. Act III Scene 4d: Octet: Ei ole syyta suruun (Rovasti, Anna Liisa, Kortesuo, Riikka, Husso, Mikko, Pirkko, Johannes) 00:03:47
15. Act III Scene 4d: Lahde rauhaan lapseni (Chorus) 00:02:08

Exact Audio Copy V1.0 beta 3 from 29. August 2011

EAC extraction logfile from 14. October 2015, 7:59

Veli-Matti Puumala / Anna Liisa CD2

Used drive : MATSHITADVD-RAM UJ8C2 Adapter: 0 ID: 0

Read mode : Secure
Utilize accurate stream : Yes
Defeat audio cache : Yes
Make use of C2 pointers : No

Read offset correction

: 103
Overread into Lead-In and Lead-Out : No
Fill up missing offset samples with silence : Yes
Delete leading and trailing silent blocks : No
Null samples used in CRC calculations : Yes
Used interface
: Native Win32 interface for Win NT & 2000
Gap handling
: Appended to previous track

Used output format : User Defined Encoder
Selected bitrate : 128 kBit/s
Quality : High
Add ID3 tag : No
Command line compressor : C:\Program Files (x86)\Exact Audio Copy\Flac\flac.exe
Additional command line options : -8 -V -T "ARTIST=%artist%" -T "TITLE=%title%" -T "ALBUM=%albumtitle%" -T "DATE=%year%" -T "TRACKNUMBER=%tracknr%" -T "GENRE=%genre%" -T "PERFORMER=%albuminterpret%" -T "COMPOSER=%composer%" %haslyrics%--tag-from-file=LYRICS="%lyricsfile%"%haslyrics% -T "ALBUMARTIST=%albumartist%" -T "DISCNUMBER=%cdnumber%" -T "TOTALDISCS=%totalcds%" -T "TOTALTRACKS=%numtracks%" -T "COMMENT=%comment%" %source% -o %dest%

TOC of the extracted CD Track | Start | Length | Start sector | End sector
--1 | 0:00.00 | 13:49.62 | 0 | 62236 2 | 13:49.62 | 9:33.62 | 62237 | 105273 3 | 23:23.49 | 4:27.40 | 105274 | 125338 4 | 27:51.14 | 9:58.29 | 125339 | 170217 5 | 37:49.43 | 5:34.74 | 170218 | 195341 6 | 43:24.42 | 0:49.34 | 195342 | 199050 7 | 44:14.01 | 2:13.31 | 199051 | 209056 8 | 46:27.32 | 6:50.32 | 209057 | 239838 9 | 53:17.64 | 5:38.18 | 239839 | 265206
10 | 58:56.07 | 2:29.62 | 265207 | 276443
11 | 61:25.69 | 2:33.22 | 276444 | 287940
12 | 63:59.16 | 0:53.38 | 287941 | 291953
13 | 64:52.54 | 9:16.67 | 291954 | 333720
14 | 74:09.46 | 3:47.73 | 333721 | 350818
15 | 77:57.44 | 2:08.74 | 350819 | 360492

Track 1 Filename F:\EAC\Veli-Matti Puumala - 2015 - Anna Liisa CD2\01 - Act II- Scene 3- Anna Liisa, Anna Liisa.wav Pre-gap length 0:00:02.00 Peak level 94.4 %
Extraction speed 3.2 X
Track quality 100.0 %
Test CRC D66FA58C
Copy CRC D66FA58C
Track not present in AccurateRip database
Copy OK

Track 2 Filename F:\EAC\Veli-Matti Puumala - 2015 - Anna Liisa CD2\02 - Act II- You're like a dream.wav Peak level 94.4 %
Extraction speed 3.7 X
Track quality 100.0 %
Test CRC F2F4DB56
Copy CRC F2F4DB56
Track not present in AccurateRip database
Copy OK

Track 3 Filename F:\EAC\Veli-Matti Puumala - 2015 - Anna Liisa CD2\03 - Act II- Epilogue.wav Peak level 75.7 %
Extraction speed 3.8 X
Track quality 100.0 %
Test CRC 0686FAD2
Copy CRC 0686FAD2
Track not present in AccurateRip database
Copy OK

Track 4 Filename F:\EAC\Veli-Matti Puumala - 2015 - Anna Liisa CD2\04 - Act III- Scene 1a- She sits the like a statue.wav Peak level 76.6 %
Extraction speed 4.4 X
Track quality 100.0 %
Test CRC 955898F4
Copy CRC 955898F4
Track not present in AccurateRip database
Copy OK

Track 5 Filename F:\EAC\Veli-Matti Puumala - 2015 - Anna Liisa CD2\05 - Act III- Scene 1b- God's peace!.wav Peak level 82.3 %
Extraction speed 3.5 X
Track quality 99.9 %
Test CRC C63450F3
Copy CRC C63450F3
Track not present in AccurateRip database
Copy OK

Track 6 Filename F:\EAC\Veli-Matti Puumala - 2015 - Anna Liisa CD2\06 - Act III- Scene 2a- She's stood up.wav Peak level 94.6 %
Extraction speed 1.3 X
Track quality 99.7 %
Test CRC E6AF50D2
Copy CRC E6AF50D2
Track not present in AccurateRip database
Copy OK

Track 7 Filename F:\EAC\Veli-Matti Puumala - 2015 - Anna Liisa CD2\07 - Act III- Scene 2b- News from the church!.wav Peak level 53.0 %
Extraction speed 2.5 X
Track quality 99.9 %
Test CRC C078D4E5
Copy CRC C078D4E5
Track not present in AccurateRip database
Copy OK

Track 8 Filename F:\EAC\Veli-Matti Puumala - 2015 - Anna Liisa CD2\08 - Act III- Scene 3- Leave me alone!.wav Peak level 88.6 %
Extraction speed 4.9 X
Track quality 100.0 %
Test CRC 87337D3C
Copy CRC 87337D3C
Track not present in AccurateRip database
Copy OK

Track 9 Filename F:\EAC\Veli-Matti Puumala - 2015 - Anna Liisa CD2\09 - Act III- Unless thou be our light, O Jesus.wav Peak level 54.9 %
Extraction speed 5.0 X
Track quality 100.0 %
Test CRC 00E31E8A
Copy CRC 00E31E8A
Track not present in AccurateRip database
Copy OK

Track 10 Filename F:\EAC\Veli-Matti Puumala - 2015 - Anna Liisa CD2\10 - Act III- Scene 4a- Ho! Ho!.wav Peak level 65.0 %
Extraction speed 4.5 X
Track quality 100.0 %
Test CRC D335388E
Copy CRC D335388E
Track not present in AccurateRip database
Copy OK

Track 11 Filename F:\EAC\Veli-Matti Puumala - 2015 - Anna Liisa CD2\11 - Act III- Scene 4b- The wind blew over the water.wav Peak level 22.8 %
Extraction speed 4.6 X
Track quality 100.0 %
Test CRC 80F23E9C
Copy CRC 80F23E9C
Track not present in AccurateRip database
Copy OK

Track 12 Filename F:\EAC\Veli-Matti Puumala - 2015 - Anna Liisa CD2\12 - Act III- Scene 4c- There's room here.wav Peak level 95.2 %
Extraction speed 3.3 X
Track quality 100.0 %
Test CRC D6F0D752
Copy CRC D6F0D752
Track not present in AccurateRip database
Copy OK

Track 13 Filename F:\EAC\Veli-Matti Puumala - 2015 - Anna Liisa CD2\13 - Act III- Scene 4d- Hurrah! Long live the bride!.wav Peak level 94.6 %
Extraction speed 5.7 X
Track quality 100.0 %
Test CRC 97BDA500
Copy CRC 97BDA500
Track not present in AccurateRip database
Copy OK

Track 14 Filename F:\EAC\Veli-Matti Puumala - 2015 - Anna Liisa CD2\14 - Act III- Octet- There is no cause for sorrow.wav Peak level 94.3 %
Extraction speed 5.3 X
Track quality 100.0 %
Test CRC D9264CC0
Copy CRC D9264CC0
Track not present in AccurateRip database
Copy OK

Track 15 Filename F:\EAC\Veli-Matti Puumala - 2015 - Anna Liisa CD2\15 - Act III- Go in peace, my child.wav Peak level 65.8 %
Extraction speed 4.9 X
Track quality 100.0 %
Test CRC DD01476E
Copy CRC DD01476E
Track not present in AccurateRip database
Copy OK

None of the tracks are present in the AccurateRip database

No errors occurred

End of status report

==== Log checksum 5D772076F8172467D58912A210B8C248AAB7ECFBDF8BF667DADB0F5525697338 ====

Thanks to the original releaser
DOWNLOAD LINKS
Buy Premium From My Links To Get Resumable Support & Max Speed & To Support Me


Links are Interchangeable - No Password - Single Extraction
Direct Download

Tags: Martti, Anttila, Lehtola, Rusanen, Puumala

Martti Anttila, Jarno Lehtola, Ville Rusanen / Veli-Matti Puumala: Anna Liisa (2015) Download via Hotfile Rapidshare Fileserve Megaupload & FileSonic, Martti Anttila, Jarno Lehtola, Ville Rusanen / Veli-Matti Puumala: Anna Liisa (2015) free torrent downloads included crack, serial, keygen.Martti Anttila, Jarno Lehtola, Ville Rusanen / Veli-Matti Puumala: Anna Liisa (2015) Fast Download via Rapidshare Hotfile Fileserve Filesonic Megaupload, Martti Anttila, Jarno Lehtola, Ville Rusanen / Veli-Matti Puumala: Anna Liisa (2015) Torrents and Emule Download or anything related.
Leave a Comment
Your Name:
E-Mail:
Add Comments:

Enter Code: