Jane Getter Premonition - On (2015) {Madfish}

Download Now


Jane Getter Premonition - On (2015) {Madfish}
Jane Getter Premonition - On (2015) {Madfish}
EAC rip (secure mode) | FLAC (tracks)+CUE+LOG -> 347 Mb | MP3 @320 -> 113 Mb
Full Artwork @ 300 dpi (png) -> 130 Mb | 5% repair rar
© 2015 Madfish / Jane Getter | SMACD1046
Fusion / Jazz Rock / Rock / Progressive Rock

"ON is the Jane Getter Premonition's debut for the Madfish label. Recorded at Avatar Studios in New York, the album features a stellar line-up of Progressive, Jazz and Rock musicians including Adam Holzman (Miles Davis, Steven Wilson), Bryan Beller (Joe Satriiani, The Aristocrats), Chad Wackerman (Frank Zappa, Allan Holdsworth), Corey Glover (Living Colour), Alex Skolnick (Testament, Savatage, Ozzy Osbourne) and Theo Travis (Steven Wilson, Robert Fripp). Guitarist and composer Jane Getter has played with many Jazz and Rock greats, garnering increasing recognition as a bandleader, gifted writer and instrumentalist. Jane also received widespread exposure playing in the Saturday Night Live Band. CD in digipack with a 16 page colour booklet featuring stunning artwork from Lasse Hoile."

Jane Getter Premonition - On (2015) {Madfish}


Madfish INFO

Personnel:
Jane Getter - Guitars, Vocals
Adam Holzman - Keyboards
Bryan Beller - Bass
Chad Wackerman - Drums

Special Guests:
Alex Skolnick - 2nd Guitar on (2), (4), (8), Right Channel Solo on (4)
Corey Glover - Vocals on (1), (4), (8)
Theo Travis - Flute on (6), Soprano Saxophone on (8)

tracklist:
01 - Surprised
02 - Where Somewhere
03 - Pressure Point
04 - Train Man
05 - Diversion
06 - Falling
07 - Logan (Would've Sounded Great on This)
08 - Transparent

Exact Audio Copy V1.0 beta 3 from 29. August 2011

EAC extraction logfile from 11. October 2015, 13:57

Jane Getter Premonition / On

Used drive : ASUS DRW-1814BLT Adapter: 0 ID: 0

Read mode : Secure
Utilize accurate stream : Yes
Defeat audio cache : Yes
Make use of C2 pointers : No

Read offset correction

: 6
Overread into Lead-In and Lead-Out : No
Fill up missing offset samples with silence : Yes
Delete leading and trailing silent blocks : No
Null samples used in CRC calculations : Yes
Used interface
: Native Win32 interface for Win NT & 2000
Gap handling
: Appended to previous track

Used output format : User Defined Encoder
Selected bitrate : 768 kBit/s
Quality : High
Add ID3 tag : No
Command line compressor : C:\Program Files (x86)\Exact Audio Copy\Flac\flac.exe
Additional command line options : -8 -V -T "ARTIST=%artist%" -T "TITLE=%title%" -T "ALBUM=%albumtitle%" -T "DATE=%year%" -T "TRACKNUMBER=%tracknr%" -T "TOTALTRACKS=%numtracks%" -T "GENRE=%genre%" -T "ALBUMARTIST=%albumartist%" -T "ALBUM ARTIST=%albumartist%" -T "COMMENT=EAC Secure Mode, Test & Copy, AccurateRip, FLAC -8" %source%

TOC of the extracted CD Track | Start | Length | Start sector | End sector
--1 | 0:00.00 | 8:01.16 | 0 | 36090 2 | 8:01.16 | 6:12.50 | 36091 | 64040 3 | 14:13.66 | 3:34.57 | 64041 | 80147 4 | 17:48.48 | 7:55.69 | 80148 | 115841 5 | 25:44.42 | 5:48.00 | 115842 | 141941 6 | 31:32.42 | 4:57.25 | 141942 | 164241 7 | 36:29.67 | 5:22.28 | 164242 | 188419 8 | 41:52.20 | 5:36.18 | 188420 | 213637

Track 1 Filename E:\Jane Getter Premonition - On (2015) [FLAC]\01 - Surprised.wav Pre-gap length 0:00:02.00 Peak level 96.6 %
Extraction speed 5.9 X
Track quality 100.0 %
Test CRC 5A666BDA
Copy CRC 5A666BDA
Track not present in AccurateRip database
Copy OK

Track 2 Filename E:\Jane Getter Premonition - On (2015) [FLAC]\02 - Where Somewhere.wav Pre-gap length 0:00:00.71 Peak level 96.6 %
Extraction speed 6.6 X
Track quality 100.0 %
Test CRC 4CCFAC2C
Copy CRC 4CCFAC2C
Track not present in AccurateRip database
Copy OK

Track 3 Filename E:\Jane Getter Premonition - On (2015) [FLAC]\03 - Pressure Point.wav Pre-gap length 0:00:02.18 Peak level 96.6 %
Extraction speed 5.0 X
Track quality 99.9 %
Test CRC 9433072B
Copy CRC 9433072B
Track not present in AccurateRip database
Copy OK

Track 4 Filename E:\Jane Getter Premonition - On (2015) [FLAC]\04 - Train Man.wav Peak level 96.6 %
Extraction speed 7.9 X
Track quality 100.0 %
Test CRC C290CC99
Copy CRC C290CC99
Track not present in AccurateRip database
Copy OK

Track 5 Filename E:\Jane Getter Premonition - On (2015) [FLAC]\05 - Diversion.wav Pre-gap length 0:00:02.37 Peak level 96.6 %
Extraction speed 8.3 X
Track quality 100.0 %
Test CRC 05A1326D
Copy CRC 05A1326D
Track not present in AccurateRip database
Copy OK

Track 6 Filename E:\Jane Getter Premonition - On (2015) [FLAC]\06 - Falling.wav Pre-gap length 0:00:02.30 Peak level 96.6 %
Extraction speed 8.6 X
Track quality 100.0 %
Test CRC 1BAFAAE9
Copy CRC 1BAFAAE9
Track not present in AccurateRip database
Copy OK

Track 7 Filename E:\Jane Getter Premonition - On (2015) [FLAC]\07 - Logan (Would've Sounded Great on This).wav Pre-gap length 0:00:01.10 Peak level 94.3 %
Extraction speed 7.1 X
Track quality 99.9 %
Test CRC F4A6B86B
Copy CRC F4A6B86B
Track not present in AccurateRip database
Copy OK

Track 8 Filename E:\Jane Getter Premonition - On (2015) [FLAC]\08 - Transparent.wav Pre-gap length 0:00:02.22 Peak level 96.6 %
Extraction speed 9.5 X
Track quality 100.0 %
Test CRC 9FEB2747
Copy CRC 9FEB2747
Track not present in AccurateRip database
Copy OK

None of the tracks are present in the AccurateRip database

No errors occurred

End of status report

==== Log checksum 7E533C00985733E904C949C62E419712C7D825E3BE1FBE0B2CFA816A42A54F3A ====

Jane Getter Premonition - On (2015) {Madfish}

Jane Getter Premonition - On (2015) {Madfish}


All thanks goes to the original releaser!
DOWNLOAD LINKS
Buy Premium From My Links To Get Resumable Support & Max Speed & To Support Me


Links are Interchangeable - No Password - Single Extraction
Direct Download

Tags: Getter, Premonition, Madfish

Jane Getter Premonition - On (2015) {Madfish} Download via Hotfile Rapidshare Fileserve Megaupload & FileSonic, Jane Getter Premonition - On (2015) {Madfish} free torrent downloads included crack, serial, keygen.Jane Getter Premonition - On (2015) {Madfish} Fast Download via Rapidshare Hotfile Fileserve Filesonic Megaupload, Jane Getter Premonition - On (2015) {Madfish} Torrents and Emule Download or anything related.
Leave a Comment
Your Name:
E-Mail:
Add Comments:

Enter Code: