Dianne Reeves - Dianne Reeves (1987) {Blue Note} [Re-Up]

Download Now

Dianne Reeves - Dianne Reeves (1987) {Blue Note} [Re-Up]

Dianne Reeves - Dianne Reeves (1987) {Blue Note}
EAC 1.0b3 | FLAC Image | Cue+Log | Full Scans 300dpi | 288MB + 5% Recovery
Genre: Jazz, Vocal Jazz

"An amazing moment for singer Dianne Reeves - the first in a long line of excellent records for the Blue Note label - and a wonderfully tight blend of jazz and soul, put together at a level that instantly pushed Reeves into the territory of previous giants like Phyllis Hyman and Marlena Shaw. Like both of those singers, Dianne's got roots in jazz, but also pushes towards more of an R&B vibe at times - but never in a way that's commercially aimed at the charts, especially in comparison to some of her contemporaries. There's a really rich feel to the whole album - thanks to help from George Duke, who produced and played keyboards - alongside other musicians like Herbie Hancock on keyboards, Freddie Hubbard on trumpet, and Ndugu Chancler on drums."

Track List
01. Sky Islands 4:41
02. I'm OK 5:12
03. Better Days 5:26
04. Harvest Time 5:32
05. Chan's Song 5:32
06. Yesterdays 5:04
07. I Got It Bad And That Ain't Good 7:25
08. That's All 4:02

musicians
Dianne Reeves - vocals
George Duke - Synclavier, piano
Paulinho Da Costa - percussion
Herbie Hancock - keyboards
Stanley Clarke - bass
Paul Jackson, Jr. - guitar
Airto Moreira - percussion
Freddie Washington - bass
Leon "Ndugu" Chancler - drums
Tony Williams - drums
Tony Dumas - bass
Justo Almario - tenor saxophone
Jorge Del Barrio - Synclavier strings
Billy Childs - piano
Ralph Penland - drums
Ricky Lawson - drums
Freddie Hubbard - flugelhorn

Produced by George Duke

Exact Audio Copy V1.0 beta 3 from 29. August 2011

EAC extraction logfile from 16. May 2014, 16:46

Dianne Reeves / Dianne Reeves

Used drive : Memorex 52MAXX 3252AJ1 Adapter: 1 ID: 0

Read mode : Secure
Utilize accurate stream : Yes
Defeat audio cache : Yes
Make use of C2 pointers : No

Read offset correction

: 6
Overread into Lead-In and Lead-Out : No
Fill up missing offset samples with silence : Yes
Delete leading and trailing silent blocks : No
Null samples used in CRC calculations : Yes
Used interface
: Native Win32 interface for Win NT & 2000

Used output format : User Defined Encoder
Selected bitrate : 1024 kBit/s
Quality : High
Add ID3 tag : No
Command line compressor : C:\Program Files (x86)\Exact Audio Copy\Flac\flac.exe
Additional command line options : %ishigh%-V -p -l 12 -b 4096 -m -e -r 8%ishigh%%islow%-5%islow% --replay-gain -T "ARTIST=%artist%" -T "ALBUM=%albumtitle%" -T "TITLE=%title%" -T "DATE=%year%" -T "TRACKNUMBER=%tracknr%" -T "GENRE=%genre%" -T "ENSEMBLE=%albuminterpret%" -T "ALBUMARTIST=%albumartist%" -T "COMPOSER=%albumcomposer%" -T "DISCNUMBER=%cdnumber%" -T "TOTALDISCS=%totalcds%" -T "TOTALTRACKS=%numtracks%" -T "SOURCEMEDIA=CD" -T "COMMENT=%comment%" %hascover%-T "PICTURE=%coverfile%"%hascover% %source%

TOC of the extracted CD Track | Start | Length | Start sector | End sector
--1 | 0:00.00 | 4:43.45 | 0 | 21269 2 | 4:43.45 | 5:16.47 | 21270 | 45016 3 | 10:00.17 | 5:31.35 | 45017 | 69876 4 | 15:31.52 | 5:38.28 | 69877 | 95254 5 | 21:10.05 | 5:33.72 | 95255 | 120301 6 | 26:44.02 | 5:02.03 | 120302 | 142954 7 | 31:46.05 | 7:31.30 | 142955 | 176809 8 | 39:17.35 | 4:12.15 | 176810 | 195724

Range status and errors

Selected range Filename C:\Users\[email protected]\Music\Archives\Rips\Dianne Reeves - Dianne Reeves.wav Peak level 90.9 %
Extraction speed 8.1 X
Range quality 99.9 %
Test CRC 58D536F9
Copy CRC 58D536F9
Copy OK

No errors occurred


AccurateRip summary

Track 1 accurately ripped (confidence 2) [CB9DC308] (AR v1)
Track 2 accurately ripped (confidence 2) [59653626] (AR v1)
Track 3 accurately ripped (confidence 2) [0B120B90] (AR v1)
Track 4 accurately ripped (confidence 2) [CC2238B2] (AR v1)
Track 5 accurately ripped (confidence 2) [EAC5B566] (AR v1)
Track 6 accurately ripped (confidence 2) [9638BF0D] (AR v1)
Track 7 accurately ripped (confidence 2) [2421EB05] (AR v1)
Track 8 accurately ripped (confidence 2) [94F026C9] (AR v1)

All tracks accurately ripped

End of status report

- CUETools DB Plugin V2.1.4

[CTDB TOCID: N65S6Js.CkLKhQ8y0KlB.ChNYWk-] disk not present in database
Submit result: N65S6Js.CkLKhQ8y0KlB.ChNYWk- has been uploaded

==== Log checksum 277BAA149FF5517CC7AF41D3E09D41EA48E935E365D7F26B571CBCED32E82420 ====

Analyzed: Dianne Reeves / Dianne Reeves

DR Peak RMS Duration Track

DR11 -0.82 dB -15.82 dB 4:44 01-Sky Islands
DR12 -2.62 dB -19.47 dB 5:17 02-I'm OK
DR13 -1.11 dB -16.91 dB 5:31 03-Better Days
DR10 -3.65 dB -16.77 dB 5:38 04-Harvest Time
DR12 -1.56 dB -17.04 dB 5:34 05-Chan's Song (Never Said)
DR13 -2.58 dB -19.17 dB 5:02 06-Yesterdays
DR13 -2.52 dB -18.89 dB 7:31 07-I Got It Bad And That Ain't Good
DR13 -2.66 dB -18.37 dB 4:12 08-That's All

Number of tracks: 8
Official DR value: DR12

Samplerate: 44100 Hz
Channels: 2
Bits per sample: 16
Bitrate: 834 kbps
Codec: FLAC

Dianne Reeves - Dianne Reeves (1987) {Blue Note} [Re-Up]

Dianne Reeves - Dianne Reeves (1987) {Blue Note} [Re-Up]

Dianne Reeves - Dianne Reeves (1987) {Blue Note} [Re-Up]



DOWNLOAD LINKS
Buy Premium From My Links To Get Resumable Support & Max Speed & To Support Me


Links are Interchangeable - No Password - Single Extraction
Direct Download

Tags: Dianne, Reeves, Dianne, Reeves

Dianne Reeves - Dianne Reeves (1987) {Blue Note} [Re-Up] Download via Hotfile Rapidshare Fileserve Megaupload & FileSonic, Dianne Reeves - Dianne Reeves (1987) {Blue Note} [Re-Up] free torrent downloads included crack, serial, keygen.Dianne Reeves - Dianne Reeves (1987) {Blue Note} [Re-Up] Fast Download via Rapidshare Hotfile Fileserve Filesonic Megaupload, Dianne Reeves - Dianne Reeves (1987) {Blue Note} [Re-Up] Torrents and Emule Download or anything related.
Leave a Comment
Your Name:
E-Mail:
Add Comments:

Enter Code: