Angela Hewitt : Bach: The Well-Tempered Clavier (2009)

Download Now

Angela Hewitt : Bach: The Well-Tempered Clavier (2009)

Angela Hewitt : Bach: The Well-Tempered Clavier (2009)
X Lossless Decoder | Flac (Tracks + cue + log) | 688 MB | MP3 320Kbps CBR | 620 MB | 4 CDs | Full Scans
Genre: Classical | Label: Hyperion | Catalog Number: 67741

"Ten years ago Angela Hewitt recorded a version of The Well-Tempered Clavier Book I which dazzled the critical world and record-buying public. It was followed shortly afterwards by Book II which was similarly received. Now, fresh from her Bach World Tour-in which she performed the complete Well-Tempered Clavier from August 2007 until the end of October 2008 in 58 cities in 21 countries on six continents-Angela has made an entirely new recording of this most iconic of keyboard works."

"Reviews: "As part of her ongoing Bach series for Hyperion, Hewitt recorded the "48" back in 1997. In 2007-08 she toured extensively, playing both books in their entirety in concert. Feeling she had more to say about this great music, she asked Hyperion to let her re-record the work. It is a mark of the company's integrity that they came to the party. The only real equivalent would be Columbia's two recordings of Glenn Gould playing the Goldberg Variations, and they came 26 years apart. In a forthright note, Hewitt explains the changes in her approach. Since her 1997 recording, she has not only inevitably gotten to know the music better ("internalizing it" is how she puts it), but has been influenced by playing more Rameau and Couperin. She admits that she now brings personal touches to her performances, whereas the earlier recording projected a straighter approach.

If that sounds a warning bell, be assured that Hewitt remains a consummate musician: technically polished, thoughtful, considered-always serving the music as she sees it. For instance, she never races through any of the toccata-like pieces at high speed simply because she is able to, which other Bach pianists like Mustonen, Jõao Carlos Martins, and even Gould could be accused of doing. Hewitt's innate feeling for the correct tempo is one of her strengths. She brings light and shade to her playing, helped by the distinctive colors of her preferred Fazioli piano, without going to extremes. (Martins, in contrast, seems to want to play everything either molto presto fff or molto adagio ppp.) In counterpoint, Hewitt is subtle in bringing out various lines, unlike Tureck who, in the opinion of some critics, overemphasizes each fugal entry. Hewitt was recorded in the Jesus-Christus-Kirche in Berlin, and the Hyperion engineers have outdone themselves. (How much better she sounds than Till Fellner in his ECM recording, where his piano seems to be located in an empty cathedral next door.) Many pieces in Hewitt's new performance approach perfection: the gentle B?-Major Prelude (Book II), for example, which is full of character and clear as a bell.""


Tracklisting:

Disc: 1
1. The Well-Tempered Clavier (48), collection of preludes & fugues in 2 Books, BWV 846-893 (BC L80-127): Book 1. No. 1 in C major. Prelu
2. The Well-Tempered Clavier (48), collection of preludes & fugues in 2 Books, BWV 846-893 (BC L80-127): Book 1. No. 1 in C major. Fugue
3. The Well-Tempered Clavier (48), collection of preludes & fugues in 2 Books, BWV 846-893 (BC L80-127): Book 1. No. 2 in C minor. Prelu
4. The Well-Tempered Clavier (48), collection of preludes & fugues in 2 Books, BWV 846-893 (BC L80-127): Book 1. No. 2 in C minor. Fugue
5. The Well-Tempered Clavier (48), collection of preludes & fugues in 2 Books, BWV 846-893 (BC L80-127): Book 1. No. 3 in C sharp major.
6. The Well-Tempered Clavier (48), collection of preludes & fugues in 2 Books, BWV 846-893 (BC L80-127): Book 1. No. 3 in C sharp major.
7. The Well-Tempered Clavier (48), collection of preludes & fugues in 2 Books, BWV 846-893 (BC L80-127): Book 1. No. 4 in C sharp minor.
8. The Well-Tempered Clavier (48), collection of preludes & fugues in 2 Books, BWV 846-893 (BC L80-127): Book 1. No. 4 in C sharp minor.
9. The Well-Tempered Clavier (48), collection of preludes & fugues in 2 Books, BWV 846-893 (BC L80-127): Book 1. No. 5 in D major. Prelu
10. The Well-Tempered Clavier (48), collection of preludes & fugues in 2 Books, BWV 846-893 (BC L80-127): Book 1. No. 5 in D major. Fugue
11. The Well-Tempered Clavier (48), collection of preludes & fugues in 2 Books, BWV 846-893 (BC L80-127): Book 1. No. 6 in D minor. Prelu
12. The Well-Tempered Clavier (48), collection of preludes & fugues in 2 Books, BWV 846-893 (BC L80-127): Book 1. No. 6 in D minor. Fugue
13. The Well-Tempered Clavier (48), collection of preludes & fugues in 2 Books, BWV 846-893 (BC L80-127): Book 1. No. 7 in E flat major.
14. The Well-Tempered Clavier (48), collection of preludes & fugues in 2 Books, BWV 846-893 (BC L80-127): Book 1. No. 7 in E flat major.
15. The Well-Tempered Clavier (48), collection of preludes & fugues in 2 Books, BWV 846-893 (BC L80-127): Book 1. No. 8 in E flat minor.
16. The Well-Tempered Clavier (48), collection of preludes & fugues in 2 Books, BWV 846-893 (BC L80-127): Book 1. No. 8 in E flat minor.
17. The Well-Tempered Clavier (48), collection of preludes & fugues in 2 Books, BWV 846-893 (BC L80-127): Book 1. No. 9 in E major. Prelu
18. The Well-Tempered Clavier (48), collection of preludes & fugues in 2 Books, BWV 846-893 (BC L80-127): Book 1. No. 9 in E major. Fugue
19. The Well-Tempered Clavier (48), collection of preludes & fugues in 2 Books, BWV 846-893 (BC L80-127): Book 1. No. 10 in E minor. Prel
20. The Well-Tempered Clavier (48), collection of preludes & fugues in 2 Books, BWV 846-893 (BC L80-127): Book 1. No. 10 in E minor. Fugu
21. The Well-Tempered Clavier (48), collection of preludes & fugues in 2 Books, BWV 846-893 (BC L80-127): Book 1. No. 11 in F major. Prel
22. The Well-Tempered Clavier (48), collection of preludes & fugues in 2 Books, BWV 846-893 (BC L80-127): Book 1. No. 11 in F major. Fugu
23. The Well-Tempered Clavier (48), collection of preludes & fugues in 2 Books, BWV 846-893 (BC L80-127): Book 1. No. 12 in F minor. Prel
24. The Well-Tempered Clavier (48), collection of preludes & fugues in 2 Books, BWV 846-893 (BC L80-127): Book 1. No. 12 in F minor. Fugu

X Lossless Decoder version 20110821 (136.1)

XLD extraction logfile from 2011-09-21 21:57:26 +0000

Angela Hewitt / Bach: The Well-Tempered Clavier - 2008 Recording [Disc 1]

Used drive : OPTIARC DVD RW AD-5680H (revision 3AHF)

Ripper mode : XLD Secure Ripper
Disable audio cache : OK for the drive with a cache less than 1375KiB
Make use of C2 pointers : NO
Read offset correction : 48
Max retry count : 20
Gap status : Analyzed, Appended (except HTOA)

TOC of the extracted CD
Track | Start | Length | Start sector | End sector
--1 | 00:00:00 | 02:20:42 | 0 | 10541 2 | 02:20:42 | 02:08:01 | 10542 | 20142 3 | 04:28:43 | 01:35:31 | 20143 | 27298 4 | 06:03:74 | 01:52:06 | 27299 | 35704 5 | 07:56:05 | 01:23:07 | 35705 | 41936 6 | 09:19:12 | 02:19:16 | 41937 | 52377 7 | 11:38:28 | 03:04:69 | 52378 | 66246 8 | 14:43:22 | 05:24:23 | 66247 | 90569 9 | 20:07:45 | 01:24:40 | 90570 | 96909
10 | 21:32:10 | 02:13:43 | 96910 | 106927
11 | 23:45:53 | 01:40:14 | 106928 | 114441
12 | 25:25:67 | 02:59:39 | 114442 | 127905
13 | 28:25:31 | 03:44:44 | 127906 | 144749
14 | 32:10:00 | 01:40:12 | 144750 | 152261
15 | 33:50:12 | 03:58:30 | 152262 | 170141
16 | 37:48:42 | 05:16:73 | 170142 | 193914
17 | 43:05:40 | 01:24:28 | 193915 | 200242
18 | 44:29:68 | 01:06:69 | 200243 | 205261
19 | 45:36:62 | 02:19:00 | 205262 | 215686
20 | 47:55:62 | 01:10:29 | 215687 | 220965
21 | 49:06:16 | 01:02:58 | 220966 | 225673
22 | 50:08:74 | 01:38:70 | 225674 | 233093
23 | 51:47:69 | 02:12:12 | 233094 | 243005
24 | 54:00:06 | 04:55:40 | 243006 | 265170

AccurateRip Summary
Track 01 : OK (AR2, confidence 7)
Track 02 : OK (AR2, confidence 7)
Track 03 : OK (AR2, confidence 7)
Track 04 : OK (AR2, confidence 7)
Track 05 : OK (AR2, confidence 7)
Track 06 : OK (AR2, confidence 7)
Track 07 : OK (AR2, confidence 7)
Track 08 : OK (AR2, confidence 7)
Track 09 : OK (AR2, confidence 7)
Track 10 : OK (AR2, confidence 7)
Track 11 : OK (AR2, confidence 7)
Track 12 : OK (AR2, confidence 7)
Track 13 : OK (AR2, confidence 7)
Track 14 : OK (AR2, confidence 7)
Track 15 : OK (AR2, confidence 7)
Track 16 : OK (AR2, confidence 7)
Track 17 : OK (AR2, confidence 7)
Track 18 : OK (AR2, confidence 6)
Track 19 : OK (AR2, confidence 7)
Track 20 : OK (AR2, confidence 7)
Track 21 : OK (AR2, confidence 7)
Track 22 : OK (AR2, confidence 7)
Track 23 : OK (AR2, confidence 7)
Track 24 : OK (AR2, confidence 7)->All tracks accurately ripped.

All Tracks
Album gain : 3.24 dB
Peak : 0.830231
StatisticsRead error : 0Jitter error (maybe fixed) : 0Retry sector count : 0Damaged sector count : 0

Track 01
Filename : /Volumes/My Disk/XLD converted FLAC/Angela Hewitt - Bach: The Well-Tempered Clavier - 2008 Recording [Disc 1] (2008) [LAME MP3 (CBR 320kbps)]/01 Bach: The Well-Tempered Clavier, Book 1 - Prelude #1 In C, BWV 846.mp3 /Volumes/My Disk/XLD converted FLAC/Angela Hewitt - Bach: The Well-Tempered Clavier - 2008 Recording [Disc 1] (2008) [FLAC (level 8)]/01 Bach: The Well-Tempered Clavier, Book 1 - Prelude #1 In C, BWV 846.flac /Volumes/My Disk/XLD converted FLAC/Angela Hewitt - Bach: The Well-Tempered Clavier - 2008 Recording [Disc 1] (2008) [LAME MP3 (VBR-new quality 0.0)]/01 Bach: The Well-Tempered Clavier, Book 1 - Prelude #1 In C, BWV 846.mp3
Pre-gap length : 00:02:00 Track gain : 8.43 dB
Peak : 0.260559
CRC32 hash (test run) : 77B577AD
CRC32 hash : 77B577AD
CRC32 hash (skip zero) : 26C60515
AccurateRip signature : 54373FE7->Accurately ripped! (AR2, confidence 7)
StatisticsRead error : 0Jitter error (maybe fixed) : 0Retry sector count : 0Damaged sector count : 0

Track 02
Filename : /Volumes/My Disk/XLD converted FLAC/Angela Hewitt - Bach: The Well-Tempered Clavier - 2008 Recording [Disc 1] (2008) [LAME MP3 (CBR 320kbps)]/02 Bach: The Well-Tempered Clavier, Book 1 - Fugue #1 In C, BWV 846.mp3 /Volumes/My Disk/XLD converted FLAC/Angela Hewitt - Bach: The Well-Tempered Clavier - 2008 Recording [Disc 1] (2008) [FLAC (level 8)]/02 Bach: The Well-Tempered Clavier, Book 1 - Fugue #1 In C, BWV 846.flac /Volumes/My Disk/XLD converted FLAC/Angela Hewitt - Bach: The Well-Tempered Clavier - 2008 Recording [Disc 1] (2008) [LAME MP3 (VBR-new quality 0.0)]/02 Bach: The Well-Tempered Clavier, Book 1 - Fugue #1 In C, BWV 846.mp3 Track gain : 3.91 dB
Peak : 0.535431
CRC32 hash (test run) : 5CEE7BCE
CRC32 hash : 5CEE7BCE
CRC32 hash (skip zero) : E3834DF5
AccurateRip signature : FCC27F35->Accurately ripped! (AR2, confidence 7)
StatisticsRead error : 0Jitter error (maybe fixed) : 0Retry sector count : 0Damaged sector count : 0

Track 03
Filename : /Volumes/My Disk/XLD converted FLAC/Angela Hewitt - Bach: The Well-Tempered Clavier - 2008 Recording [Disc 1] (2008) [LAME MP3 (CBR 320kbps)]/03 Bach: The Well-Tempered Clavier, Book 1 - Prelude #2 In C Minor, BWV 847.mp3 /Volumes/My Disk/XLD converted FLAC/Angela Hewitt - Bach: The Well-Tempered Clavier - 2008 Recording [Disc 1] (2008) [FLAC (level 8)]/03 Bach: The Well-Tempered Clavier, Book 1 - Prelude #2 In C Minor, BWV 847.flac /Volumes/My Disk/XLD converted FLAC/Angela Hewitt - Bach: The Well-Tempered Clavier - 2008 Recording [Disc 1] (2008) [LAME MP3 (VBR-new quality 0.0)]/03 Bach: The Well-Tempered Clavier, Book 1 - Prelude #2 In C Minor, BWV 847.mp3 Track gain : 1.61 dB
Peak : 0.577637
CRC32 hash (test run) : 79430EB9
CRC32 hash : 79430EB9
CRC32 hash (skip zero) : 0E031B3C
AccurateRip signature : 7DA8F400->Accurately ripped! (AR2, confidence 7)
StatisticsRead error : 0Jitter error (maybe fixed) : 0Retry sector count : 0Damaged sector count : 0

Track 04
Filename : /Volumes/My Disk/XLD converted FLAC/Angela Hewitt - Bach: The Well-Tempered Clavier - 2008 Recording [Disc 1] (2008) [LAME MP3 (CBR 320kbps)]/04 Bach: The Well-Tempered Clavier, Book 1 - Fugue #2 In C Minor, BWV 847.mp3 /Volumes/My Disk/XLD converted FLAC/Angela Hewitt - Bach: The Well-Tempered Clavier - 2008 Recording [Disc 1] (2008) [FLAC (level 8)]/04 Bach: The Well-Tempered Clavier, Book 1 - Fugue #2 In C Minor, BWV 847.flac /Volumes/My Disk/XLD converted FLAC/Angela Hewitt - Bach: The Well-Tempered Clavier - 2008 Recording [Disc 1] (2008) [LAME MP3 (VBR-new quality 0.0)]/04 Bach: The Well-Tempered Clavier, Book 1 - Fugue #2 In C Minor, BWV 847.mp3 Track gain : 2.87 dB
Peak : 0.511383
CRC32 hash (test run) : CAD5817D
CRC32 hash : CAD5817D
CRC32 hash (skip zero) : 12DA61AB
AccurateRip signature : B63756F0->Accurately ripped! (AR2, confidence 7)
StatisticsRead error : 0Jitter error (maybe fixed) : 0Retry sector count : 0Damaged sector count : 0

Track 05
Filename : /Volumes/My Disk/XLD converted FLAC/Angela Hewitt - Bach: The Well-Tempered Clavier - 2008 Recording [Disc 1] (2008) [LAME MP3 (CBR 320kbps)]/05 Bach: The Well-Tempered Clavier, Book 1 - Prelude #3 In C Sharp, BWV 848.mp3 /Volumes/My Disk/XLD converted FLAC/Angela Hewitt - Bach: The Well-Tempered Clavier - 2008 Recording [Disc 1] (2008) [FLAC (level 8)]/05 Bach: The Well-Tempered Clavier, Book 1 - Prelude #3 In C Sharp, BWV 848.flac /Volumes/My Disk/XLD converted FLAC/Angela Hewitt - Bach: The Well-Tempered Clavier - 2008 Recording [Disc 1] (2008) [LAME MP3 (VBR-new quality 0.0)]/05 Bach: The Well-Tempered Clavier, Book 1 - Prelude #3 In C Sharp, BWV 848.mp3 Track gain : 4.53 dB
Peak : 0.540710
CRC32 hash (test run) : F1BAEC4D
CRC32 hash : F1BAEC4D
CRC32 hash (skip zero) : 280EE65C
AccurateRip signature : D5A5F73F->Accurately ripped! (AR2, confidence 7)
StatisticsRead error : 0Jitter error (maybe fixed) : 0Retry sector count : 0Damaged sector count : 0

Track 06
Filename : /Volumes/My Disk/XLD converted FLAC/Angela Hewitt - Bach: The Well-Tempered Clavier - 2008 Recording [Disc 1] (2008) [LAME MP3 (CBR 320kbps)]/06 Bach: The Well-Tempered Clavier, Book 1 - Fugue #3 In C Sharp, BWV 848.mp3 /Volumes/My Disk/XLD converted FLAC/Angela Hewitt - Bach: The Well-Tempered Clavier - 2008 Recording [Disc 1] (2008) [FLAC (level 8)]/06 Bach: The Well-Tempered Clavier, Book 1 - Fugue #3 In C Sharp, BWV 848.flac /Volumes/My Disk/XLD converted FLAC/Angela Hewitt - Bach: The Well-Tempered Clavier - 2008 Recording [Disc 1] (2008) [LAME MP3 (VBR-new quality 0.0)]/06 Bach: The Well-Tempered Clavier, Book 1 - Fugue #3 In C Sharp, BWV 848.mp3 Track gain : 3.62 dB
Peak : 0.566193
CRC32 hash (test run) : 7B837584
CRC32 hash : 7B837584
CRC32 hash (skip zero) : 13A49CCC
AccurateRip signature : BBFF26DD->Accurately ripped! (AR2, confidence 7)
StatisticsRead error : 0Jitter error (maybe fixed) : 0Retry sector count : 0Damaged sector count : 0

Track 07
Filename : /Volumes/My Disk/XLD converted FLAC/Angela Hewitt - Bach: The Well-Tempered Clavier - 2008 Recording [Disc 1] (2008) [LAME MP3 (CBR 320kbps)]/07 Bach: The Well-Tempered Clavier, Book 1 - Prelude #4 In C Sharp Minor, BWV 849.mp3 /Volumes/My Disk/XLD converted FLAC/Angela Hewitt - Bach: The Well-Tempered Clavier - 2008 Recording [Disc 1] (2008) [FLAC (level 8)]/07 Bach: The Well-Tempered Clavier, Book 1 - Prelude #4 In C Sharp Minor, BWV 849.flac /Volumes/My Disk/XLD converted FLAC/Angela Hewitt - Bach: The Well-Tempered Clavier - 2008 Recording [Disc 1] (2008) [LAME MP3 (VBR-new quality 0.0)]/07 Bach: The Well-Tempered Clavier, Book 1 - Prelude #4 In C Sharp Minor, BWV 849.mp3 Track gain : 7.28 dB
Peak : 0.313904
CRC32 hash (test run) : 28BB2100
CRC32 hash : 28BB2100
CRC32 hash (skip zero) : 7D3625F3
AccurateRip signature : 4C666DC9->Accurately ripped! (AR2, confidence 7)
StatisticsRead error : 0Jitter error (maybe fixed) : 0Retry sector count : 0Damaged sector count : 0

Track 08
Filename : /Volumes/My Disk/XLD converted FLAC/Angela Hewitt - Bach: The Well-Tempered Clavier - 2008 Recording [Disc 1] (2008) [LAME MP3 (CBR 320kbps)]/08 Bach: The Well-Tempered Clavier, Book 1 - Fugue #4 In C Sharp Minor, BWV 849.mp3 /Volumes/My Disk/XLD converted FLAC/Angela Hewitt - Bach: The Well-Tempered Clavier - 2008 Recording [Disc 1] (2008) [FLAC (level 8)]/08 Bach: The Well-Tempered Clavier, Book 1 - Fugue #4 In C Sharp Minor, BWV 849.flac /Volumes/My Disk/XLD converted FLAC/Angela Hewitt - Bach: The Well-Tempered Clavier - 2008 Recording [Disc 1] (2008) [LAME MP3 (VBR-new quality 0.0)]/08 Bach: The Well-Tempered Clavier, Book 1 - Fugue #4 In C Sharp Minor, BWV 849.mp3 Track gain : 0.92 dB
Peak : 0.830231
CRC32 hash (test run) : 008C9513
CRC32 hash : 008C9513
CRC32 hash (skip zero) : 94437C0E
AccurateRip signature : 08945EB7->Accurately ripped! (AR2, confidence 7)
StatisticsRead error : 0Jitter error (maybe fixed) : 0Retry sector count : 0Damaged sector count : 0

Track 09
Filename : /Volumes/My Disk/XLD converted FLAC/Angela Hewitt - Bach: The Well-Tempered Clavier - 2008 Recording [Disc 1] (2008) [LAME MP3 (CBR 320kbps)]/09 Bach: The Well-Tempered Clavier, Book 1 - Prelude #5 In D, BWV 850.mp3 /Volumes/My Disk/XLD converted FLAC/Angela Hewitt - Bach: The Well-Tempered Clavier - 2008 Recording [Disc 1] (2008) [FLAC (level 8)]/09 Bach: The Well-Tempered Clavier, Book 1 - Prelude #5 In D, BWV 850.flac /Volumes/My Disk/XLD converted FLAC/Angela Hewitt - Bach: The Well-Tempered Clavier - 2008 Recording [Disc 1] (2008) [LAME MP3 (VBR-new quality 0.0)]/09 Bach: The Well-Tempered Clavier, Book 1 - Prelude #5 In D, BWV 850.mp3 Track gain : 2.88 dB
Peak : 0.567871
CRC32 hash (test run) : 81D3FBCE
CRC32 hash : 81D3FBCE
CRC32 hash (skip zero) : B1E047A6
AccurateRip signature : 1BFDDD22->Accurately ripped! (AR2, confidence 7)
StatisticsRead error : 0Jitter error (maybe fixed) : 0Retry sector count : 0Damaged sector count : 0

Track 10
Filename : /Volumes/My Disk/XLD converted FLAC/Angela Hewitt - Bach: The Well-Tempered Clavier - 2008 Recording [Disc 1] (2008) [LAME MP3 (CBR 320kbps)]/10 Bach: The Well-Tempered Clavier, Book 1 - Fugue #5 In D, BWV 850.mp3 /Volumes/My Disk/XLD converted FLAC/Angela Hewitt - Bach: The Well-Tempered Clavier - 2008 Recording [Disc 1] (2008) [FLAC (level 8)]/10 Bach: The Well-Tempered Clavier, Book 1 - Fugue #5 In D, BWV 850.flac /Volumes/My Disk/XLD converted FLAC/Angela Hewitt - Bach: The Well-Tempered Clavier - 2008 Recording [Disc 1] (2008) [LAME MP3 (VBR-new quality 0.0)]/10 Bach: The Well-Tempered Clavier, Book 1 - Fugue #5 In D, BWV 850.mp3 Track gain : 1.05 dB
Peak : 0.781677
CRC32 hash (test run) : A5FE7BF6
CRC32 hash : A5FE7BF6
CRC32 hash (skip zero) : C6B80B47
AccurateRip signature : 24CA2CD6->Accurately ripped! (AR2, confidence 7)
StatisticsRead error : 0Jitter error (maybe fixed) : 0Retry sector count : 0Damaged sector count : 0

Track 11
Filename : /Volumes/My Disk/XLD converted FLAC/Angela Hewitt - Bach: The Well-Tempered Clavier - 2008 Recording [Disc 1] (2008) [LAME MP3 (CBR 320kbps)]/11 Bach: The Well-Tempered Clavier, Book 1 - Prelude #6 In D Minor, BWV 851.mp3 /Volumes/My Disk/XLD converted FLAC/Angela Hewitt - Bach: The Well-Tempered Clavier - 2008 Recording [Disc 1] (2008) [FLAC (level 8)]/11 Bach: The Well-Tempered Clavier, Book 1 - Prelude #6 In D Minor, BWV 851.flac /Volumes/My Disk/XLD converted FLAC/Angela Hewitt - Bach: The Well-Tempered Clavier - 2008 Recording [Disc 1] (2008) [LAME MP3 (VBR-new quality 0.0)]/11 Bach: The Well-Tempered Clavier, Book 1 - Prelude #6 In D Minor, BWV 851.mp3 Track gain : 3.35 dB
Peak : 0.646851
CRC32 hash (test run) : E82DF10E
CRC32 hash : E82DF10E
CRC32 hash (skip zero) : D13091D5
AccurateRip signature : 4E58F69A->Accurately ripped! (AR2, confidence 7)
StatisticsRead error : 0Jitter error (maybe fixed) : 0Retry sector count : 0Damaged sector count : 0

Track 12
Filename : /Volumes/My Disk/XLD converted FLAC/Angela Hewitt - Bach: The Well-Tempered Clavier - 2008 Recording [Disc 1] (2008) [LAME MP3 (CBR 320kbps)]/12 Bach: The Well-Tempered Clavier, Book 1 - Fugue #6 In D Minor, BWV 851.mp3 /Volumes/My Disk/XLD converted FLAC/Angela Hewitt - Bach: The Well-Tempered Clavier - 2008 Recording [Disc 1] (2008) [FLAC (level 8)]/12 Bach: The Well-Tempered Clavier, Book 1 - Fugue #6 In D Minor, BWV 851.flac /Volumes/My Disk/XLD converted FLAC/Angela Hewitt - Bach: The Well-Tempered Clavier - 2008 Recording [Disc 1] (2008) [LAME MP3 (VBR-new quality 0.0)]/12 Bach: The Well-Tempered Clavier, Book 1 - Fugue #6 In D Minor, BWV 851.mp3 Track gain : 5.60 dB
Peak : 0.378601
CRC32 hash (test run) : 074D1C69
CRC32 hash : 074D1C69
CRC32 hash (skip zero) : 845D4CE2
AccurateRip signature : 1CDCF413->Accurately ripped! (AR2, confidence 7)
StatisticsRead error : 0Jitter error (maybe fixed) : 0Retry sector count : 0Damaged sector count : 0

Track 13
Filename : /Volumes/My Disk/XLD converted FLAC/Angela Hewitt - Bach: The Well-Tempered Clavier - 2008 Recording [Disc 1] (2008) [LAME MP3 (CBR 320kbps)]/13 Bach: The Well-Tempered Clavier, Book 1 - Prelude #7 In E Flat, BWV 852.mp3 /Volumes/My Disk/XLD converted FLAC/Angela Hewitt - Bach: The Well-Tempered Clavier - 2008 Recording [Disc 1] (2008) [FLAC (level 8)]/13 Bach: The Well-Tempered Clavier, Book 1 - Prelude #7 In E Flat, BWV 852.flac /Volumes/My Disk/XLD converted FLAC/Angela Hewitt - Bach: The Well-Tempered Clavier - 2008 Recording [Disc 1] (2008) [LAME MP3 (VBR-new quality 0.0)]/13 Bach: The Well-Tempered Clavier, Book 1 - Prelude #7 In E Flat, BWV 852.mp3 Track gain : 2.85 dB
Peak : 0.574890
CRC32 hash (test run) : 287F5B4C
CRC32 hash : 287F5B4C
CRC32 hash (skip zero) : 78AD9A4A
AccurateRip signature : 3B361B0C->Accurately ripped! (AR2, confidence 7)
StatisticsRead error : 0Jitter error (maybe fixed) : 0Retry sector count : 0Damaged sector count : 0

Track 14
Filename : /Volumes/My Disk/XLD converted FLAC/Angela Hewitt - Bach: The Well-Tempered Clavier - 2008 Recording [Disc 1] (2008) [LAME MP3 (CBR 320kbps)]/14 Bach: The Well-Tempered Clavier, Book 1 - Fugue #7 In E Flat, BWV 852.mp3 /Volumes/My Disk/XLD converted FLAC/Angela Hewitt - Bach: The Well-Tempered Clavier - 2008 Recording [Disc 1] (2008) [FLAC (level 8)]/14 Bach: The Well-Tempered Clavier, Book 1 - Fugue #7 In E Flat, BWV 852.flac /Volumes/My Disk/XLD converted FLAC/Angela Hewitt - Bach: The Well-Tempered Clavier - 2008 Recording [Disc 1] (2008) [LAME MP3 (VBR-new quality 0.0)]/14 Bach: The Well-Tempered Clavier, Book 1 - Fugue #7 In E Flat, BWV 852.mp3 Track gain : 3.96 dB
Peak : 0.497040
CRC32 hash (test run) : 2CA19109
CRC32 hash : 2CA19109
CRC32 hash (skip zero) : 1989B84D
AccurateRip signature : 21E1D4C9->Accurately ripped! (AR2, confidence 7)
StatisticsRead error : 0Jitter error (maybe fixed) : 0Retry sector count : 0Damaged sector count : 0

Track 15
Filename : /Volumes/My Disk/XLD converted FLAC/Angela Hewitt - Bach: The Well-Tempered Clavier - 2008 Recording [Disc 1] (2008) [LAME MP3 (CBR 320kbps)]/15 Bach: The Well-Tempered Clavier, Book 1 - Prelude #8 In E Flat Minor, BWV 853.mp3 /Volumes/My Disk/XLD converted FLAC/Angela Hewitt - Bach: The Well-Tempered Clavier - 2008 Recording [Disc 1] (2008) [FLAC (level 8)]/15 Bach: The Well-Tempered Clavier, Book 1 - Prelude #8 In E Flat Minor, BWV 853.flac /Volumes/My Disk/XLD converted FLAC/Angela Hewitt - Bach: The Well-Tempered Clavier - 2008 Recording [Disc 1] (2008) [LAME MP3 (VBR-new quality 0.0)]/15 Bach: The Well-Tempered Clavier, Book 1 - Prelude #8 In E Flat Minor, BWV 853.mp3 Track gain : 5.83 dB
Peak : 0.596161
CRC32 hash (test run) : 82F8B584
CRC32 hash : 82F8B584
CRC32 hash (skip zero) : 1A8D58E2
AccurateRip signature : 1894A23E->Accurately ripped! (AR2, confidence 7)
StatisticsRead error : 0Jitter error (maybe fixed) : 0Retry sector count : 0Damaged sector count : 0

Track 16
Filename : /Volumes/My Disk/XLD converted FLAC/Angela Hewitt - Bach: The Well-Tempered Clavier - 2008 Recording [Disc 1] (2008) [LAME MP3 (CBR 320kbps)]/16 Bach: The Well-Tempered Clavier, Book 1 - Fugue #8 In D Sharp Minor, BWV 853.mp3 /Volumes/My Disk/XLD converted FLAC/Angela Hewitt - Bach: The Well-Tempered Clavier - 2008 Recording [Disc 1] (2008) [FLAC (level 8)]/16 Bach: The Well-Tempered Clavier, Book 1 - Fugue #8 In D Sharp Minor, BWV 853.flac /Volumes/My Disk/XLD converted FLAC/Angela Hewitt - Bach: The Well-Tempered Clavier - 2008 Recording [Disc 1] (2008) [LAME MP3 (VBR-new quality 0.0)]/16 Bach: The Well-Tempered Clavier, Book 1 - Fugue #8 In D Sharp Minor, BWV 853.mp3 Track gain : 4.18 dB
Peak : 0.506744
CRC32 hash (test run) : BB062E42
CRC32 hash : BB062E42
CRC32 hash (skip zero) : 09714556
AccurateRip signature : 49229094->Accurately ripped! (AR2, confidence 7)
StatisticsRead error : 0Jitter error (maybe fixed) : 0Retry sector count : 0Damaged sector count : 0

Track 17
Filename : /Volumes/My Disk/XLD converted FLAC/Angela Hewitt - Bach: The Well-Tempered Clavier - 2008 Recording [Disc 1] (2008) [LAME MP3 (CBR 320kbps)]/17 Bach: The Well-Tempered Clavier, Book 1 - Prelude #9 In E, BWV 854.mp3 /Volumes/My Disk/XLD converted FLAC/Angela Hewitt - Bach: The Well-Tempered Clavier - 2008 Recording [Disc 1] (2008) [FLAC (level 8)]/17 Bach: The Well-Tempered Clavier, Book 1 - Prelude #9 In E, BWV 854.flac /Volumes/My Disk/XLD converted FLAC/Angela Hewitt - Bach: The Well-Tempered Clavier - 2008 Recording [Disc 1] (2008) [LAME MP3 (VBR-new quality 0.0)]/17 Bach: The Well-Tempered Clavier, Book 1 - Prelude #9 In E, BWV 854.mp3 Track gain : 6.59 dB
Peak : 0.310730
CRC32 hash (test run) : A9CA56FD
CRC32 hash : A9CA56FD
CRC32 hash (skip zero) : 519D7A4E
AccurateRip signature : F990D5F5->Accurately ripped! (AR2, confidence 7)
StatisticsRead error : 0Jitter error (maybe fixed) : 0Retry sector count : 0Damaged sector count : 0

Track 18
Filename : /Volumes/My Disk/XLD converted FLAC/Angela Hewitt - Bach: The Well-Tempered Clavier - 2008 Recording [Disc 1] (2008) [LAME MP3 (CBR 320kbps)]/18 Bach: The Well-Tempered Clavier, Book 1 - Fugue #9 In E, BWV 854.mp3 /Volumes/My Disk/XLD converted FLAC/Angela Hewitt - Bach: The Well-Tempered Clavier - 2008 Recording [Disc 1] (2008) [FLAC (level 8)]/18 Bach: The Well-Tempered Clavier, Book 1 - Fugue #9 In E, BWV 854.flac /Volumes/My Disk/XLD converted FLAC/Angela Hewitt - Bach: The Well-Tempered Clavier - 2008 Recording [Disc 1] (2008) [LAME MP3 (VBR-new quality 0.0)]/18 Bach: The Well-Tempered Clavier, Book 1 - Fugue #9 In E, BWV 854.mp3 Track gain : 3.43 dB
Peak : 0.452789
CRC32 hash (test run) : 505B6FEA
CRC32 hash : 505B6FEA
CRC32 hash (skip zero) : B7434C1A
AccurateRip signature : 03E47758->Accurately ripped! (AR2, confidence 6)
StatisticsRead error : 0Jitter error (maybe fixed) : 0Retry sector count : 0Damaged sector count : 0

Track 19
Filename : /Volumes/My Disk/XLD converted FLAC/Angela Hewitt - Bach: The Well-Tempered Clavier - 2008 Recording [Disc 1] (2008) [LAME MP3 (CBR 320kbps)]/19 Bach: The Well-Tempered Clavier, Book 1 - Prelude #10 In E Minor, BWV 855.mp3 /Volumes/My Disk/XLD converted FLAC/Angela Hewitt - Bach: The Well-Tempered Clavier - 2008 Recording [Disc 1] (2008) [FLAC (level 8)]/19 Bach: The Well-Tempered Clavier, Book 1 - Prelude #10 In E Minor, BWV 855.flac /Volumes/My Disk/XLD converted FLAC/Angela Hewitt - Bach: The Well-Tempered Clavier - 2008 Recording [Disc 1] (2008) [LAME MP3 (VBR-new quality 0.0)]/19 Bach: The Well-Tempered Clavier, Book 1 - Prelude #10 In E Minor, BWV 855.mp3 Track gain : 3.41 dB
Peak : 0.715576
CRC32 hash (test run) : 18CE27D2
CRC32 hash : 18CE27D2
CRC32 hash (skip zero) : C1CD294B
AccurateRip signature : DC0219C4->Accurately ripped! (AR2, confidence 7)
StatisticsRead error : 0Jitter error (maybe fixed) : 0Retry sector count : 0Damaged sector count : 0

Track 20
Filename : /Volumes/My Disk/XLD converted FLAC/Angela Hewitt - Bach: The Well-Tempered Clavier - 2008 Recording [Disc 1] (2008) [LAME MP3 (CBR 320kbps)]/20 Bach: The Well-Tempered Clavier, Book 1 - Fugue #10 In E Minor, BWV 855.mp3 /Volumes/My Disk/XLD converted FLAC/Angela Hewitt - Bach: The Well-Tempered Clavier - 2008 Recording [Disc 1] (2008) [FLAC (level 8)]/20 Bach: The Well-Tempered Clavier, Book 1 - Fugue #10 In E Minor, BWV 855.flac /Volumes/My Disk/XLD converted FLAC/Angela Hewitt - Bach: The Well-Tempered Clavier - 2008 Recording [Disc 1] (2008) [LAME MP3 (VBR-new quality 0.0)]/20 Bach: The Well-Tempered Clavier, Book 1 - Fugue #10 In E Minor, BWV 855.mp3 Track gain : 1.80 dB
Peak : 0.546692
CRC32 hash (test run) : 044D3628
CRC32 hash : 044D3628
CRC32 hash (skip zero) : D45423B4
AccurateRip signature : 76D65E54->Accurately ripped! (AR2, confidence 7)
StatisticsRead error : 0Jitter error (maybe fixed) : 0Retry sector count : 0Damaged sector count : 0

Track 21
Filename : /Volumes/My Disk/XLD converted FLAC/Angela Hewitt - Bach: The Well-Tempered Clavier - 2008 Recording [Disc 1] (2008) [LAME MP3 (CBR 320kbps)]/21 Bach: The Well-Tempered Clavier, Book 1 - Prelude #11 In F, BWV 856.mp3 /Volumes/My Disk/XLD converted FLAC/Angela Hewitt - Bach: The Well-Tempered Clavier - 2008 Recording [Disc 1] (2008) [FLAC (level 8)]/21 Bach: The Well-Tempered Clavier, Book 1 - Prelude #11 In F, BWV 856.flac /Volumes/My Disk/XLD converted FLAC/Angela Hewitt - Bach: The Well-Tempered Clavier - 2008 Recording [Disc 1] (2008) [LAME MP3 (VBR-new quality 0.0)]/21 Bach: The Well-Tempered Clavier, Book 1 - Prelude #11 In F, BWV 856.mp3 Track gain : 4.68 dB
Peak : 0.347290
CRC32 hash (test run) : 60FDCC27
CRC32 hash : 60FDCC27
CRC32 hash (skip zero) : B925B62D
AccurateRip signature : B2696F00->Accurately ripped! (AR2, confidence 7)
StatisticsRead error : 0Jitter error (maybe fixed) : 0Retry sector count : 0Damaged sector count : 0

Track 22
Filename : /Volumes/My Disk/XLD converted FLAC/Angela Hewitt - Bach: The Well-Tempered Clavier - 2008 Recording [Disc 1] (2008) [LAME MP3 (CBR 320kbps)]/22 Bach: The Well-Tempered Clavier, Book 1 - Fugue #11 In F, BWV 856.mp3 /Volumes/My Disk/XLD converted FLAC/Angela Hewitt - Bach: The Well-Tempered Clavier - 2008 Recording [Disc 1] (2008) [FLAC (level 8)]/22 Bach: The Well-Tempered Clavier, Book 1 - Fugue #11 In F, BWV 856.flac /Volumes/My Disk/XLD converted FLAC/Angela Hewitt - Bach: The Well-Tempered Clavier - 2008 Recording [Disc 1] (2008) [LAME MP3 (VBR-new quality 0.0)]/22 Bach: The Well-Tempered Clavier, Book 1 - Fugue #11 In F, BWV 856.mp3 Track gain : 5.43 dB
Peak : 0.325470
CRC32 hash (test run) : F0AC475E
CRC32 hash : F0AC475E
CRC32 hash (skip zero) : 870F45A2
AccurateRip signature : 1F93B3A3->Accurately ripped! (AR2, confidence 7)
StatisticsRead error : 0Jitter error (maybe fixed) : 0Retry sector count : 0Damaged sector count : 0

Track 23
Filename : /Volumes/My Disk/XLD converted FLAC/Angela Hewitt - Bach: The Well-Tempered Clavier - 2008 Recording [Disc 1] (2008) [LAME MP3 (CBR 320kbps)]/23 Bach: The Well-Tempered Clavier, Book 1 - Prelude #12 In F Minor, BWV 857.mp3 /Volumes/My Disk/XLD converted FLAC/Angela Hewitt - Bach: The Well-Tempered Clavier - 2008 Recording [Disc 1] (2008) [FLAC (level 8)]/23 Bach: The Well-Tempered Clavier, Book 1 - Prelude #12 In F Minor, BWV 857.flac /Volumes/My Disk/XLD converted FLAC/Angela Hewitt - Bach: The Well-Tempered Clavier - 2008 Recording [Disc 1] (2008) [LAME MP3 (VBR-new quality 0.0)]/23 Bach: The Well-Tempered Clavier, Book 1 - Prelude #12 In F Minor, BWV 857.mp3 Track gain : 5.01 dB
Peak : 0.393799
CRC32 hash (test run) : 453D21F0
CRC32 hash : 453D21F0
CRC32 hash (skip zero) : 47212824
AccurateRip signature : 0E0C7A9F->Accurately ripped! (AR2, confidence 7)
StatisticsRead error : 0Jitter error (maybe fixed) : 0Retry sector count : 0Damaged sector count : 0

Track 24
Filename : /Volumes/My Disk/XLD converted FLAC/Angela Hewitt - Bach: The Well-Tempered Clavier - 2008 Recording [Disc 1] (2008) [LAME MP3 (CBR 320kbps)]/24 Bach: The Well-Tempered Clavier, Book 1 - Fugue #12 In F Minor, BWV 857.mp3 /Volumes/My Disk/XLD converted FLAC/Angela Hewitt - Bach: The Well-Tempered Clavier - 2008 Recording [Disc 1] (2008) [FLAC (level 8)]/24 Bach: The Well-Tempered Clavier, Book 1 - Fugue #12 In F Minor, BWV 857.flac /Volumes/My Disk/XLD converted FLAC/Angela Hewitt - Bach: The Well-Tempered Clavier - 2008 Recording [Disc 1] (2008) [LAME MP3 (VBR-new quality 0.0)]/24 Bach: The Well-Tempered Clavier, Book 1 - Fugue #12 In F Minor, BWV 857.mp3 Track gain : 2.39 dB
Peak : 0.637268
CRC32 hash (test run) : EA935A8F
CRC32 hash : EA935A8F
CRC32 hash (skip zero) : A0355F98
AccurateRip signature : 00967050->Accurately ripped! (AR2, confidence 7)
StatisticsRead error : 0Jitter error (maybe fixed) : 0Retry sector count : 0Damaged sector count : 0

No errors occurred

End of status report

Disc: 2
1. The Well-Tempered Clavier (48), collection of preludes & fugues in 2 Books, BWV 846-893 (BC L80-127): Book 1. No. 13 in F sharp major
2. The Well-Tempered Clavier (48), collection of preludes & fugues in 2 Books, BWV 846-893 (BC L80-127): Book 1. No. 13 in F sharp major
3. The Well-Tempered Clavier (48), collection of preludes & fugues in 2 Books, BWV 846-893 (BC L80-127): Book 1. No. 14 in F sharp minor
4. The Well-Tempered Clavier (48), collection of preludes & fugues in 2 Books, BWV 846-893 (BC L80-127): Book 1. No. 14 in F sharp minor
5. The Well-Tempered Clavier (48), collection of preludes & fugues in 2 Books, BWV 846-893 (BC L80-127): Book 1. No. 15 in G major. Prel
6. The Well-Tempered Clavier (48), collection of preludes & fugues in 2 Books, BWV 846-893 (BC L80-127): Book 1. No. 15 in G major. Fugu
7. The Well-Tempered Clavier (48), collection of preludes & fugues in 2 Books, BWV 846-893 (BC L80-127): Book 1. No. 16 in G minor. Prel
8. The Well-Tempered Clavier (48), collection of preludes & fugues in 2 Books, BWV 846-893 (BC L80-127): Book 1. No. 16 in G minor. Fugu
9. The Well-Tempered Clavier (48), collection of preludes & fugues in 2 Books, BWV 846-893 (BC L80-127): Book 1. No. 17 in A flat major.
10. The Well-Tempered Clavier (48), collection of preludes & fugues in 2 Books, BWV 846-893 (BC L80-127): Book 1. No. 17 in A flat major.
11. The Well-Tempered Clavier (48), collection of preludes & fugues in 2 Books, BWV 846-893 (BC L80-127): Book 1. No. 18 in G sharp minor
12. The Well-Tempered Clavier (48), collection of preludes & fugues in 2 Books, BWV 846-893 (BC L80-127): Book 1. No. 18 in G sharp minor
13. The Well-Tempered Clavier (48), collection of preludes & fugues in 2 Books, BWV 846-893 (BC L80-127): Book 1. No. 19 in A major. Prel
14. The Well-Tempered Clavier (48), collection of preludes & fugues in 2 Books, BWV 846-893 (BC L80-127): Book 1. No. 19 in A major. Fugu
15. The Well-Tempered Clavier (48), collection of preludes & fugues in 2 Books, BWV 846-893 (BC L80-127): Book 1. No. 20 in A minor. Fugu
16. The Well-Tempered Clavier (48), collection of preludes & fugues in 2 Books, BWV 846-893 (BC L80-127): Book 1. No. 21 in B flat major.
17. The Well-Tempered Clavier (48), collection of preludes & fugues in 2 Books, BWV 846-893 (BC L80-127): Book 1. No. 21 in B flat major.
18. The Well-Tempered Clavier (48), collection of preludes & fugues in 2 Books, BWV 846-893 (BC L80-127): Book 1. No. 22 in B flat minor.
19. The Well-Tempered Clavier (48), collection of preludes & fugues in 2 Books, BWV 846-893 (BC L80-127): Book 1. No. 22 in B flat minor.
20. The Well-Tempered Clavier (48), collection of preludes & fugues in 2 Books, BWV 846-893 (BC L80-127): Book 1. No. 23 in B major. Prel
21. The Well-Tempered Clavier (48), collection of preludes & fugues in 2 Books, BWV 846-893 (BC L80-127): Book 1. No. 23 in B major. Fugu
22. The Well-Tempered Clavier (48), collection of preludes & fugues in 2 Books, BWV 846-893 (BC L80-127): Book 1. No. 24 in B minor. Prel
23. The Well-Tempered Clavier (48), collection of preludes & fugues in 2 Books, BWV 846-893 (BC L80-127): Book 1. No. 24 in B minor. Fugu

X Lossless Decoder version 20110821 (136.1)

XLD extraction logfile from 2011-09-21 22:38:28 +0000

Angela Hewitt / Bach: The Well-Tempered Clavier (Disc 2)

Used drive : OPTIARC DVD RW AD-5680H (revision 3AHF)

Ripper mode : XLD Secure Ripper
Disable audio cache : OK for the drive with a cache less than 1375KiB
Make use of C2 pointers : NO
Read offset correction : 48
Max retry count : 20
Gap status : Analyzed, Appended (except HTOA)

TOC of the extracted CD
Track | Start | Length | Start sector | End sector
--1 | 00:00:00 | 01:31:56 | 0 | 6880 2 | 01:31:56 | 02:19:03 | 6881 | 17308 3 | 03:50:59 | 01:01:53 | 17309 | 21936 4 | 04:52:37 | 03:16:24 | 21937 | 36660 5 | 08:08:61 | 00:54:45 | 36661 | 40755 6 | 09:03:31 | 02:50:14 | 40756 | 53519 7 | 11:53:45 | 02:15:21 | 53520 | 63665 8 | 14:08:66 | 01:41:64 | 63666 | 71304 9 | 15:50:55 | 01:22:72 | 71305 | 77526
10 | 17:13:52 | 03:10:37 | 77527 | 91813
11 | 20:24:14 | 01:30:04 | 91814 | 98567
12 | 21:54:18 | 02:07:46 | 98568 | 108138
13 | 24:01:64 | 01:28:43 | 108139 | 114781
14 | 25:30:32 | 02:00:67 | 114782 | 123848
15 | 27:31:24 | 00:59:37 | 123849 | 128310
16 | 28:30:61 | 05:33:21 | 128311 | 153306
17 | 34:04:07 | 01:25:19 | 153307 | 159700
18 | 35:29:26 | 01:45:18 | 159701 | 167593
19 | 37:14:44 | 03:51:06 | 167594 | 184924
20 | 41:05:50 | 03:08:11 | 184925 | 199035
21 | 44:13:61 | 00:56:74 | 199036 | 203309
22 | 45:10:60 | 02:24:53 | 203310 | 214162
23 | 47:35:38 | 04:40:63 | 214163 | 235225
24 | 52:16:26 | 06:57:14 | 235226 | 266514

AccurateRip Summary
Track 01 : OK (AR2, confidence 7)
Track 02 : OK (AR2, confidence 7)
Track 03 : OK (AR2, confidence 7)
Track 04 : OK (AR2, confidence 7)
Track 05 : OK (AR2, confidence 7)
Track 06 : OK (AR2, confidence 7)
Track 07 : OK (AR2, confidence 7)
Track 08 : OK (AR2, confidence 7)
Track 09 : OK (AR2, confidence 7)
Track 10 : OK (AR2, confidence 7)
Track 11 : OK (AR2, confidence 7)
Track 12 : OK (AR2, confidence 7)
Track 13 : OK (AR2, confidence 6)
Track 14 : OK (AR2, confidence 7)
Track 15 : OK (AR2, confidence 7)
Track 16 : OK (AR2, confidence 7)
Track 17 : OK (AR2, confidence 7)
Track 18 : OK (AR2, confidence 7)
Track 19 : OK (AR2, confidence 7)
Track 20 : OK (AR2, confidence 7)
Track 21 : OK (AR2, confidence 7)
Track 22 : OK (AR2, confidence 7)
Track 23 : OK (AR2, confidence 7)
Track 24 : OK (AR2, confidence 7)->All tracks accurately ripped.

All Tracks
Album gain : 3.41 dB
Peak : 0.891815
StatisticsRead error : 0Jitter error (maybe fixed) : 0Retry sector count : 0Damaged sector count : 0

Track 01
Filename : /Volumes/My Disk/XLD converted FLAC/Angela Hewitt - Bach: The Well-Tempered Clavier (Disc 2) (2008) [LAME MP3 (CBR 320kbps)]/01 Bach‧The Well-Tempered Clavier‧Book I:No.13 in F sharp major, BWV858:Prelude.mp3 /Volumes/My Disk/XLD converted FLAC/Angela Hewitt - Bach: The Well-Tempered Clavier (Disc 2) (2008) [FLAC (level 8)]/01 Bach‧The Well-Tempered Clavier‧Book I:No.13 in F sharp major, BWV858:Prelude.flac /Volumes/My Disk/XLD converted FLAC/Angela Hewitt - Bach: The Well-Tempered Clavier (Disc 2) (2008) [LAME MP3 (VBR-new quality 0.0)]/01 Bach‧The Well-Tempered Clavier‧Book I:No.13 in F sharp major, BWV858:Prelude.mp3
Pre-gap length : 00:02:00 Track gain : 6.34 dB
Peak : 0.270050
CRC32 hash (test run) : E77B4534
CRC32 hash : E77B4534
CRC32 hash (skip zero) : 705F9531
AccurateRip signature : 9464A032->Accurately ripped! (AR2, confidence 7)
StatisticsRead error : 0Jitter error (maybe fixed) : 0Retry sector count : 0Damaged sector count : 0

Track 02
Filename : /Volumes/My Disk/XLD converted FLAC/Angela Hewitt - Bach: The Well-Tempered Clavier (Disc 2) (2008) [LAME MP3 (CBR 320kbps)]/02 Bach‧The Well-Tempered Clavier‧Book I:No.13 in F sharp major, BWV858:Fugue.mp3 /Volumes/My Disk/XLD converted FLAC/Angela Hewitt - Bach: The Well-Tempered Clavier (Disc 2) (2008) [FLAC (level 8)]/02 Bach‧The Well-Tempered Clavier‧Book I:No.13 in F sharp major, BWV858:Fugue.flac /Volumes/My Disk/XLD converted FLAC/Angela Hewitt - Bach: The Well-Tempered Clavier (Disc 2) (2008) [LAME MP3 (VBR-new quality 0.0)]/02 Bach‧The Well-Tempered Clavier‧Book I:No.13 in F sharp major, BWV858:Fugue.mp3 Track gain : 6.83 dB
Peak : 0.342743
CRC32 hash (test run) : 1A6B72CD
CRC32 hash : 1A6B72CD
CRC32 hash (skip zero) : D517F4C3
AccurateRip signature : 2536E27F->Accurately ripped! (AR2, confidence 7)
StatisticsRead error : 0Jitter error (maybe fixed) : 0Retry sector count : 0Damaged sector count : 0

Track 03
Filename : /Volumes/My Disk/XLD converted FLAC/Angela Hewitt - Bach: The Well-Tempered Clavier (Disc 2) (2008) [LAME MP3 (CBR 320kbps)]/03 Bach‧The Well-Tempered Clavier‧Book I:No.14 in F sharp minor, BWV859:Prelude.mp3 /Volumes/My Disk/XLD converted FLAC/Angela Hewitt - Bach: The Well-Tempered Clavier (Disc 2) (2008) [FLAC (level 8)]/03 Bach‧The Well-Tempered Clavier‧Book I:No.14 in F sharp minor, BWV859:Prelude.flac /Volumes/My Disk/XLD converted FLAC/Angela Hewitt - Bach: The Well-Tempered Clavier (Disc 2) (2008) [LAME MP3 (VBR-new quality 0.0)]/03 Bach‧The Well-Tempered Clavier‧Book I:No.14 in F sharp minor, BWV859:Prelude.mp3 Track gain : 4.55 dB
Peak : 0.447327
CRC32 hash (test run) : DD823CB6
CRC32 hash : DD823CB6
CRC32 hash (skip zero) : FA850C9B
AccurateRip signature : 72F7397D->Accurately ripped! (AR2, confidence 7)
StatisticsRead error : 0Jitter error (maybe fixed) : 0Retry sector count : 0Damaged sector count : 0

Track 04
Filename : /Volumes/My Disk/XLD converted FLAC/Angela Hewitt - Bach: The Well-Tempered Clavier (Disc 2) (2008) [LAME MP3 (CBR 320kbps)]/04 Bach‧The Well-Tempered Clavier‧Book I:No.14 in F sharp minor, BWV859:Fugue.mp3 /Volumes/My Disk/XLD converted FLAC/Angela Hewitt - Bach: The Well-Tempered Clavier (Disc 2) (2008) [FLAC (level 8)]/04 Bach‧The Well-Tempered Clavier‧Book I:No.14 in F sharp minor, BWV859:Fugue.flac /Volumes/My Disk/XLD converted FLAC/Angela Hewitt - Bach: The Well-Tempered Clavier (Disc 2) (2008) [LAME MP3 (VBR-new quality 0.0)]/04 Bach‧The Well-Tempered Clavier‧Book I:No.14 in F sharp minor, BWV859:Fugue.mp3 Track gain : 4.84 dB
Peak : 0.446350
CRC32 hash (test run) : 63A7CE83
CRC32 hash : 63A7CE83
CRC32 hash (skip zero) : 84A9F8E6
AccurateRip signature : 1AA932F1->Accurately ripped! (AR2, confidence 7)
StatisticsRead error : 0Jitter error (maybe fixed) : 0Retry sector count : 0Damaged sector count : 0

Track 05
Filename : /Volumes/My Disk/XLD converted FLAC/Angela Hewitt - Bach: The Well-Tempered Clavier (Disc 2) (2008) [LAME MP3 (CBR 320kbps)]/05 Bach‧The Well-Tempered Clavier‧Book I:No.15 in G major, BWV860:Prelude.mp3 /Volumes/My Disk/XLD converted FLAC/Angela Hewitt - Bach: The Well-Tempered Clavier (Disc 2) (2008) [FLAC (level 8)]/05 Bach‧The Well-Tempered Clavier‧Book I:No.15 in G major, BWV860:Prelude.flac /Volumes/My Disk/XLD converted FLAC/Angela Hewitt - Bach: The Well-Tempered Clavier (Disc 2) (2008) [LAME MP3 (VBR-new quality 0.0)]/05 Bach‧The Well-Tempered Clavier‧Book I:No.15 in G major, BWV860:Prelude.mp3 Track gain : 2.89 dB
Peak : 0.515686
CRC32 hash (test run) : AFE8AEFA
CRC32 hash : AFE8AEFA
CRC32 hash (skip zero) : 991BF385
AccurateRip signature : 1E98277E->Accurately ripped! (AR2, confidence 7)
StatisticsRead error : 0Jitter error (maybe fixed) : 0Retry sector count : 0Damaged sector count : 0

Track 06
Filename : /Volumes/My Disk/XLD converted FLAC/Angela Hewitt - Bach: The Well-Tempered Clavier (Disc 2) (2008) [LAME MP3 (CBR 320kbps)]/06 Bach‧The Well-Tempered Clavier‧Book I:No.15 in G major, BWV860:Fugue.mp3 /Volumes/My Disk/XLD converted FLAC/Angela Hewitt - Bach: The Well-Tempered Clavier (Disc 2) (2008) [FLAC (level 8)]/06 Bach‧The Well-Tempered Clavier‧Book I:No.15 in G major, BWV860:Fugue.flac /Volumes/My Disk/XLD converted FLAC/Angela Hewitt - Bach: The Well-Tempered Clavier (Disc 2) (2008) [LAME MP3 (VBR-new quality 0.0)]/06 Bach‧The Well-Tempered Clavier‧Book I:No.15 in G major, BWV860:Fugue.mp3 Track gain : 1.49 dB
Peak : 0.826721
CRC32 hash (test run) : 089075AE
CRC32 hash : 089075AE
CRC32 hash (skip zero) : 5F63F6A6
AccurateRip signature : 50700F76->Accurately ripped! (AR2, confidence 7)
StatisticsRead error : 0Jitter error (maybe fixed) : 0Retry sector count : 0Damaged sector count : 0

Track 07
Filename : /Volumes/My Disk/XLD converted FLAC/Angela Hewitt - Bach: The Well-Tempered Clavier (Disc 2) (2008) [LAME MP3 (CBR 320kbps)]/07 Bach‧The Well-Tempered Clavier‧Book I:No.16 in G minor, BWV861:Prelude.mp3 /Volumes/My Disk/XLD converted FLAC/Angela Hewitt - Bach: The Well-Tempered Clavier (Disc 2) (2008) [FLAC (level 8)]/07 Bach‧The Well-Tempered Clavier‧Book I:No.16 in G minor, BWV861:Prelude.flac /Volumes/My Disk/XLD converted FLAC/Angela Hewitt - Bach: The Well-Tempered Clavier (Disc 2) (2008) [LAME MP3 (VBR-new quality 0.0)]/07 Bach‧The Well-Tempered Clavier‧Book I:No.16 in G minor, BWV861:Prelude.mp3 Track gain : 6.72 dB
Peak : 0.330780
CRC32 hash (test run) : BA1D665D
CRC32 hash : BA1D665D
CRC32 hash (skip zero) : 757FF318
AccurateRip signature : 1F28D752->Accurately ripped! (AR2, confidence 7)
StatisticsRead error : 0Jitter error (maybe fixed) : 0Retry sector count : 0Damaged sector count : 0

Track 08
Filename : /Volumes/My Disk/XLD converted FLAC/Angela Hewitt - Bach: The Well-Tempered Clavier (Disc 2) (2008) [LAME MP3 (CBR 320kbps)]/08 Bach‧The Well-Tempered Clavier‧Book I:No.16 in G minor, BWV861:Fugue.mp3 /Volumes/My Disk/XLD converted FLAC/Angela Hewitt - Bach: The Well-Tempered Clavier (Disc 2) (2008) [FLAC (level 8)]/08 Bach‧The Well-Tempered Clavier‧Book I:No.16 in G minor, BWV861:Fugue.flac /Volumes/My Disk/XLD converted FLAC/Angela Hewitt - Bach: The Well-Tempered Clavier (Disc 2) (2008) [LAME MP3 (VBR-new quality 0.0)]/08 Bach‧The Well-Tempered Clavier‧Book I:No.16 in G minor, BWV861:Fugue.mp3 Track gain : 2.77 dB
Peak : 0.617157
CRC32 hash (test run) : 9B8F772E
CRC32 hash : 9B8F772E
CRC32 hash (skip zero) : 42B678E1
AccurateRip signature : 469671EF->Accurately ripped! (AR2, confidence 7)
StatisticsRead error : 0Jitter error (maybe fixed) : 0Retry sector count : 0Damaged sector count : 0

Track 09
Filename : /Volumes/My Disk/XLD converted FLAC/Angela Hewitt - Bach: The Well-Tempered Clavier (Disc 2) (2008) [LAME MP3 (CBR 320kbps)]/09 Bach‧The Well-Tempered Clavier‧Book I:No.17 in A flat major, BWV862:Prelude.mp3 /Volumes/My Disk/XLD converted FLAC/Angela Hewitt - Bach: The Well-Tempered Clavier (Disc 2) (2008) [FLAC (level 8)]/09 Bach‧The Well-Tempered Clavier‧Book I:No.17 in A flat major, BWV862:Prelude.flac /Volumes/My Disk/XLD converted FLAC/Angela Hewitt - Bach: The Well-Tempered Clavier (Disc 2) (2008) [LAME MP3 (VBR-new quality 0.0)]/09 Bach‧The Well-Tempered Clavier‧Book I:No.17 in A flat major, BWV862:Prelude.mp3 Track gain : 5.24 dB
Peak : 0.372650
CRC32 hash (test run) : 920A0C8C
CRC32 hash : 920A0C8C
CRC32 hash (skip zero) : 7657308C
AccurateRip signature : 8B076197->Accurately ripped! (AR2, confidence 7)
StatisticsRead error : 0Jitter error (maybe fixed) : 0Retry sector count : 0Damaged sector count : 0

Track 10
Filename : /Volumes/My Disk/XLD converted FLAC/Angela Hewitt - Bach: The Well-Tempered Clavier (Disc 2) (2008) [LAME MP3 (CBR 320kbps)]/10 Bach‧The Well-Tempered Clavier‧Book I:No.17 in A flat major, BWV862:Fugue.mp3 /Volumes/My Disk/XLD converted FLAC/Angela Hewitt - Bach: The Well-Tempered Clavier (Disc 2) (2008) [FLAC (level 8)]/10 Bach‧The Well-Tempered Clavier‧Book I:No.17 in A flat major, BWV862:Fugue.flac /Volumes/My Disk/XLD converted FLAC/Angela Hewitt - Bach: The Well-Tempered Clavier (Disc 2) (2008) [LAME MP3 (VBR-new quality 0.0)]/10 Bach‧The Well-Tempered Clavier‧Book I:No.17 in A flat major, BWV862:Fugue.mp3 Track gain : 5.53 dB
Peak : 0.510529
CRC32 hash (test run) : 9F0A7795
CRC32 hash : 9F0A7795
CRC32 hash (skip zero) : 58BE6939
AccurateRip signature : 3B03BA98->Accurately ripped! (AR2, confidence 7)
StatisticsRead error : 0Jitter error (maybe fixed) : 0Retry sector count : 0Damaged sector count : 0

Track 11
Filename : /Volumes/My Disk/XLD converted FLAC/Angela Hewitt - Bach: The Well-Tempered Clavier (Disc 2) (2008) [LAME MP3 (CBR 320kbps)]/11 Bach‧The Well-Tempered Clavier‧Book I:No.18 in G sharp minor, BWV863:Prelude.mp3 /Volumes/My Disk/XLD converted FLAC/Angela Hewitt - Bach: The Well-Tempered Clavier (Disc 2) (2008) [FLAC (level 8)]/11 Bach‧The Well-Tempered Clavier‧Book I:No.18 in G sharp minor, BWV863:Prelude.flac /Volumes/My Disk/XLD converted FLAC/Angela Hewitt - Bach: The Well-Tempered Clavier (Disc 2) (2008) [LAME MP3 (VBR-new quality 0.0)]/11 Bach‧The Well-Tempered Clavier‧Book I:No.18 in G sharp minor, BWV863:Prelude.mp3 Track gain : 5.71 dB
Peak : 0.361176
CRC32 hash (test run) : 241694DB
CRC32 hash : 241694DB
CRC32 hash (skip zero) : 5E02F3AF
AccurateRip signature : BBB06E94->Accurately ripped! (AR2, confidence 7)
StatisticsRead error : 0Jitter error (maybe fixed) : 0Retry sector count : 0Damaged sector count : 0

Track 12
Filename : /Volumes/My Disk/XLD converted FLAC/Angela Hewitt - Bach: The Well-Tempered Clavier (Disc 2) (2008) [LAME MP3 (CBR 320kbps)]/12 Bach‧The Well-Tempered Clavier‧Book I:No.18 in G sharp minor, BWV863:Fugue.mp3 /Volumes/My Disk/XLD converted FLAC/Angela Hewitt - Bach: The Well-Tempered Clavier (Disc 2) (2008) [FLAC (level 8)]/12 Bach‧The Well-Tempered Clavier‧Book I:No.18 in G sharp minor, BWV863:Fugue.flac /Volumes/My Disk/XLD converted FLAC/Angela Hewitt - Bach: The Well-Tempered Clavier (Disc 2) (2008) [LAME MP3 (VBR-new quality 0.0)]/12 Bach‧The Well-Tempered Clavier‧Book I:No.18 in G sharp minor, BWV863:Fugue.mp3 Track gain : 2.53 dB
Peak : 0.659760
CRC32 hash (test run) : 75FA086C
CRC32 hash : 75FA086C
CRC32 hash (skip zero) : 29F05A71
AccurateRip signature : A5DFF99A->Accurately ripped! (AR2, confidence 7)
StatisticsRead error : 0Jitter error (maybe fixed) : 0Retry sector count : 0Damaged sector count : 0

Track 13
Filename : /Volumes/My Disk/XLD converted FLAC/Angela Hewitt - Bach: The Well-Tempered Clavier (Disc 2) (2008) [LAME MP3 (CBR 320kbps)]/13 Bach‧The Well-Tempered Clavier‧Book I:No.19 in A major, BWV864:Prelude.mp3 /Volumes/My Disk/XLD converted FLAC/Angela Hewitt - Bach: The Well-Tempered Clavier (Disc 2) (2008) [FLAC (level 8)]/13 Bach‧The Well-Tempered Clavier‧Book I:No.19 in A major, BWV864:Prelude.flac /Volumes/My Disk/XLD converted FLAC/Angela Hewitt - Bach: The Well-Tempered Clavier (Disc 2) (2008) [LAME MP3 (VBR-new quality 0.0)]/13 Bach‧The Well-Tempered Clavier‧Book I:No.19 in A major, BWV864:Prelude.mp3 Track gain : 5.69 dB
Peak : 0.386719
CRC32 hash (test run) : 26DE01F5
CRC32 hash : 26DE01F5
CRC32 hash (skip zero) : 4E95A5F1
AccurateRip signature : 3E834F43->Accurately ripped! (AR2, confidence 6)
StatisticsRead error : 0Jitter error (maybe fixed) : 0Retry sector count : 0Damaged sector count : 0

Track 14
Filename : /Volumes/My Disk/XLD converted FLAC/Angela Hewitt - Bach: The Well-Tempered Clavier (Disc 2) (2008) [LAME MP3 (CBR 320kbps)]/14 Bach‧The Well-Tempered Clavier‧Book I:No.19 in A major, BWV864:Fugue.mp3 /Volumes/My Disk/XLD converted FLAC/Angela Hewitt - Bach: The Well-Tempered Clavier (Disc 2) (2008) [FLAC (level 8)]/14 Bach‧The Well-Tempered Clavier‧Book I:No.19 in A major, BWV864:Fugue.flac /Volumes/My Disk/XLD converted FLAC/Angela Hewitt - Bach: The Well-Tempered Clavier (Disc 2) (2008) [LAME MP3 (VBR-new quality 0.0)]/14 Bach‧The Well-Tempered Clavier‧Book I:No.19 in A major, BWV864:Fugue.mp3 Track gain : 2.75 dB
Peak : 0.586700
CRC32 hash (test run) : 80287716
CRC32 hash : 80287716
CRC32 hash (skip zero) : A7E360B8
AccurateRip signature : DB2E2E26->Accurately ripped! (AR2, confidence 7)
StatisticsRead error : 0Jitter error (maybe fixed) : 0Retry sector count : 0Damaged sector count : 0

Track 15
Filename : /Volumes/My Disk/XLD converted FLAC/Angela Hewitt - Bach: The Well-Tempered Clavier (Disc 2) (2008) [LAME MP3 (CBR 320kbps)]/15 Bach‧The Well-Tempered Clavier‧Book I:No.20 in A minor, BWV865:Prelude.mp3 /Volumes/My Disk/XLD converted FLAC/Angela Hewitt - Bach: The Well-Tempered Clavier (Disc 2) (2008) [FLAC (level 8)]/15 Bach‧The Well-Tempered Clavier‧Book I:No.20 in A minor, BWV865:Prelude.flac /Volumes/My Disk/XLD converted FLAC/Angela Hewitt - Bach: The Well-Tempered Clavier (Disc 2) (2008) [LAME MP3 (VBR-new quality 0.0)]/15 Bach‧The Well-Tempered Clavier‧Book I:No.20 in A minor, BWV865:Prelude.mp3 Track gain : 1.76 dB
Peak : 0.658630
CRC32 hash (test run) : 3AE8206C
CRC32 hash : 3AE8206C
CRC32 hash (skip zero) : 62CEE394
AccurateRip signature : C9B1C87A->Accurately ripped! (AR2, confidence 7)
StatisticsRead error : 0Jitter error (maybe fixed) : 0Retry sector count : 0Damaged sector count : 0

Track 16
Filename : /Volumes/My Disk/XLD converted FLAC/Angela Hewitt - Bach: The Well-Tempered Clavier (Disc 2) (2008) [LAME MP3 (CBR 320kbps)]/16 Bach‧The Well-Tempered Clavier‧Book I:No.20 in A minor, BWV865:Fugue.mp3 /Volumes/My Disk/XLD converted FLAC/Angela Hewitt - Bach: The Well-Tempered Clavier (Disc 2) (2008) [FLAC (level 8)]/16 Bach‧The Well-Tempered Clavier‧Book I:No.20 in A minor, BWV865:Fugue.flac /Volumes/My Disk/XLD converted FLAC/Angela Hewitt - Bach: The Well-Tempered Clavier (Disc 2) (2008) [LAME MP3 (VBR-new quality 0.0)]/16 Bach‧The Well-Tempered Clavier‧Book I:No.20 in A minor, BWV865:Fugue.mp3 Track gain : 0.70 dB
Peak : 0.884918
CRC32 hash (test run) : 27CBC740
CRC32 hash : 27CBC740
CRC32 hash (skip zero) : 0D92EF7E
AccurateRip signature : DF48A744->Accurately ripped! (AR2, confidence 7)
StatisticsRead error : 0Jitter error (maybe fixed) : 0Retry sector count : 0Damaged sector count : 0

Track 17
Filename : /Volumes/My Disk/XLD converted FLAC/Angela Hewitt - Bach: The Well-Tempered Clavier (Disc 2) (2008) [LAME MP3 (CBR 320kbps)]/17 Bach‧The Well-Tempered Clavier‧Book I:No.21 in B flat major, BWV866:Prelude.mp3 /Volumes/My Disk/XLD converted FLAC/Angela Hewitt - Bach: The Well-Tempered Clavier (Disc 2) (2008) [FLAC (level 8)]/17 Bach‧The Well-Tempered Clavier‧Book I:No.21 in B flat major, BWV866:Prelude.flac /Volumes/My Disk/XLD converted FLAC/Angela Hewitt - Bach: The Well-Tempered Clavier (Disc 2) (2008) [LAME MP3 (VBR-new quality 0.0)]/17 Bach‧The Well-Tempered Clavier‧Book I:No.21 in B flat major, BWV866:Prelude.mp3 Track gain : 1.91 dB
Peak : 0.795135
CRC32 hash (test run) : 02D0FB91
CRC32 hash : 02D0FB91
CRC32 hash (skip zero) : 99353B5F
AccurateRip signature : 42C39BAA->Accurately ripped! (AR2, confidence 7)
StatisticsRead error : 0Jitter error (maybe fixed) : 0Retry sector count : 0Damaged sector count : 0

Track 18
Filename : /Volumes/My Disk/XLD converted FLAC/Angela Hewitt - Bach: The Well-Tempered Clavier (Disc 2) (2008) [LAME MP3 (CBR 320kbps)]/18 Bach‧The Well-Tempered Clavier‧Book I:No.21 in B flat major, BWV866:Fugue.mp3 /Volumes/My Disk/XLD converted FLAC/Angela Hewitt - Bach: The Well-Tempered Clavier (Disc 2) (2008) [FLAC (level 8)]/18 Bach‧The Well-Tempered Clavier‧Book I:No.21 in B flat major, BWV866:Fugue.flac /Volumes/My Disk/XLD converted FLAC/Angela Hewitt - Bach: The Well-Tempered Clavier (Disc 2) (2008) [LAME MP3 (VBR-new quality 0.0)]/18 Bach
Direct Download

Tags: Angela, Hewitt, Tempered, Clavier

Angela Hewitt : Bach: The Well-Tempered Clavier (2009) Download via Hotfile Rapidshare Fileserve Megaupload & FileSonic, Angela Hewitt : Bach: The Well-Tempered Clavier (2009) free torrent downloads included crack, serial, keygen.Angela Hewitt : Bach: The Well-Tempered Clavier (2009) Fast Download via Rapidshare Hotfile Fileserve Filesonic Megaupload, Angela Hewitt : Bach: The Well-Tempered Clavier (2009) Torrents and Emule Download or anything related.
Leave a Comment
Your Name:
E-Mail:
Add Comments:

Enter Code: