The Springfields - Over The Hills And Far Away (1997) 2CD

Download Now

The Springfields - Over The Hills And Far Away (1997) 2CD

The Springfields - Over The Hills And Far Away (1997) 2CD
EAC | FLAC | Tracks (Cue&Log) ~ 744 Mb (incl 5%) | Mp3 (CBR320) ~ 263 Mb (incl 5%) | Scans ~ 121 Mb
Genre: Folk, Folk Pop | Label: Philips | # 534 930-2 | Time: 01:49:19

"Two CDs devoted to the Springfields is probably a bit much for casual fans. This set could likely have been trimmed to one 70-minute CD, leaving out "Silver Dollar," "Row Row Row" and some of the other lesser material from their first album, although it is strange in an enlightening way to hear Dusty singing the latter, a pre-World War I standard more suited to the likes of Ruth Etting. What's good is that none of the high spots are left out, including "Allentown Jail," the ethereal "Far Away Place," "Silver Threads and Golden Needles" (natch), the delightful "Little Boat" (the best of their international numbers), and the gorgeous, near-British beat style "Come On Home," where Dusty starts to show off some of the soulfulness that would later identify her voice. The notes are well detailed, and the mastering is flawless."



Tracklist:

CD1:

01. Dear John (02:30)
02. I Done What They Told Me (02:02)
03. Breakaway (02:33)
04. Good News (01:53)
05. Wimoweh Mambo (01:58)
06. The Black Hills Of Dakota (02:30)
07. Row, Row, Row (02:12)
08. The Green Leaves Of Summer (02:18)
09. Silver Dollar (02:10)
10. Allentown Jail (02:38)
11. Lonesome Traveller (01:44)
12. Dear Hearts And Gentle People (03:04)
13. They Took John Away (02:19)
14. Eso Es El Amor (02:08)
15. Two Brothers (02:39)
16. Tzena, Tzena, Tzena (02:18)
17. Bambino (02:32)
18. Goodnight Irene (02:17)
19. Far Away Places (02:54)
20. Silver Threads & Golden Needles (02:14)
21. Aunt Rhody (02:08)
22. Swahili Papa (02:16)
23. Gotta Travel On (02:06)

CD2:

01. Island Of Dreams (02:39)
02. The Johnson Boys (01:52)
03. Settle Down (02:03)
04. There's A Big Wheel (02:27)
05. Greenback Dollar (02:04)
06. Midnight Special (02:22)
07. Wabash Cannonball (02:23)
08. Alone With You (01:56)
09. Cottonfields (01:59)
10. Foggy Mountain Top (02:28)
11. Little By Little (02:08)
12. Maggie (02:04)
13. Darling Allalee (02:06)
14. Mountain Boy (02:05)
15. My Baby's Gone (02:18)
16. Waf Woof (02:32)
17. Say I Won't Be There (02:52)
18. Little Boat (01:53)
19. Come On Home (02:23)
20. Pit-A-Pat (02:21)
21. If I Was Down And Out (02:27)
22. Marcabamba (01:58)
23. No Sad Songs For Me (02:59)
24. Where Have All The Flowers Gone? (Sag Mir, Wo Die Blumen Sind) (03:13)


Exact Audio Copy V1.0 beta 3 from 29. August 2011

EAC extraction logfile from 8. March 2015, 16:22

The Springfields / Over The Hills And Far Away [CD1]

Used drive : Optiarc DVD RW AD-7280S Adapter: 3 ID: 0

Read mode : Secure
Utilize accurate stream : Yes
Defeat audio cache : Yes
Make use of C2 pointers : No

Read offset correction

: 48
Overread into Lead-In and Lead-Out : No
Fill up missing offset samples with silence : Yes
Delete leading and trailing silent blocks : No
Null samples used in CRC calculations : Yes
Used interface
: Native Win32 interface for Win NT & 2000
Gap handling
: Appended to previous track

Used output format : User Defined Encoder
Selected bitrate : 768 kBit/s
Quality : High
Add ID3 tag : No
Command line compressor : C:\Program Files\Exact Audio Copy\Flac\flac.exe
Additional command line options : -V -8 -T "Genre=%genre%" -T "Artist=%artist%" -T "Title=%title%" -T "Album=%albumtitle%" -T "Date=%year%" -T "Tracknumber=%tracknr%" -T "Comment=%comment%" %source%

TOC of the extracted CD Track | Start | Length | Start sector | End sector
--1 | 0:00.00 | 2:30.10 | 0 | 11259 2 | 2:30.10 | 2:02.10 | 11260 | 20419 3 | 4:32.20 | 2:33.70 | 20420 | 31964 4 | 7:06.15 | 1:53.40 | 31965 | 40479 5 | 8:59.55 | 1:58.05 | 40480 | 49334 6 | 10:57.60 | 2:30.00 | 49335 | 60584 7 | 13:27.60 | 2:12.25 | 60585 | 70509 8 | 15:40.10 | 2:18.47 | 70510 | 80906 9 | 17:58.57 | 2:10.55 | 80907 | 90711
10 | 20:09.37 | 2:38.38 | 90712 | 102599
11 | 22:48.00 | 1:44.72 | 102600 | 110471
12 | 24:32.72 | 3:04.00 | 110472 | 124271
13 | 27:36.72 | 2:19.53 | 124272 | 134749
14 | 29:56.50 | 2:08.62 | 134750 | 144411
15 | 32:05.37 | 2:39.30 | 144412 | 156366
16 | 34:44.67 | 2:18.18 | 156367 | 166734
17 | 37:03.10 | 2:32.47 | 166735 | 178181
18 | 39:35.57 | 2:17.08 | 178182 | 188464
19 | 41:52.65 | 2:54.17 | 188465 | 201531
20 | 44:47.07 | 2:14.53 | 201532 | 211634
21 | 47:01.60 | 2:08.35 | 211635 | 221269
22 | 49:10.20 | 2:16.30 | 221270 | 231499
23 | 51:26.50 | 2:06.47 | 231500 | 240996

Track 1 Filename D:\CD\The Springfields - Over The Hills And Far Away (1997) [Philips 534 930-2]\CD1\01. Dear John.wav Pre-gap length 0:00:02.00 Peak level 99.2 %
Extraction speed 2.1 X
Track quality 100.0 %
Test CRC 2AE4283A
Copy CRC 2AE4283A
Accurately ripped (confidence 1) [9C1E9705] (AR v2)
Copy OK

Track 2 Filename D:\CD\The Springfields - Over The Hills And Far Away (1997) [Philips 534 930-2]\CD1\02. I Done What They Told Me.wav Pre-gap length 0:00:02.55 Peak level 100.0 %
Extraction speed 1.7 X
Track quality 99.9 %
Test CRC 2DAD00EC
Copy CRC 2DAD00EC
Accurately ripped (confidence 1) [74ABD289] (AR v2)
Copy OK

Track 3 Filename D:\CD\The Springfields - Over The Hills And Far Away (1997) [Philips 534 930-2]\CD1\03. Breakaway.wav Pre-gap length 0:00:02.55 Peak level 99.1 %
Extraction speed 2.4 X
Track quality 100.0 %
Test CRC 04781102
Copy CRC 04781102
Accurately ripped (confidence 1) [17C2AC8D] (AR v2)
Copy OK

Track 4 Filename D:\CD\The Springfields - Over The Hills And Far Away (1997) [Philips 534 930-2]\CD1\04. Good News.wav Pre-gap length 0:00:02.55 Peak level 100.0 %
Extraction speed 1.9 X
Track quality 99.9 %
Test CRC 8E471B62
Copy CRC 8E471B62
Accurately ripped (confidence 1) [C36F3E44] (AR v2)
Copy OK

Track 5 Filename D:\CD\The Springfields - Over The Hills And Far Away (1997) [Philips 534 930-2]\CD1\05. Wimoweh Mambo.wav Pre-gap length 0:00:02.55 Peak level 99.9 %
Extraction speed 2.5 X
Track quality 100.0 %
Test CRC 1C62B7E2
Copy CRC 1C62B7E2
Accurately ripped (confidence 1) [65E3CA17] (AR v2)
Copy OK

Track 6 Filename D:\CD\The Springfields - Over The Hills And Far Away (1997) [Philips 534 930-2]\CD1\06. The Black Hills Of Dakota.wav Pre-gap length 0:00:02.55 Peak level 99.6 %
Extraction speed 2.7 X
Track quality 100.0 %
Test CRC 92B295A8
Copy CRC 92B295A8
Accurately ripped (confidence 1) [3CEB3E57] (AR v2)
Copy OK

Track 7 Filename D:\CD\The Springfields - Over The Hills And Far Away (1997) [Philips 534 930-2]\CD1\07. Row, Row, Row.wav Pre-gap length 0:00:02.55 Peak level 87.4 %
Extraction speed 2.8 X
Track quality 100.0 %
Test CRC F74CE14F
Copy CRC F74CE14F
Accurately ripped (confidence 1) [F3236B08] (AR v2)
Copy OK

Track 8 Filename D:\CD\The Springfields - Over The Hills And Far Away (1997) [Philips 534 930-2]\CD1\08. The Green Leaves Of Summer.wav Pre-gap length 0:00:02.55 Peak level 81.0 %
Extraction speed 2.9 X
Track quality 100.0 %
Test CRC 3E7A329A
Copy CRC 3E7A329A
Accurately ripped (confidence 1) [25E9A61F] (AR v2)
Copy OK

Track 9 Filename D:\CD\The Springfields - Over The Hills And Far Away (1997) [Philips 534 930-2]\CD1\09. Silver Dollar.wav Pre-gap length 0:00:02.55 Peak level 100.0 %
Extraction speed 2.9 X
Track quality 100.0 %
Test CRC 6C0CBE1B
Copy CRC 6C0CBE1B
Accurately ripped (confidence 1) [43CBCCA2] (AR v2)
Copy OK

Track 10 Filename D:\CD\The Springfields - Over The Hills And Far Away (1997) [Philips 534 930-2]\CD1\10. Allentown Jail.wav Pre-gap length 0:00:02.57 Peak level 100.0 %
Extraction speed 3.2 X
Track quality 100.0 %
Test CRC B09CC2A0
Copy CRC B09CC2A0
Accurately ripped (confidence 1) [8306545D] (AR v2)
Copy OK

Track 11 Filename D:\CD\The Springfields - Over The Hills And Far Away (1997) [Philips 534 930-2]\CD1\11. Lonesome Traveller.wav Pre-gap length 0:00:01.55 Peak level 99.1 %
Extraction speed 3.0 X
Track quality 100.0 %
Test CRC 16AE34D4
Copy CRC 16AE34D4
Accurately ripped (confidence 1) [1AA9D73F] (AR v2)
Copy OK

Track 12 Filename D:\CD\The Springfields - Over The Hills And Far Away (1997) [Philips 534 930-2]\CD1\12. Dear Hearts And Gentle People.wav Pre-gap length 0:00:03.55 Peak level 77.8 %
Extraction speed 3.4 X
Track quality 100.0 %
Test CRC D8CE1A10
Copy CRC D8CE1A10
Accurately ripped (confidence 1) [9505406D] (AR v2)
Copy OK

Track 13 Filename D:\CD\The Springfields - Over The Hills And Far Away (1997) [Philips 534 930-2]\CD1\13. They Took John Away.wav Pre-gap length 0:00:02.55 Peak level 99.7 %
Extraction speed 3.4 X
Track quality 100.0 %
Test CRC C3821FB7
Copy CRC C3821FB7
Accurately ripped (confidence 1) [7AF81227] (AR v2)
Copy OK

Track 14 Filename D:\CD\The Springfields - Over The Hills And Far Away (1997) [Philips 534 930-2]\CD1\14. Eso Es El Amor.wav Pre-gap length 0:00:02.55 Peak level 86.1 %
Extraction speed 2.8 X
Track quality 99.9 %
Test CRC 4F799896
Copy CRC 4F799896
Accurately ripped (confidence 1) [52DA895C] (AR v2)
Copy OK

Track 15 Filename D:\CD\The Springfields - Over The Hills And Far Away (1997) [Philips 534 930-2]\CD1\15. Two Brothers.wav Pre-gap length 0:00:02.55 Peak level 76.7 %
Extraction speed 3.7 X
Track quality 100.0 %
Test CRC FE353264
Copy CRC FE353264
Accurately ripped (confidence 1) [78637451] (AR v2)
Copy OK

Track 16 Filename D:\CD\The Springfields - Over The Hills And Far Away (1997) [Philips 534 930-2]\CD1\16. Tzena, Tzena, Tzena.wav Pre-gap length 0:00:02.55 Peak level 89.1 %
Extraction speed 3.6 X
Track quality 100.0 %
Test CRC 93171D06
Copy CRC 93171D06
Accurately ripped (confidence 1) [EA93EA69] (AR v2)
Copy OK

Track 17 Filename D:\CD\The Springfields - Over The Hills And Far Away (1997) [Philips 534 930-2]\CD1\17. Bambino.wav Pre-gap length 0:00:02.55 Peak level 83.3 %
Extraction speed 3.8 X
Track quality 100.0 %
Test CRC FE5FDE1B
Copy CRC FE5FDE1B
Accurately ripped (confidence 1) [E2DA45F7] (AR v2)
Copy OK

Track 18 Filename D:\CD\The Springfields - Over The Hills And Far Away (1997) [Philips 534 930-2]\CD1\18. Goodnight Irene.wav Pre-gap length 0:00:01.55 Peak level 99.0 %
Extraction speed 3.1 X
Track quality 99.9 %
Test CRC 6004EE97
Copy CRC 6004EE97
Accurately ripped (confidence 1) [962A4AD2] (AR v2)
Copy OK

Track 19 Filename D:\CD\The Springfields - Over The Hills And Far Away (1997) [Philips 534 930-2]\CD1\19. Far Away Places.wav Pre-gap length 0:00:03.55 Peak level 71.3 %
Extraction speed 4.0 X
Track quality 100.0 %
Test CRC E065F472
Copy CRC E065F472
Accurately ripped (confidence 1) [6F7F3B3D] (AR v2)
Copy OK

Track 20 Filename D:\CD\The Springfields - Over The Hills And Far Away (1997) [Philips 534 930-2]\CD1\20. Silver Threads & Golden Needles.wav Pre-gap length 0:00:02.55 Peak level 99.2 %
Extraction speed 3.9 X
Track quality 100.0 %
Test CRC 3C55D8A4
Copy CRC 3C55D8A4
Accurately ripped (confidence 1) [2638B897] (AR v2)
Copy OK

Track 21 Filename D:\CD\The Springfields - Over The Hills And Far Away (1997) [Philips 534 930-2]\CD1\21. Aunt Rhody.wav Pre-gap length 0:00:02.55 Peak level 92.5 %
Extraction speed 3.2 X
Track quality 99.9 %
Test CRC DFCBD7DE
Copy CRC DFCBD7DE
Accurately ripped (confidence 1) [8EC9A6CB] (AR v2)
Copy OK

Track 22 Filename D:\CD\The Springfields - Over The Hills And Far Away (1997) [Philips 534 930-2]\CD1\22. Swahili Papa.wav Pre-gap length 0:00:02.55 Peak level 99.8 %
Extraction speed 4.1 X
Track quality 100.0 %
Test CRC A752AE1D
Copy CRC A752AE1D
Accurately ripped (confidence 1) [CF523793] (AR v2)
Copy OK

Track 23 Filename D:\CD\The Springfields - Over The Hills And Far Away (1997) [Philips 534 930-2]\CD1\23. Gotta Travel On.wav Pre-gap length 0:00:01.55 Peak level 99.5 %
Extraction speed 4.0 X
Track quality 100.0 %
Test CRC FDA1BB7D
Copy CRC FDA1BB7D
Accurately ripped (confidence 1) [3E253DD6] (AR v2)
Copy OK

All tracks accurately ripped

No errors occurred

End of status report

- CUETools DB Plugin V2.1.3

[CTDB TOCID: TUYrIFoBxM_hjc9xHXQJEmZRvoA-] found, Submit result: TUYrIFoBxM_hjc9xHXQJEmZRvoA- has been confirmed
[e3dc86c7] (1/1) Accurately ripped

==== Log checksum 8FDB90C80146EC8FC2F27CF8CBF8CA042BF71270FDB2274B3122ED846EDB24E2 ====

foobar2000 1.2 / Dynamic Range Meter 1.1.1
log date: 2015-10-18 13:16:49

Analyzed: The Springfields / Over The Hills And Far Away [CD1]

DR Peak RMS Duration Track

DR6 -0.06 dB -7.75 dB 2:30 01-Dear John
DR6 0.00 dB -7.29 dB 2:02 02-I Done What They Told Me
DR7 -0.07 dB -8.45 dB 2:34 03-Breakaway
DR5 0.00 dB -7.33 dB 1:54 04-Good News
DR5 -0.01 dB -6.63 dB 1:58 05-Wimoweh Mambo
DR6 -0.03 dB -7.91 dB 2:30 06-The Black Hills Of Dakota
DR4 -1.17 dB -6.87 dB 2:12 07-Row, Row, Row
DR6 -1.83 dB -10.13 dB 2:19 08-The Green Leaves Of Summer
DR7 0.00 dB -8.61 dB 2:11 09-Silver Dollar
DR7 0.00 dB -8.51 dB 2:39 10-Allentown Jail
DR8 -0.07 dB -9.51 dB 1:45 11-Lonesome Traveller
DR6 -2.17 dB -10.42 dB 3:04 12-Dear Hearts And Gentle People
DR7 -0.03 dB -8.88 dB 2:20 13-They Took John Away
DR5 -1.30 dB -8.51 dB 2:09 14-Eso Es El Amor
DR6 -2.30 dB -10.10 dB 2:39 15-Two Brothers
DR5 -1.00 dB -7.66 dB 2:18 16-Tzena, Tzena, Tzena
DR6 -1.59 dB -8.56 dB 2:33 17-Bambino
DR7 -0.08 dB -8.59 dB 2:17 18-Goodnight Irene
DR6 -2.94 dB -10.26 dB 2:54 19-Far Away Places
DR6 -0.07 dB -8.11 dB 2:15 20-Silver Threads & Golden Needles
DR6 -0.67 dB -8.55 dB 2:08 21-Aunt Rhody
DR6 -0.01 dB -7.07 dB 2:16 22-Swahili Papa
DR7 -0.04 dB -8.07 dB 2:07 23-Gotta Travel On

Number of tracks: 23
Official DR value: DR6

Samplerate: 44100 Hz
Channels: 2
Bits per sample: 16
Bitrate: 890 kbps
Codec: FLAC

Exact Audio Copy V1.0 beta 3 from 29. August 2011

EAC extraction logfile from 8. March 2015, 17:11

The Springfields / Over The Hills And Far Away [CD2]

Used drive : Optiarc DVD RW AD-7280S Adapter: 3 ID: 0

Read mode : Secure
Utilize accurate stream : Yes
Defeat audio cache : Yes
Make use of C2 pointers : No

Read offset correction

: 48
Overread into Lead-In and Lead-Out : No
Fill up missing offset samples with silence : Yes
Delete leading and trailing silent blocks : No
Null samples used in CRC calculations : Yes
Used interface
: Native Win32 interface for Win NT & 2000
Gap handling
: Appended to previous track

Used output format : User Defined Encoder
Selected bitrate : 768 kBit/s
Quality : High
Add ID3 tag : No
Command line compressor : C:\Program Files\Exact Audio Copy\Flac\flac.exe
Additional command line options : -V -8 -T "Genre=%genre%" -T "Artist=%artist%" -T "Title=%title%" -T "Album=%albumtitle%" -T "Date=%year%" -T "Tracknumber=%tracknr%" -T "Comment=%comment%" %source%

TOC of the extracted CD Track | Start | Length | Start sector | End sector
--1 | 0:00.00 | 2:39.47 | 0 | 11971 2 | 2:39.47 | 1:52.20 | 11972 | 20391 3 | 4:31.67 | 2:03.55 | 20392 | 29671 4 | 6:35.47 | 2:27.15 | 29672 | 40711 5 | 9:02.62 | 2:04.45 | 40712 | 50056 6 | 11:07.32 | 2:22.38 | 50057 | 60744 7 | 13:29.70 | 2:23.25 | 60745 | 71494 8 | 15:53.20 | 1:56.20 | 71495 | 80214 9 | 17:49.40 | 1:59.05 | 80215 | 89144
10 | 19:48.45 | 2:28.52 | 89145 | 100296
11 | 22:17.22 | 2:08.25 | 100297 | 109921
12 | 24:25.47 | 2:04.38 | 109922 | 119259
13 | 26:30.10 | 2:06.37 | 119260 | 128746
14 | 28:36.47 | 2:05.63 | 128747 | 138184
15 | 30:42.35 | 2:18.45 | 138185 | 148579
16 | 33:01.05 | 2:32.65 | 148580 | 160044
17 | 35:33.70 | 2:52.42 | 160045 | 172986
18 | 38:26.37 | 1:53.30 | 172987 | 181491
19 | 40:19.67 | 2:23.53 | 181492 | 192269
20 | 42:43.45 | 2:21.65 | 192270 | 202909
21 | 45:05.35 | 2:27.70 | 202910 | 214004
22 | 47:33.30 | 1:58.70 | 214005 | 222924
23 | 49:32.25 | 2:59.65 | 222925 | 236414
24 | 52:32.15 | 3:13.52 | 236415 | 250941

Track 1 Filename D:\CD\The Springfields - Over The Hills And Far Away (1997) [Philips 534 930-2]\CD2\01. Island Of Dreams.wav Pre-gap length 0:00:02.00 Peak level 75.2 %
Extraction speed 2.1 X
Track quality 100.0 %
Test CRC 70793CA6
Copy CRC 70793CA6
Accurately ripped (confidence 1) 580DB91 (AR v2)
Copy OK

Track 2 Filename D:\CD\The Springfields - Over The Hills And Far Away (1997) [Philips 534 930-2]\CD2\02. The Johnson Boys.wav Pre-gap length 0:00:02.55 Peak level 56.1 %
Extraction speed 2.1 X
Track quality 100.0 %
Test CRC C2470693
Copy CRC C2470693
Accurately ripped (confidence 1) [717EDC69] (AR v2)
Copy OK

Track 3 Filename D:\CD\The Springfields - Over The Hills And Far Away (1997) [Philips 534 930-2]\CD2\03. Settle Down.wav Pre-gap length 0:00:02.55 Peak level 99.5 %
Extraction speed 2.3 X
Track quality 100.0 %
Test CRC 570708DE
Copy CRC 570708DE
Accurately ripped (confidence 1) [36EADACC] (AR v2)
Copy OK

Track 4 Filename D:\CD\The Springfields - Over The Hills And Far Away (1997) [Philips 534 930-2]\CD2\04. There's A Big Wheel.wav Pre-gap length 0:00:02.55 Peak level 100.0 %
Extraction speed 2.5 X
Track quality 100.0 %
Test CRC CCC21D27
Copy CRC CCC21D27
Accurately ripped (confidence 1) [3D7501B4] (AR v2)
Copy OK

Track 5 Filename D:\CD\The Springfields - Over The Hills And Far Away (1997) [Philips 534 930-2]\CD2\05. Greenback Dollar.wav Pre-gap length 0:00:02.55 Peak level 100.0 %
Extraction speed 2.5 X
Track quality 100.0 %
Test CRC 28756409
Copy CRC 28756409
Accurately ripped (confidence 1) [C794F757] (AR v2)
Copy OK

Track 6 Filename D:\CD\The Springfields - Over The Hills And Far Away (1997) [Philips 534 930-2]\CD2\06. Midnight Special.wav Pre-gap length 0:00:02.57 Peak level 99.6 %
Extraction speed 2.7 X
Track quality 100.0 %
Test CRC C9D64097
Copy CRC C9D64097
Accurately ripped (confidence 1) [64074F50] (AR v2)
Copy OK

Track 7 Filename D:\CD\The Springfields - Over The Hills And Far Away (1997) [Philips 534 930-2]\CD2\07. Wabash Cannonball.wav Pre-gap length 0:00:02.55 Peak level 99.2 %
Extraction speed 2.8 X
Track quality 100.0 %
Test CRC 3CA7B0B8
Copy CRC 3CA7B0B8
Accurately ripped (confidence 1) [84CD5798] (AR v2)
Copy OK

Track 8 Filename D:\CD\The Springfields - Over The Hills And Far Away (1997) [Philips 534 930-2]\CD2\08. Alone With You.wav Pre-gap length 0:00:02.55 Peak level 100.0 %
Extraction speed 2.8 X
Track quality 100.0 %
Test CRC DF7AF143
Copy CRC DF7AF143
Accurately ripped (confidence 1) [A13764F7] (AR v2)
Copy OK

Track 9 Filename D:\CD\The Springfields - Over The Hills And Far Away (1997) [Philips 534 930-2]\CD2\09. Cottonfields.wav Pre-gap length 0:00:02.55 Peak level 98.2 %
Extraction speed 2.9 X
Track quality 100.0 %
Test CRC 0B000DA1
Copy CRC 0B000DA1
Accurately ripped (confidence 1) [1BDB4810] (AR v2)
Copy OK

Track 10 Filename D:\CD\The Springfields - Over The Hills And Far Away (1997) [Philips 534 930-2]\CD2\10. Foggy Mountain Top.wav Pre-gap length 0:00:02.55 Peak level 100.0 %
Extraction speed 2.6 X
Track quality 99.9 %
Test CRC B509E178
Copy CRC B509E178
Accurately ripped (confidence 1) [4BE03DB5] (AR v2)
Copy OK

Track 11 Filename D:\CD\The Springfields - Over The Hills And Far Away (1997) [Philips 534 930-2]\CD2\11. Little By Little.wav Pre-gap length 0:00:02.55 Peak level 100.0 %
Extraction speed 3.1 X
Track quality 100.0 %
Test CRC 126F5744
Copy CRC 126F5744
Accurately ripped (confidence 1) [A067BCC7] (AR v2)
Copy OK

Track 12 Filename D:\CD\The Springfields - Over The Hills And Far Away (1997) [Philips 534 930-2]\CD2\12. Maggie.wav Pre-gap length 0:00:02.55 Peak level 97.1 %
Extraction speed 2.6 X
Track quality 99.9 %
Test CRC F6B58E64
Copy CRC F6B58E64
Accurately ripped (confidence 1) [4D6D1A8A] (AR v2)
Copy OK

Track 13 Filename D:\CD\The Springfields - Over The Hills And Far Away (1997) [Philips 534 930-2]\CD2\13. Darling Allalee.wav Pre-gap length 0:00:02.55 Peak level 81.2 %
Extraction speed 2.7 X
Track quality 99.9 %
Test CRC C250736F
Copy CRC C250736F
Accurately ripped (confidence 1) [306CE4CB] (AR v2)
Copy OK

Track 14 Filename D:\CD\The Springfields - Over The Hills And Far Away (1997) [Philips 534 930-2]\CD2\14. Mountain Boy.wav Pre-gap length 0:00:02.55 Peak level 94.0 %
Extraction speed 2.7 X
Track quality 99.9 %
Test CRC F86F23E6
Copy CRC F86F23E6
Accurately ripped (confidence 1) [FAF03E90] (AR v2)
Copy OK

Track 15 Filename D:\CD\The Springfields - Over The Hills And Far Away (1997) [Philips 534 930-2]\CD2\15. My Baby's Gone.wav Pre-gap length 0:00:02.55 Peak level 73.9 %
Extraction speed 3.5 X
Track quality 100.0 %
Test CRC A95EB2C6
Copy CRC A95EB2C6
Accurately ripped (confidence 1) [AC234A27] (AR v2)
Copy OK

Track 16 Filename D:\CD\The Springfields - Over The Hills And Far Away (1997) [Philips 534 930-2]\CD2\16. Waf Woof.wav Pre-gap length 0:00:02.55 Peak level 90.1 %
Extraction speed 3.7 X
Track quality 100.0 %
Test CRC 4CA9217E
Copy CRC 4CA9217E
Accurately ripped (confidence 1) [3DB17D78] (AR v2)
Copy OK

Track 17 Filename D:\CD\The Springfields - Over The Hills And Far Away (1997) [Philips 534 930-2]\CD2\17. Say I Won't Be There.wav Pre-gap length 0:00:02.55 Peak level 76.0 %
Extraction speed 3.8 X
Track quality 100.0 %
Test CRC 5107491F
Copy CRC 5107491F
Accurately ripped (confidence 1) [353A70D8] (AR v2)
Copy OK

Track 18 Filename D:\CD\The Springfields - Over The Hills And Far Away (1997) [Philips 534 930-2]\CD2\18. Little Boat.wav Pre-gap length 0:00:02.55 Peak level 67.2 %
Extraction speed 3.5 X
Track quality 100.0 %
Test CRC 1CE6660C
Copy CRC 1CE6660C
Accurately ripped (confidence 1) 4B1BF69 (AR v2)
Copy OK

Track 19 Filename D:\CD\The Springfields - Over The Hills And Far Away (1997) [Philips 534 930-2]\CD2\19. Come On Home.wav Pre-gap length 0:00:02.55 Peak level 81.5 %
Extraction speed 3.8 X
Track quality 100.0 %
Test CRC 6DD0BE97
Copy CRC 6DD0BE97
Accurately ripped (confidence 1) [ACA2B6C8] (AR v2)
Copy OK

Track 20 Filename D:\CD\The Springfields - Over The Hills And Far Away (1997) [Philips 534 930-2]\CD2\20. Pit-A-Pat.wav Pre-gap length 0:00:02.55 Peak level 72.7 %
Extraction speed 3.9 X
Track quality 100.0 %
Test CRC A18B038B
Copy CRC A18B038B
Accurately ripped (confidence 1) [D228A79D] (AR v2)
Copy OK

Track 21 Filename D:\CD\The Springfields - Over The Hills And Far Away (1997) [Philips 534 930-2]\CD2\21. If I Was Down And Out.wav Pre-gap length 0:00:02.55 Peak level 85.1 %
Extraction speed 4.0 X
Track quality 100.0 %
Test CRC 6C76FC7D
Copy CRC 6C76FC7D
Accurately ripped (confidence 1) [17665316] (AR v2)
Copy OK

Track 22 Filename D:\CD\The Springfields - Over The Hills And Far Away (1997) [Philips 534 930-2]\CD2\22. Marcabamba.wav Pre-gap length 0:00:02.55 Peak level 78.9 %
Extraction speed 4.0 X
Track quality 100.0 %
Test CRC 4499393C
Copy CRC 4499393C
Accurately ripped (confidence 1) 1D4DA3B (AR v2)
Copy OK

Track 23 Filename D:\CD\The Springfields - Over The Hills And Far Away (1997) [Philips 534 930-2]\CD2\23. No Sad Songs For Me.wav Pre-gap length 0:00:02.55 Peak level 68.0 %
Extraction speed 4.3 X
Track quality 100.0 %
Test CRC AAD526C0
Copy CRC AAD526C0
Accurately ripped (confidence 1) [584064A5] (AR v2)
Copy OK

Track 24 Filename D:\CD\The Springfields - Over The Hills And Far Away (1997) [Philips 534 930-2]\CD2\24. Where Have All The Flowers Gone (Sag Mir, Wo Die Blumen Sind).wav Pre-gap length 0:00:02.55 Peak level 65.4 %
Extraction speed 4.5 X
Track quality 100.0 %
Test CRC 1E6060C3
Copy CRC 1E6060C3
Accurately ripped (confidence 1) [3316CE86] (AR v2)
Copy OK

All tracks accurately ripped

No errors occurred

End of status report

- CUETools DB Plugin V2.1.3

[CTDB TOCID: eLFed1nRDr3QUiTKX4Ny8DDkBo4-] found, Submit result: eLFed1nRDr3QUiTKX4Ny8DDkBo4- has been confirmed
[fe0671b2] (1/1) Accurately ripped

==== Log checksum 7764D5682C4EFA1F4D6289E086690A849AFE794F516B7B365C9F491CF53C95B1 ====

foobar2000 1.2 / Dynamic Range Meter 1.1.1
log date: 2015-10-18 13:17:07

Analyzed: The Springfields / Over The Hills And Far Away [CD2]

DR Peak RMS Duration Track

DR7 -2.47 dB -10.79 dB 2:40 01-Island Of Dreams
DR6 -5.02 dB -11.85 dB 1:52 02-The Johnson Boys
DR10 -0.04 dB -12.02 dB 2:04 03-Settle Down
DR9 0.00 dB -10.61 dB 2:27 04-There's A Big Wheel
DR12 0.00 dB -13.41 dB 2:05 05-Greenback Dollar
DR11 -0.03 dB -12.22 dB 2:23 06-Midnight Special
DR10 -0.07 dB -11.80 dB 2:23 07-Wabash Cannonball
DR12 0.00 dB -14.44 dB 1:56 08-Alone With You
DR10 -0.16 dB -11.42 dB 1:59 09-Cottonfields
DR11 0.00 dB -13.05 dB 2:29 10-Foggy Mountain Top
DR9 0.00 dB -11.40 dB 2:08 11-Little By Little
DR12 -0.25 dB -15.26 dB 2:05 12-Maggie
DR10 -1.80 dB -13.77 dB 2:06 13-Darling Allalee
DR11 -0.53 dB -13.28 dB 2:06 14-Mountain Boy
DR10 -2.62 dB -14.40 dB 2:19 15-My Baby's Gone
DR12 -0.90 dB -14.58 dB 2:33 16-Waf Woof
DR4 -2.37 dB -8.48 dB 2:53 17-Say I Won't Be There
DR6 -3.44 dB -11.27 dB 1:53 18-Little Boat
DR6 -1.77 dB -9.07 dB 2:24 19-Come On Home
DR7 -2.77 dB -11.56 dB 2:22 20-Pit-A-Pat
DR6 -1.40 dB -8.70 dB 2:28 21-If I Was Down And Out
DR6 -2.05 dB -9.53 dB 1:59 22-Marcabamba
DR6 -3.34 dB -11.62 dB 3:00 23-No Sad Songs For Me
DR5 -3.68 dB -11.30 dB 3:14 24-Where Have All The Flowers Gone? (Sag Mir, Wo Die Blumen Sind)

Number of tracks: 24
Official DR value: DR9

Samplerate: 44100 Hz
Channels: 2
Bits per sample: 16
Bitrate: 859 kbps
Codec: FLAC

The Springfields - Over The Hills And Far Away (1997) 2CD

The Springfields - Over The Hills And Far Away (1997) 2CD

All thanks to original releaser - bachelor-62
Password: designol

DOWNLOAD LINKS
Buy Premium From My Links To Get Resumable Support & Max Speed & To Support Me


Links are Interchangeable - No Password - Single Extraction
Direct Download

Tags: Springfields

The Springfields - Over The Hills And Far Away (1997) 2CD Download via Hotfile Rapidshare Fileserve Megaupload & FileSonic, The Springfields - Over The Hills And Far Away (1997) 2CD free torrent downloads included crack, serial, keygen.The Springfields - Over The Hills And Far Away (1997) 2CD Fast Download via Rapidshare Hotfile Fileserve Filesonic Megaupload, The Springfields - Over The Hills And Far Away (1997) 2CD Torrents and Emule Download or anything related.
Leave a Comment
Your Name:
E-Mail:
Add Comments:

Enter Code: