Jordi Savall - Erasmus von Rotterdam: Eloge de la Folie (2013) [6CD Set] {Alia Vox}

Download Now


Jordi Savall - Erasmus von Rotterdam: Eloge de la Folie (2013) [6CD Set] {Alia Vox}
Jordi Savall - Erasmus von Rotterdam: Eloge de la Folie (2013) [6CD Set] {Alia Vox}
EAC rip (secure mode) | FLAC (tracks)+CUE+LOG -> 2.06 Gb | MP3 @320 -> 1.03 Gb | Artwork @ 300 dpi (jpg) -> 22 Mb | 5% repair rar
© 2011 Alia Vox | AVSA9895A+F
Classical / Renaissance / Vocal Music / Chamber Music

"This new project is a Tribute to Erasmus (1466-1536), a Dutch Renaissance scholar, known as the 'Prince of the Humanists'. Using humanist techniques for working on texts, he prepared important new Latin and Greek editions of the New Testament and also wrote 'In Praise of Folly', 'Handbook of a Christian Knight' and many other works. Erasmus lived against the backdrop of the growing European religious Reformation; but while he was critical of the abuses within the Church and called for reform, he kept his distance from Luther and Melancthon and continued to recognise the authority of the Pope. His middle of the road approach disappointed and even angered scholars in both camps. Jordi Savall regards him as a model of wisdom and tolerance."

Jordi Savall - Erasmus von Rotterdam: Eloge de la Folie (2013) [6CD Set] {Alia Vox}

"SACD 1 features highlights of the Praise of the Folly (recited in French) mixed with 22 "Folias", including 5 new recordings and 17 pieces from"La Folia" and "Altre Folie".

SACD 2 and 3 feature new recordings of music from the times of Erasmus, mixed with texts by Erasmus and Luther (recited in French).

SACD 3, 4 and 6 contains themusic of CD 1, 2 and 3 without the spoken texts."


Jordi Savall - Erasmus von Rotterdam: Eloge de la Folie (2013) [6CD Set] {Alia Vox}


Alia Vox INFO

Personnel: Jordi Savall, cond; La Capella Reial de Catalunya; Hespèrion XXI

tracklist:
CD 1. Éloge de la Folie

I
1/2 Folias / La Folie, par sa seule présence.
3/4 Yo Soy La Locura. H. Bailly / La Folie est conduite
5/6 Origines de la Folie / La Folia. Diego Ortiz
7 Son lieu de naissance, ses années d'enfance.
8/9 Ses suivantes / La Gamba. Vincenzo Ruffo
10 Des titres qu'a la Folie - Romanesca. A. Mudarra
11/12 Folía / Comment elle perpétue l'espèce humaine.
13/14 Comment elle fait le bonheur / Si habrá. Enzina
15/16 Des liens qui unissent / Las Vacas. Anonyme

II
17 Comment elle prolonge l'Enfance - Folías antiguas
18 De la Folie dans le monde - Harke, harke. T. Hume
19/20 Browning. Woodcock / Elle est nécessaire / Belle qui tiens
21/22 Il n'est point de mariage / Cucú, cucucú ! J. del Enzina
23/24 La Folie est le bien / Todos los buenos soldados. M. Flecha
25 Elle inspire les exploits guerriers - La Battaglia
26 De l'infériorité de cette même sagesse.
27/28 Elle est mère des arts. Dompe / Saltarello - Anonyme

III
29/30 Elle revendique la palme / Elle est un guide de sagesse.
31 La Folie et l'ignorance - Desperada. Anonyme
32/33 La Spagna. s. XV / Folie des Rois - Las Vacas
34/35 Folie des Evêques / Des rapports de la religion
36 La Folie est le souverain bien - Dios te salve. Anonyme.
37/38 Diferencias Sobre Las Vacas. A. Cabezón / Adieu au lecteur
39 Villancico: Hoy comamos y bevamos. J. del Enzina

CD 2. Le temps & la vie d'un grand humaniste
TEMPS DE RÉFLEXIONS

1 Constantinople ottomane / Makam « Muhayyer pesrev »
2 Érasme sur la Guerre contre les Turcs. Taksim (improv.)

I
3 Naissance à Rotterdam / Une musique de Buscaye. Josquin
4 Lorenzo da Medici à Florence / A Florence la joyose cité
5 Adage : La fortune sourit aux audacieux / Fortuna. Josquin
6 Erasme prononce ses vœux / Audi, benigne Conditor. Dufay
7 Le prince Djem au Vatican / Taskim & Danse. Ottoman
8/9 Expulsion des Juifs d'Espagne / Lavava y suspirava

II
10 Début du règne de Maximilien I / Malor me bat. Ockeghem
11 Séjour à Paris / Benedic anima mea. Claude de Sermisy
12 Mort d'Ockeghem / Épitaphe pour Jean d'Ockeghem
13 La déploration sur la mort d'Ockeghem. Josquin des Prez
14 Mariage de Philippe le Beau et Juana la Loca / Latura tu
15 Le Panégyrique de Philippe le Beau / Adieu mes amours
16 Séjour en Angleterre / Hélas madame (Henry VIII)
17 Adage. L'amour rend musicien / De tous biens plaine. Hayne

III
18 Naissance de Charles V / In te Domine speravi. Josquin
19 Enchiridion. L'importance des classiques / Ave maris stella
Érasme L'Éloge de la folie, dédié à Thomas More.
20 Henry VIII roi d'Angleterre. Puzzle-Canon II (Henry VIII)
21 Ligue de Cambrai / Scaramella va alla guerra. Josquin
22 La guerre paraît douce à ceux qui n'en ont pas l'expérience.
23 Danza Alta (instrumental) - Francisco de la Torre
24/25 Séjour en Italie. Lettre d'Érasme à Th. More / Home again

Jordi Savall - Erasmus von Rotterdam: Eloge de la Folie (2013) [6CD Set] {Alia Vox}


CD 3 : Le Temps & La Vie d'un grand Humaniste
TEMPS DE CONFRONTATIONS

IV
1 Machiavel publie « Il Principe » / Paduana del Re. Anon.
2 Le Prince de Machiavel / Gallarda. Gesualdo
3 Conseiller du Duc Charles. La Spagna, à 5 - Josquin
4 Érasme. Institution du Prince Chrétien / Hymne, Cabezón
5 Les Ottomans envahissent la Syrie/« Rast Murass'a »
6 Th. Moro Utopie : Sur la Justice et la prospérité sociale. Musique : Puzzle-canon I - John Lloyd
7 Séjour a Louvain / Adoramus te Domine. Anonyme

V
8 Érasme La Complainte de la Paix / Mille regretz. Josquin
9 Romance: Ya es tiempo de recoger. Lope de Vega
10 Luther fixe ses 95 thèses. Lettre de Luther à Érasme / Psalm
11 Benedictus à 3. Heinrich Isaac
12 Lettre d'Érasme à Martin Luther / In Nomine à 5, Anon.
13 Vingtcinquiesme Fantasie. A 4 - Eustache Du Caurroy
14 Séjour à Bale. Lettre de Luther à Érasme (15 avril 1524)
Psalm : Christ ist erstanden. Hans Leo Hassler

VI
15 Érasme à Luther Diatribe du libre arbitre / In Nomine. Tye
16 Bataille de Pavie. Voyage d'Érasme à Paris. « La Bataille »
17 Lettre d'Érasme a François 1er / Pavane. J. Moderne
18 Défaite des Ottomans devant Vienne / Chant Ottoman
19 Bâle passe à la Réforme. Tu pauperum refugium. Josquin
20 M. Luther à Érasme Du serf arbitre / Psalm Christ lag
21 Christ ist erstanden à 6 v. - Heinrich Isaac

VII
22 Adage : Les mots sont les médecins des âmes malades
23 Henry VIII fait exécuter Thomas Moro / Nomine My Death
24 12 Juillet Érasme meurt à Bâle. Pie Jesu Domine. Morales
25 La Mort d'Érasme. (Stefan Zweig)
26 Plangite Pierides (Planctus pour Erasme). B. Appenzeller
27 Le Legs spirituel d'Érasme / Durezze e ligature. Trabaci

CDs 4, 5 & 6 Les musiques seules sans les recits

Exact Audio Copy V1.0 beta 3 from 29. August 2011

EAC extraction logfile from 11. February 2013, 19:40

Various / Erasme de Rotterdam - Eloge de la Folie CD 1

Used drive : HL-DT-STDVD-ROM GDR8162B Adapter: 1 ID: 1

Read mode : Secure
Utilize accurate stream : Yes
Defeat audio cache : Yes
Make use of C2 pointers : No

Read offset correction

: 102
Overread into Lead-In and Lead-Out : No
Fill up missing offset samples with silence : Yes
Delete leading and trailing silent blocks : No
Null samples used in CRC calculations : Yes
Used interface
: Installed external ASPI interface
Gap handling
: Appended to previous track

Used output format : User Defined Encoder
Selected bitrate : 1024 kBit/s
Quality : High
Add ID3 tag : No
Command line compressor : C:\EAC\Flac\flac.exe
Additional command line options : -8 -V -T "ARTIST=%artist%" -T "TITLE=%title%" -T "ALBUM=%albumtitle%" -T "DATE=%year%" -T "TRACKNUMBER=%tracknr%" -T "GENRE=%genre%" -T "PERFORMER=%albuminterpret%" -T "COMPOSER=%composer%" %haslyrics%--tag-from-file=LYRICS="%lyricsfile%"%haslyrics% -T "ALBUMARTIST=%albumartist%" -T "DISCNUMBER=%cdnumber%" -T "TOTALDISCS=%totalcds%" -T "TOTALTRACKS=%numtracks%" -T "COMMENT=%comment%" %source% -o %dest%

TOC of the extracted CD Track | Start | Length | Start sector | End sector
--1 | 0:00.00 | 1:44.06 | 0 | 7805 2 | 1:44.06 | 1:45.69 | 7806 | 15749 3 | 3:30.00 | 2:38.05 | 15750 | 27604 4 | 6:08.05 | 0:53.50 | 27605 | 31629 5 | 7:01.55 | 2:11.24 | 31630 | 41478 6 | 9:13.04 | 1:28.15 | 41479 | 48093 7 | 10:41.19 | 1:37.66 | 48094 | 55434 8 | 12:19.10 | 1:21.71 | 55435 | 61580 9 | 13:41.06 | 1:56.43 | 61581 | 70323
10 | 15:37.49 | 0:52.41 | 70324 | 74264
11 | 16:30.15 | 3:09.49 | 74265 | 88488
12 | 19:39.64 | 1:44.67 | 88489 | 96355
13 | 21:24.56 | 0:50.55 | 96356 | 100160
14 | 22:15.36 | 1:28.36 | 100161 | 106796
15 | 23:43.72 | 1:55.45 | 106797 | 115466
16 | 25:39.42 | 1:56.46 | 115467 | 124212
17 | 27:36.13 | 1:43.18 | 124213 | 131955
18 | 29:19.31 | 2:03.31 | 131956 | 141211
19 | 31:22.62 | 2:23.68 | 141212 | 152004
20 | 33:46.55 | 1:30.14 | 152005 | 158768
21 | 35:16.69 | 0:51.35 | 158769 | 162628
22 | 36:08.29 | 0:55.38 | 162629 | 166791
23 | 37:03.67 | 1:40.55 | 166792 | 174346
24 | 38:44.47 | 1:43.57 | 174347 | 182128
25 | 40:28.29 | 1:47.70 | 182129 | 190223
26 | 42:16.24 | 2:03.10 | 190224 | 199458
27 | 44:19.34 | 3:00.59 | 199459 | 213017
28 | 47:20.18 | 1:05.65 | 213018 | 217957
29 | 48:26.08 | 3:42.46 | 217958 | 234653
30 | 52:08.54 | 2:07.18 | 234654 | 244196
31 | 54:15.72 | 1:47.00 | 244197 | 252221
32 | 56:02.72 | 1:37.69 | 252222 | 259565
33 | 57:40.66 | 3:46.60 | 259566 | 276575
34 | 61:27.51 | 4:55.21 | 276576 | 298721
35 | 66:22.72 | 3:15.00 | 298722 | 313346
36 | 69:37.72 | 2:37.08 | 313347 | 325129
37 | 72:15.05 | 2:34.37 | 325130 | 336716
38 | 74:49.42 | 1:27.12 | 336717 | 343253
39 | 76:16.54 | 2:31.00 | 343254 | 354578

Track 1 Filename C:\EAC\Various - Erasme de Rotterdam - Eloge de la Folie CD 1\01 - Folias (imperfectas).wav Pre-gap length 0:00:02.00 Peak level 14.8 %
Extraction speed 2.4 X
Track quality 100.0 %
Test CRC 50F0F50E
Copy CRC 50F0F50E
Track not present in AccurateRip database
Copy OK

Track 2 Filename C:\EAC\Various - Erasme de Rotterdam - Eloge de la Folie CD 1\02 - I- La Folie, par sa seule presence, dirige les soucis de ses auditeurs.wav Peak level 58.2 %
Extraction speed 2.0 X
Track quality 99.8 %
Test CRC 49CC1CB3
Copy CRC 49CC1CB3
Track not present in AccurateRip database
Copy OK

Track 3 Filename C:\EAC\Various - Erasme de Rotterdam - Eloge de la Folie CD 1\03 - La Folia- Yo Soy La Locura.wav Peak level 81.5 %
Extraction speed 2.9 X
Track quality 100.0 %
Test CRC E2556AB6
Copy CRC E2556AB6
Track not present in AccurateRip database
Copy OK

Track 4 Filename C:\EAC\Various - Erasme de Rotterdam - Eloge de la Folie CD 1\04 - III- Comment la Folie est conduite a faire son propre Eloge - Musique- Passamezzo Antico.wav Peak level 36.5 %
Extraction speed 2.2 X
Track quality 100.0 %
Test CRC 7C90EE71
Copy CRC 7C90EE71
Track not present in AccurateRip database
Copy OK

Track 5 Filename C:\EAC\Various - Erasme de Rotterdam - Eloge de la Folie CD 1\05 - VII- Origines de la Folie.wav Peak level 79.3 %
Extraction speed 3.0 X
Track quality 100.0 %
Test CRC 2FA395F9
Copy CRC 2FA395F9
Track not present in AccurateRip database
Copy OK

Track 6 Filename C:\EAC\Various - Erasme de Rotterdam - Eloge de la Folie CD 1\06 - Recercada quarta sobre la Folia.wav Peak level 35.9 %
Extraction speed 2.8 X
Track quality 100.0 %
Test CRC 00422730
Copy CRC 00422730
Track not present in AccurateRip database
Copy OK

Track 7 Filename C:\EAC\Various - Erasme de Rotterdam - Eloge de la Folie CD 1\07 - VIII- Son lieu de naissance, ses annees d'enfance - Musique- Folias de la costa.wav Peak level 47.2 %
Extraction speed 2.9 X
Track quality 100.0 %
Test CRC 20BD1941
Copy CRC 20BD1941
Track not present in AccurateRip database
Copy OK

Track 8 Filename C:\EAC\Various - Erasme de Rotterdam - Eloge de la Folie CD 1\08 - IX- Ses suivantes.wav Peak level 34.0 %
Extraction speed 2.8 X
Track quality 100.0 %
Test CRC D2B542A5
Copy CRC D2B542A5
Track not present in AccurateRip database
Copy OK

Track 9 Filename C:\EAC\Various - Erasme de Rotterdam - Eloge de la Folie CD 1\09 - La Gamba In Basso, E Soprano.wav Peak level 43.4 %
Extraction speed 3.2 X
Track quality 100.0 %
Test CRC 8D9B49B8
Copy CRC 8D9B49B8
Track not present in AccurateRip database
Copy OK

Track 10 Filename C:\EAC\Various - Erasme de Rotterdam - Eloge de la Folie CD 1\10 - X- Des titres qu'a la Folie a figurer parmi les deesses - Musique- Romanesca.wav Peak level 35.0 %
Extraction speed 2.6 X
Track quality 100.0 %
Test CRC C66EF40C
Copy CRC C66EF40C
Track not present in AccurateRip database
Copy OK

Track 11 Filename C:\EAC\Various - Erasme de Rotterdam - Eloge de la Folie CD 1\11 - Folia - Rodrigo Martinez.wav Peak level 55.8 %
Extraction speed 3.7 X
Track quality 100.0 %
Test CRC A7915EA3
Copy CRC A7915EA3
Track not present in AccurateRip database
Copy OK

Track 12 Filename C:\EAC\Various - Erasme de Rotterdam - Eloge de la Folie CD 1\12 - XI- Comment elle perpetue l'espece humaine - Musique- Folia - Rodrigo Martinez.wav Peak level 54.3 %
Extraction speed 2.7 X
Track quality 99.8 %
Test CRC 24DF964F
Copy CRC 24DF964F
Track not present in AccurateRip database
Copy OK

Track 13 Filename C:\EAC\Various - Erasme de Rotterdam - Eloge de la Folie CD 1\13 - XII- Comment elle fait le bonheur de la vie.wav Peak level 65.6 %
Extraction speed 2.7 X
Track quality 100.0 %
Test CRC F4B76E27
Copy CRC F4B76E27
Track not present in AccurateRip database
Copy OK

Track 14 Filename C:\EAC\Various - Erasme de Rotterdam - Eloge de la Folie CD 1\14 - Si habra en este baldres.wav Peak level 48.6 %
Extraction speed 3.3 X
Track quality 100.0 %
Test CRC 7C1D1BB0
Copy CRC 7C1D1BB0
Track not present in AccurateRip database
Copy OK

Track 15 Filename C:\EAC\Various - Erasme de Rotterdam - Eloge de la Folie CD 1\15 - XIII- Des liens qui unissent la Folie et l'enfance et cette seconde enfance qu'est la vieillesse - Musique- Las Vacas.wav Peak level 34.1 %
Extraction speed 3.6 X
Track quality 100.0 %
Test CRC 2D08037B
Copy CRC 2D08037B
Track not present in AccurateRip database
Copy OK

Track 16 Filename C:\EAC\Various - Erasme de Rotterdam - Eloge de la Folie CD 1\16 - Diferencias Sobre Las Vacas.wav Peak level 47.2 %
Extraction speed 3.7 X
Track quality 100.0 %
Test CRC B78EBB73
Copy CRC B78EBB73
Track not present in AccurateRip database
Copy OK

Track 17 Filename C:\EAC\Various - Erasme de Rotterdam - Eloge de la Folie CD 1\17 - XIV- Comment elle prolonge l'Enfance et recule la Vieillesse - Musique- Folias antiguas.wav Peak level 40.8 %
Extraction speed 2.9 X
Track quality 99.8 %
Test CRC 301AC302
Copy CRC 301AC302
Track not present in AccurateRip database
Copy OK

Track 18 Filename C:\EAC\Various - Erasme de Rotterdam - Eloge de la Folie CD 1\18 - XVI- De la preeminence de la Folie dans le monde - Musique- Harke, harke.wav Peak level 44.0 %
Extraction speed 3.9 X
Track quality 100.0 %
Test CRC 544C6BFD
Copy CRC 544C6BFD
Track not present in AccurateRip database
Copy OK

Track 19 Filename C:\EAC\Various - Erasme de Rotterdam - Eloge de la Folie CD 1\19 - Browning my dear.wav Peak level 37.7 %
Extraction speed 4.1 X
Track quality 100.0 %
Test CRC F28DFC40
Copy CRC F28DFC40
Track not present in AccurateRip database
Copy OK

Track 20 Filename C:\EAC\Various - Erasme de Rotterdam - Eloge de la Folie CD 1\20 - XIX- La Folie est necessaire a l'amitie - Musique- Belle qui tiens ma vie.wav Peak level 35.8 %
Extraction speed 3.7 X
Track quality 100.0 %
Test CRC 3C62E0DF
Copy CRC 3C62E0DF
Track not present in AccurateRip database
Copy OK

Track 21 Filename C:\EAC\Various - Erasme de Rotterdam - Eloge de la Folie CD 1\21 - XX- Il n'est point de mariage durable sans la complicite de la Folie.wav Peak level 30.4 %
Extraction speed 2.2 X
Track quality 99.7 %
Test CRC F4A4E963
Copy CRC F4A4E963
Track not present in AccurateRip database
Copy OK

Track 22 Filename C:\EAC\Various - Erasme de Rotterdam - Eloge de la Folie CD 1\22 - Cucu, cucu, cucucu !.wav Peak level 56.6 %
Extraction speed 3.2 X
Track quality 100.0 %
Test CRC A44E7862
Copy CRC A44E7862
Track not present in AccurateRip database
Copy OK

Track 23 Filename C:\EAC\Various - Erasme de Rotterdam - Eloge de la Folie CD 1\23 - XXI- La Folie est le bien de la societe humaine - Musique- Paduana del Re.wav Peak level 68.2 %
Extraction speed 3.9 X
Track quality 100.0 %
Test CRC 1C6A55C2
Copy CRC 1C6A55C2
Track not present in AccurateRip database
Copy OK

Track 24 Filename C:\EAC\Various - Erasme de Rotterdam - Eloge de la Folie CD 1\24 - Todos los buenos soldados (La Guerra).wav Peak level 99.3 %
Extraction speed 4.1 X
Track quality 100.0 %
Test CRC FB8A8A77
Copy CRC FB8A8A77
Track not present in AccurateRip database
Copy OK

Track 25 Filename C:\EAC\Various - Erasme de Rotterdam - Eloge de la Folie CD 1\25 - XXIII- Elle inspire les exploits guerriers - Musique- Pavana La Battaglia.wav Peak level 61.1 %
Extraction speed 4.1 X
Track quality 100.0 %
Test CRC ADFE3A7F
Copy CRC ADFE3A7F
Track not present in AccurateRip database
Copy OK

Track 26 Filename C:\EAC\Various - Erasme de Rotterdam - Eloge de la Folie CD 1\26 - XXV- De l'inferiorite de cette meme sagesse dans toutes les circonstances de la vie - Musique- Vederlo.wav Peak level 44.4 %
Extraction speed 3.6 X
Track quality 99.9 %
Test CRC 3131B3A0
Copy CRC 3131B3A0
Track not present in AccurateRip database
Copy OK

Track 27 Filename C:\EAC\Various - Erasme de Rotterdam - Eloge de la Folie CD 1\27 - XXVIII- Elle est mere des arts - Musique- Lady Carey's Dompe.wav Peak level 46.9 %
Extraction speed 4.8 X
Track quality 100.0 %
Test CRC 690E10B0
Copy CRC 690E10B0
Track not present in AccurateRip database
Copy OK

Track 28 Filename C:\EAC\Various - Erasme de Rotterdam - Eloge de la Folie CD 1\28 - Saltarello.wav Peak level 26.4 %
Extraction speed 3.8 X
Track quality 100.0 %
Test CRC A61DFB63
Copy CRC A61DFB63
Track not present in AccurateRip database
Copy OK

Track 29 Filename C:\EAC\Various - Erasme de Rotterdam - Eloge de la Folie CD 1\29 - XXIX- Elle revendique elle meme la palme de la sagesse vraie - Musique- Las Vacas.wav Peak level 45.0 %
Extraction speed 5.1 X
Track quality 100.0 %
Test CRC 9146E05C
Copy CRC 9146E05C
Track not present in AccurateRip database
Copy OK

Track 30 Filename C:\EAC\Various - Erasme de Rotterdam - Eloge de la Folie CD 1\30 - XXX- Comment la Folie est un guide de sagesse - Musique- Pavana con su Glosa.wav Peak level 75.6 %
Extraction speed 4.7 X
Track quality 100.0 %
Test CRC 9CEEAFC8
Copy CRC 9CEEAFC8
Track not present in AccurateRip database
Copy OK

Track 31 Filename C:\EAC\Various - Erasme de Rotterdam - Eloge de la Folie CD 1\31 - XXXII- Des rapports de la Folie avec l'ignorance - Musique- Desperada.wav Peak level 61.6 %
Extraction speed 4.5 X
Track quality 100.0 %
Test CRC C8790FE6
Copy CRC C8790FE6
Track not present in AccurateRip database
Copy OK

Track 32 Filename C:\EAC\Various - Erasme de Rotterdam - Eloge de la Folie CD 1\32 - La Spagna.wav Peak level 33.2 %
Extraction speed 3.5 X
Track quality 99.8 %
Test CRC 15F2867D
Copy CRC 15F2867D
Track not present in AccurateRip database
Copy OK

Track 33 Filename C:\EAC\Various - Erasme de Rotterdam - Eloge de la Folie CD 1\33 - LV- Folie des Rois - Musique- Las Vacas.wav Peak level 81.3 %
Extraction speed 5.4 X
Track quality 100.0 %
Test CRC D171172D
Copy CRC D171172D
Track not present in AccurateRip database
Copy OK

Track 34 Filename C:\EAC\Various - Erasme de Rotterdam - Eloge de la Folie CD 1\34 - LVII - LIX- Folie des Eveques, des cardinaux et des souverains pontifes - Musique- Estas noches tan largas.wav Peak level 57.7 %
Extraction speed 5.7 X
Track quality 100.0 %
Test CRC D8D8F107
Copy CRC D8D8F107
Track not present in AccurateRip database
Copy OK

Track 35 Filename C:\EAC\Various - Erasme de Rotterdam - Eloge de la Folie CD 1\35 - LXVI- Des rapports de la religion chretienne avec la Folie - Musique- Patres nostri peccaverunt.wav Peak level 39.5 %
Extraction speed 5.5 X
Track quality 100.0 %
Test CRC B9CC6F13
Copy CRC B9CC6F13
Track not present in AccurateRip database
Copy OK

Track 36 Filename C:\EAC\Various - Erasme de Rotterdam - Eloge de la Folie CD 1\36 - LXVII- La Folie est le souverain bien - Musique- Dios te salve, Cruz preciosa.wav Peak level 39.5 %
Extraction speed 5.4 X
Track quality 100.0 %
Test CRC C3D72403
Copy CRC C3D72403
Track not present in AccurateRip database
Copy OK

Track 37 Filename C:\EAC\Various - Erasme de Rotterdam - Eloge de la Folie CD 1\37 - Diferencias sobre Las Vacas.wav Peak level 31.9 %
Extraction speed 5.5 X
Track quality 100.0 %
Test CRC 08B63AFB
Copy CRC 08B63AFB
Track not present in AccurateRip database
Copy OK

Track 38 Filename C:\EAC\Various - Erasme de Rotterdam - Eloge de la Folie CD 1\38 - LXVIII- Adieu au lecteur - Musique- Folias Portuguesas.wav Peak level 48.2 %
Extraction speed 4.8 X
Track quality 100.0 %
Test CRC 3F811D7A
Copy CRC 3F811D7A
Track not present in AccurateRip database
Copy OK

Track 39 Filename C:\EAC\Various - Erasme de Rotterdam - Eloge de la Folie CD 1\39 - Villancico- Hoy comamos y bevamos.wav Peak level 43.3 %
Extraction speed 5.5 X
Track quality 100.0 %
Test CRC C3F95686
Copy CRC C3F95686
Track not present in AccurateRip database
Copy OK

None of the tracks are present in the AccurateRip database

No errors occurred

End of status report

==== Log checksum 512F0956BD41C277632E8BA16A4CDB23AC0CB1FD367E066F2FE95F6D1D8B078D ====

Exact Audio Copy V1.0 beta 3 from 29. August 2011

EAC extraction logfile from 11. February 2013, 20:18

Various / Erasme de Rotterdam - Le Temps et la Vie d'un grand Humaniste - Temps de reflexions CD 2

Used drive : HL-DT-STDVD-ROM GDR8162B Adapter: 1 ID: 1

Read mode : Secure
Utilize accurate stream : Yes
Defeat audio cache : Yes
Make use of C2 pointers : No

Read offset correction

: 102
Overread into Lead-In and Lead-Out : No
Fill up missing offset samples with silence : Yes
Delete leading and trailing silent blocks : No
Null samples used in CRC calculations : Yes
Used interface
: Installed external ASPI interface
Gap handling
: Appended to previous track

Used output format : User Defined Encoder
Selected bitrate : 1024 kBit/s
Quality : High
Add ID3 tag : No
Command line compressor : C:\EAC\Flac\flac.exe
Additional command line options : -8 -V -T "ARTIST=%artist%" -T "TITLE=%title%" -T "ALBUM=%albumtitle%" -T "DATE=%year%" -T "TRACKNUMBER=%tracknr%" -T "GENRE=%genre%" -T "PERFORMER=%albuminterpret%" -T "COMPOSER=%composer%" %haslyrics%--tag-from-file=LYRICS="%lyricsfile%"%haslyrics% -T "ALBUMARTIST=%albumartist%" -T "DISCNUMBER=%cdnumber%" -T "TOTALDISCS=%totalcds%" -T "TOTALTRACKS=%numtracks%" -T "COMMENT=%comment%" %source% -o %dest%

TOC of the extracted CD Track | Start | Length | Start sector | End sector
--1 | 0:00.00 | 3:28.23 | 0 | 15622 2 | 3:28.23 | 1:27.47 | 15623 | 22194 3 | 4:55.70 | 2:57.66 | 22195 | 35535 4 | 7:53.61 | 2:00.18 | 35536 | 44553 5 | 9:54.04 | 2:09.62 | 44554 | 54290 6 | 12:03.66 | 3:47.00 | 54291 | 71315 7 | 15:50.66 | 2:55.02 | 71316 | 84442 8 | 18:45.68 | 1:53.24 | 84443 | 92941 9 | 20:39.17 | 5:24.64 | 92942 | 117305
10 | 26:04.06 | 4:21.61 | 117306 | 136941
11 | 30:25.67 | 3:09.65 | 136942 | 151181
12 | 33:35.57 | 2:07.10 | 151182 | 160716
13 | 35:42.67 | 3:53.45 | 160717 | 178236
14 | 39:36.37 | 2:21.03 | 178237 | 188814
15 | 41:57.40 | 1:23.05 | 188815 | 195044
16 | 43:20.45 | 2:28.10 | 195045 | 206154
17 | 45:48.55 | 2:08.48 | 206155 | 215802
18 | 47:57.28 | 3:49.70 | 215803 | 233047
19 | 51:47.23 | 1:46.27 | 233048 | 241024
20 | 53:33.50 | 1:39.15 | 241025 | 248464
21 | 55:12.65 | 1:56.42 | 248465 | 257206
22 | 57:09.32 | 6:20.07 | 257207 | 285713
23 | 63:29.39 | 2:05.12 | 285714 | 295100
24 | 65:34.51 | 2:07.24 | 295101 | 304649
25 | 67:42.00 | 1:53.69 | 304650 | 313193

Track 1 Filename C:\EAC\Various - Erasme de Rotterdam - Le Temps et la Vie d'un grand Humaniste - Temps de reflexions CD 2\01 - Makam Muhayyer pesrev.wav Pre-gap length 0:00:02.00 Peak level 79.0 %
Extraction speed 4.5 X
Track quality 100.0 %
Test CRC 8902319E
Copy CRC 8902319E
Track not present in AccurateRip database
Copy OK

Track 2 Filename C:\EAC\Various - Erasme de Rotterdam - Le Temps et la Vie d'un grand Humaniste - Temps de reflexions CD 2\02 - 1 - Lettre d'Erasme sur la Guerre contre les Turcs - Musique- Taksim.wav Peak level 51.3 %
Extraction speed 2.8 X
Track quality 99.8 %
Test CRC D77FA1D3
Copy CRC D77FA1D3
Track not present in AccurateRip database
Copy OK

Track 3 Filename C:\EAC\Various - Erasme de Rotterdam - Le Temps et la Vie d'un grand Humaniste - Temps de reflexions CD 2\03 - Saltarello- Une musique de Buscaye.wav Peak level 41.5 %
Extraction speed 5.0 X
Track quality 100.0 %
Test CRC 505ECABD
Copy CRC 505ECABD
Track not present in AccurateRip database
Copy OK

Track 4 Filename C:\EAC\Various - Erasme de Rotterdam - Le Temps et la Vie d'un grand Humaniste - Temps de reflexions CD 2\04 - A Florence la joyose cite.wav Peak level 35.1 %
Extraction speed 4.8 X
Track quality 100.0 %
Test CRC D51EAE10
Copy CRC D51EAE10
Track not present in AccurateRip database
Copy OK

Track 5 Filename C:\EAC\Various - Erasme de Rotterdam - Le Temps et la Vie d'un grand Humaniste - Temps de reflexions CD 2\05 - 2 - Adage 145- La fortune sourit aux audacieux - Musique- Fortuna desperata.wav Peak level 33.0 %
Extraction speed 3.9 X
Track quality 99.9 %
Test CRC 944081E7
Copy CRC 944081E7
Track not present in AccurateRip database
Copy OK

Track 6 Filename C:\EAC\Various - Erasme de Rotterdam - Le Temps et la Vie d'un grand Humaniste - Temps de reflexions CD 2\06 - Audi, benigne Conditor.wav Peak level 36.5 %
Extraction speed 5.9 X
Track quality 100.0 %
Test CRC DA576B4C
Copy CRC DA576B4C
Track not present in AccurateRip database
Copy OK

Track 7 Filename C:\EAC\Various - Erasme de Rotterdam - Le Temps et la Vie d'un grand Humaniste - Temps de reflexions CD 2\07 - Taskim et Danse.wav Peak level 58.6 %
Extraction speed 6.0 X
Track quality 100.0 %
Test CRC 7B1DDC9C
Copy CRC 7B1DDC9C
Track not present in AccurateRip database
Copy OK

Track 8 Filename C:\EAC\Various - Erasme de Rotterdam - Le Temps et la Vie d'un grand Humaniste - Temps de reflexions CD 2\08 - 3 - Erasme de Rotterdam et les juifs - Musique- Las Estrellas de los cielos.wav Peak level 39.3 %
Extraction speed 5.7 X
Track quality 100.0 %
Test CRC 52D44874
Copy CRC 52D44874
Track not present in AccurateRip database
Copy OK

Track 9 Filename C:\EAC\Various - Erasme de Rotterdam - Le Temps et la Vie d'un grand Humaniste - Temps de reflexions CD 2\09 - Lavava y suspirava.wav Peak level 69.6 %
Extraction speed 7.1 X
Track quality 100.0 %
Test CRC AA4CEA6A
Copy CRC AA4CEA6A
Track not present in AccurateRip database
Copy OK

Track 10 Filename C:\EAC\Various - Erasme de Rotterdam - Le Temps et la Vie d'un grand Humaniste - Temps de reflexions CD 2\10 - Malor me bat.wav Peak level 41.2 %
Extraction speed 7.3 X
Track quality 100.0 %
Test CRC 2F9FDBA8
Copy CRC 2F9FDBA8
Track not present in AccurateRip database
Copy OK

Track 11 Filename C:\EAC\Various - Erasme de Rotterdam - Le Temps et la Vie d'un grand Humaniste - Temps de reflexions CD 2\11 - Benedic anima mea.wav Peak level 37.6 %
Extraction speed 5.9 X
Track quality 99.9 %
Test CRC 0F63A715
Copy CRC 0F63A715
Track not present in AccurateRip database
Copy OK

Track 12 Filename C:\EAC\Various - Erasme de Rotterdam - Le Temps et la Vie d'un grand Humaniste - Temps de reflexions CD 2\12 - 4 - Epitaphe pour Jean d'Ockeghem, musicien hors pair - Musique- Fortune, par ta cruaulte.wav Peak level 24.1 %
Extraction speed 5.3 X
Track quality 99.9 %
Test CRC 462417D7
Copy CRC 462417D7
Track not present in AccurateRip database
Copy OK

Track 13 Filename C:\EAC\Various - Erasme de Rotterdam - Le Temps et la Vie d'un grand Humaniste - Temps de reflexions CD 2\13 - La deploration sur la mort d'Ockeghem.wav Peak level 62.7 %
Extraction speed 7.9 X
Track quality 100.0 %
Test CRC 8A5944FC
Copy CRC 8A5944FC
Track not present in AccurateRip database
Copy OK

Track 14 Filename C:\EAC\Various - Erasme de Rotterdam - Le Temps et la Vie d'un grand Humaniste - Temps de reflexions CD 2\14 - Latura tu.wav Peak level 78.4 %
Extraction speed 7.4 X
Track quality 100.0 %
Test CRC EDB979F4
Copy CRC EDB979F4
Track not present in AccurateRip database
Copy OK

Track 15 Filename C:\EAC\Various - Erasme de Rotterdam - Le Temps et la Vie d'un grand Humaniste - Temps de reflexions CD 2\15 - 5 - Le Panegyrique de Philippe le Beau - Musique- Adieu mes amours.wav Peak level 39.0 %
Extraction speed 6.6 X
Track quality 100.0 %
Test CRC 1515BA70
Copy CRC 1515BA70
Track not present in AccurateRip database
Copy OK

Track 16 Filename C:\EAC\Various - Erasme de Rotterdam - Le Temps et la Vie d'un grand Humaniste - Temps de reflexions CD 2\16 - Passamezzo- Helas madame.wav Peak level 49.7 %
Extraction speed 7.7 X
Track quality 100.0 %
Test CRC 5DF32A15
Copy CRC 5DF32A15
Track not present in AccurateRip database
Copy OK

Track 17 Filename C:\EAC\Various - Erasme de Rotterdam - Le Temps et la Vie d'un grand Humaniste - Temps de reflexions CD 2\17 - 6 - Adage 3415- L'amour rend musicien - Musique- De tous biens plaine.wav Peak level 21.1 %
Extraction speed 7.6 X
Track quality 100.0 %
Test CRC 461DC2EC
Copy CRC 461DC2EC
Track not present in AccurateRip database
Copy OK

Track 18 Filename C:\EAC\Various - Erasme de Rotterdam - Le Temps et la Vie d'un grand Humaniste - Temps de reflexions CD 2\18 - Frottola- In te Domine speravi.wav Peak level 44.9 %
Extraction speed 8.6 X
Track quality 100.0 %
Test CRC 3981CDA7
Copy CRC 3981CDA7
Track not present in AccurateRip database
Copy OK

Track 19 Filename C:\EAC\Various - Erasme de Rotterdam - Le Temps et la Vie d'un grand Humaniste - Temps de reflexions CD 2\19 - 7 - Enchiridion - L'importance des classiques - Musique- Ave maris stella.wav Peak level 33.8 %
Extraction speed 7.5 X
Track quality 100.0 %
Test CRC D2A97F8E
Copy CRC D2A97F8E
Track not present in AccurateRip database
Copy OK

Track 20 Filename C:\EAC\Various - Erasme de Rotterdam - Le Temps et la Vie d'un grand Humaniste - Temps de reflexions CD 2\20 - Puzzle-Canon II.wav Peak level 31.2 %
Extraction speed 7.4 X
Track quality 100.0 %
Test CRC 2CF8F0AE
Copy CRC 2CF8F0AE
Track not present in AccurateRip database
Copy OK

Track 21 Filename C:\EAC\Various - Erasme de Rotterdam - Le Temps et la Vie d'un grand Humaniste - Temps de reflexions CD 2\21 - Scaramella va alla guerra.wav Peak level 69.1 %
Extraction speed 7.8 X
Track quality 100.0 %
Test CRC 80CDC952
Copy CRC 80CDC952
Track not present in AccurateRip database
Copy OK

Track 22 Filename C:\EAC\Various - Erasme de Rotterdam - Le Temps et la Vie d'un grand Humaniste - Temps de reflexions CD 2\22 - 8 - Adage 3001- La guerre parait douce a ceux qui n'en ont pas l'experience - Musiques- Tambours et Fanfares - Vexilla Regis.wav Peak level 94.2 %
Extraction speed 8.5 X
Track quality 99.9 %
Test CRC AA97FF5B
Copy CRC AA97FF5B
Track not present in AccurateRip database
Copy OK

Track 23 Filename C:\EAC\Various - Erasme de Rotterdam - Le Temps et la Vie d'un grand Humaniste - Temps de reflexions CD 2\23 - Danza Alta.wav Peak level 51.8 %
Extraction speed 6.4 X
Track quality 99.9 %
Test CRC AF20A34D
Copy CRC AF20A34D
Track not present in AccurateRip database
Copy OK

Track 24 Filename C:\EAC\Various - Erasme de Rotterdam - Le Temps et la Vie d'un grand Humaniste - Temps de reflexions CD 2\24 - 9 - Lettre d'Erasme de Rotterdam a son cher Thomas More sur la publication de L'Eloge de la Folie.wav Peak level 45.8 %
Extraction speed 8.3 X
Track quality 100.0 %
Test CRC 59551BF0
Copy CRC 59551BF0
Track not present in AccurateRip database
Copy OK

Track 25 Filename C:\EAC\Various - Erasme de Rotterdam - Le Temps et la Vie d'un grand Humaniste - Temps de reflexions CD 2\25 - Home again, market is done.wav Peak level 44.1 %
Extraction speed 8.4 X
Track quality 100.0 %
Test CRC 67683496
Copy CRC 67683496
Track not present in AccurateRip database
Copy OK

None of the tracks are present in the AccurateRip database

No errors occurred

End of status report

==== Log checksum 469B8E44F132C108ECF2BDAAF69969912148CEFE93B07C6E5D69086FF7B6BD9A ====

Exact Audio Copy V1.0 beta 3 from 29. August 2011

EAC extraction logfile from 11. February 2013, 20:59

Various / Erasme de Rotterdam - Le Temps et la Vie d'un grand Humaniste - Temps de confrontations CD 3

Used drive : HL-DT-STDVD-ROM GDR8162B Adapter: 1 ID: 1

Read mode : Secure
Utilize accurate stream : Yes
Defeat audio cache : Yes
Make use of C2 pointers : No

Read offset correction

: 102
Overread into Lead-In and Lead-Out : No
Fill up missing offset samples with silence : Yes
Delete leading and trailing silent blocks : No
Null samples used in CRC calculations : Yes
Used interface
: Installed external ASPI interface
Gap handling
: Appended to previous track

Used output format : User Defined Encoder
Selected bitrate : 1024 kBit/s
Quality : High
Add ID3 tag : No
Command line compressor : C:\EAC\Flac\flac.exe
Additional command line options : -8 -V -T "ARTIST=%artist%" -T "TITLE=%title%" -T "ALBUM=%albumtitle%" -T "DATE=%year%" -T "TRACKNUMBER=%tracknr%" -T "GENRE=%genre%" -T "PERFORMER=%albuminterpret%" -T "COMPOSER=%composer%" %haslyrics%--tag-from-file=LYRICS="%lyricsfile%"%haslyrics% -T "ALBUMARTIST=%albumartist%" -T "DISCNUMBER=%cdnumber%" -T "TOTALDISCS=%totalcds%" -T "TOTALTRACKS=%numtracks%" -T "COMMENT=%comment%" %source% -o %dest%

TOC of the extracted CD Track | Start | Length | Start sector | End sector
--1 | 0:00.00 | 2:59.41 | 0 | 13465 2 | 2:59.41 | 2:24.62 | 13466 | 24327 3 | 5:24.28 | 3:07.47 | 24328 | 38399 4 | 8:32.00 | 2:13.17 | 38400 | 48391 5 | 10:45.17 | 7:19.43 | 48392 | 81359 6 | 18:04.60 | 2:38.07 | 81360 | 93216 7 | 20:42.67 | 1:19.60 | 93217 | 99201 8 | 22:02.52 | 2:41.54 | 99202 | 111330 9 | 24:44.31 | 4:38.53 | 111331 | 132233
10 | 29:23.09 | 2:13.59 | 132234 | 142267
11 | 31:36.68 | 2:28.50 | 142268 | 153417
12 | 34:05.43 | 2:23.33 | 153418 | 164175
13 | 36:29.01 | 1:46.54 | 164176 | 172179
14 | 38:15.55 | 3:04.00 | 172180 | 185979
15 | 41:19.55 | 2:19.24 | 185980 | 196428
16 | 43:39.04 | 2:05.19 | 196429 | 205822
17 | 45:44.23 | 1:46.35 | 205823 | 213807
18 | 47:30.58 | 3:56.13 | 213808 | 231520
19 | 51:26.71 | 3:07.41 | 231521 | 245586
20 | 54:34.37 | 2:37.73 | 245587 | 257434
21 | 57:12.35 | 3:18.21 | 257435 | 272305
22 | 60:30.56 | 3:42.07 | 272306 | 288962
23 | 64:12.63 | 2:17.48 | 288963 | 299285
24 | 66:30.36 | 1:45.60 | 299286 | 307220
25 | 68:16.21 | 2:19.39 | 307221 | 317684
26 | 70:35.60 | 3:53.60 | 317685 | 335219
27 | 74:29.45 | 3:01.09 | 335220 | 348803

Track 1 Filename C:\EAC\Various - Erasme de Rotterdam - Le Temps et la Vie d'un grand Humaniste - Temps de confrontations CD 3\01 - Paduana del Re (Mss. Venezia).wav Pre-gap length 0:00:02.00 Peak level 48.3 %
Extraction speed 4.6 X
Track quality 100.0 %
Test CRC 9E82DF9F
Copy CRC 9E82DF9F
Track not present in AccurateRip database
Copy OK

Track 2 Filename C:\EAC\Various - Erasme de Rotterdam - Le Temps et la Vie d'un grand Humaniste - Temps de confrontations CD 3\02 - 10- Le Prince de Machiavel - Musique- Gallarda di Venosa.wav Peak level 51.4 %
Extraction speed 4.6 X
Track quality 100.0 %
Test CRC DE85E048
Copy CRC DE85E048
Track not present in AccurateRip database
Copy OK

Track 3 Filename C:\EAC\Various - Erasme de Rotterdam - Le Temps et la Vie d'un grand Humaniste - Temps de confrontations CD 3\03 - La Spagna, a 5.wav Peak level 66.1 %
Extraction speed 5.1 X
Track quality 100.0 %
Test CRC 7C34833F
Copy CRC 7C34833F
Track not present in AccurateRip database
Copy OK

Track 4 Filename C:\EAC\Various - Erasme de Rotterdam - Le Temps et la Vie d'un grand Humaniste - Temps de confrontations CD 3\04 - 11- Erasme. Institution du Prince Chretien (1516) - Musique- Himno XVI.wav Peak level 47.3 %
Extraction speed 5.1 X
Track quality 100.0 %
Test CRC 38310DE3
Copy CRC 38310DE3
Track not present in AccurateRip database
Copy OK

Track 5 Filename C:\EAC\Various - Erasme de Rotterdam - Le Temps et la Vie d'un grand Humaniste - Temps de confrontations CD 3\05 - Taksim et Makam Rast Murass'a.wav Peak level 59.5 %
Extraction speed 5.8 X
Track quality 99.9 %
Test CRC 593940B2
Copy CRC 593940B2
Track not present in AccurateRip database
Copy OK

Track 6 Filename C:\EAC\Various - Erasme de Rotterdam - Le Temps et la Vie d'un grand Humaniste - Temps de confrontations CD 3\06 - 12- Thomas Moro Utopie- Sur la Justice et la prosperite sociale - Musique- Puzzle-canon I.wav Peak level 33.8 %
Extraction speed 6.1 X
Track quality 100.0 %
Test CRC D637D452
Copy CRC D637D452
Track not present in AccurateRip database
Copy OK

Track 7 Filename C:\EAC\Various - Erasme de Rotterdam - Le Temps et la Vie d'un grand Humaniste - Temps de confrontations CD 3\07 - Adoramus te Domine.wav Peak level 34.8 %
Extraction speed 5.3 X
Track quality 100.0 %
Test CRC ECF9A815
Copy CRC ECF9A815
Track not present in AccurateRip database
Copy OK

Track 8 Filename C:\EAC\Various - Erasme de Rotterdam - Le Temps et la Vie d'un grand Humaniste - Temps de confrontations CD 3\08 - 13- Erasme. La Complainte de la Paix - Musique- Mille regrets.wav Peak level 42.5 %
Extraction speed 6.4 X
Track quality 100.0 %
Test CRC 735D34C9
Copy CRC 735D34C9
Track not present in AccurateRip database
Copy OK

Track 9 Filename C:\EAC\Various - Erasme de Rotterdam - Le Temps et la Vie d'un grand Humaniste - Temps de confrontations CD 3\09 - Romance- Ya es tiempo de recoger.wav Peak level 89.1 %
Extraction speed 7.2 X
Track quality 100.0 %
Test CRC D3912144
Copy CRC D3912144
Track not present in AccurateRip database
Copy OK

Track 10 Filename C:\EAC\Various - Erasme de Rotterdam - Le Temps et la Vie d'un grand Humaniste - Temps de confrontations CD 3\10 - 14- Lettre de Martin Luther a Erasme de Rotterdam (28 mars 1519) - Musique- Psaume- A solis ortus cardine.wav Peak level 41.3 %
Extraction speed 5.1 X
Track quality 99.9 %
Test CRC 9E285FB2
Copy CRC 9E285FB2
Track not present in AccurateRip database
Copy OK

Track 11 Filename C:\EAC\Various - Erasme de Rotterdam - Le Temps et la Vie d'un grand Humaniste - Temps de confrontations CD 3\11 - Benedictus a 3.wav Peak level 40.3 %
Extraction speed 6.9 X
Track quality 100.0 %
Test CRC AE32B38E
Copy CRC AE32B38E
Track not present in AccurateRip database
Copy OK

Track 12 Filename C:\EAC\Various - Erasme de Rotterdam - Le Temps et la Vie d'un grand Humaniste - Temps de confrontations CD 3\12 - 15- Lettre d'Erasme de Rotterdam a Martin Luther (30 mai 1519) - Musique- In nomine a 5.wav Peak level 37.8 %
Extraction speed 5.4 X
Track quality 99.9 %
Test CRC 8DB25888
Copy CRC 8DB25888
Track not present in AccurateRip database
Copy OK

Track 13 Filename C:\EAC\Various - Erasme de Rotterdam - Le Temps et la Vie d'un grand Humaniste - Temps de confrontations CD 3\13 - Vingtcinquiesme Fantasie. A Quatre.wav Peak level 16.4 %
Extraction speed 6.7 X
Track quality 100.0 %
Test CRC B46E2F0B
Copy CRC B46E2F0B
Track not present in AccurateRip database
Copy OK

Track 14 Filename C:\EAC\Various - Erasme de Rotterdam - Le Temps et la Vie d'un grand Humaniste - Temps de confrontations CD 3\14 - 16- Lettre de Martin Luther a Erasme (15 avril 1524) - Musique- Psaume- Christ ist erstanden.wav Peak level 53.9 %
Extraction speed 7.4 X
Track quality 100.0 %
Test CRC 1710269C
Copy CRC 1710269C
Track not present in AccurateRip database
Copy OK

Track 15 Filename C:\EAC\Various - Erasme de Rotterdam - Le Temps et la Vie d'un grand Humaniste - Temps de confrontations CD 3\15 - 17- Erasme de Rotterdam a Martin Luther - Diatribe du libre arbitre - Musique- In Nomine a 5 - Free from all.wav Peak level 46.1 %
Extraction speed 7.4 X
Track quality 100.0 %
Test CRC 9A82A2D4
Copy CRC 9A82A2D4
Track not present in AccurateRip database
Copy OK

Track 16 Filename C:\EAC\Various - Erasme de Rotterdam - Le Temps et la Vie d'un grand Humaniste - Temps de confrontations CD 3\16 - Pavane- La Bataille.wav Peak level 39.6 %
Extraction speed 7.0 X
Track quality 100.0 %
Test CRC 86D22AA0
Copy CRC 86D22AA0
Track not present in AccurateRip database
Copy OK

Track 17 Filename C:\EAC\Various - Erasme de Rotterdam - Le Temps et la Vie d'un grand Humaniste - Temps de confrontations CD 3\17 - 18- Lettre d'Erasme au Roi de France Francois 1er (16 Juin 1526).wav Peak level 52.2 %
Extraction speed 7.2 X
Track quality 100.0 %
Test CRC AC71F04F
Copy CRC AC71F04F
Track not present in AccurateRip database
Copy OK

Track 18 Filename C:\EAC\Various - Erasme de Rotterdam - Le Temps et la Vie d'un grand Humaniste - Temps de confrontations CD 3\18 - Gazel.wav Peak level 64.9 %
Extraction speed 8.2 X
Track quality 100.0 %
Test CRC E45DCD31
Copy CRC E45DCD31
Track not present in AccurateRip database
Copy OK

Track 19 Filename C:\EAC\Various - Erasme de Rotterdam - Le Temps et la Vie d'un grand Humaniste - Temps de confrontations CD 3\19 - Tu pauperum refugium.wav Peak level 43.9 %
Extraction speed 6.6 X
Track quality 99.9 %
Test CRC F74DC6AB
Copy CRC F74DC6AB
Track not present in AccurateRip database
Copy OK

Track 20 Filename C:\EAC\Various - Erasme de Rotterdam - Le Temps et la Vie d'un grand Humaniste - Temps de confrontations CD 3\20 - 19- Martin Luther a Erasme- Du Serf Arbitre - Musique- Psaume- Christ lag in Todes.wav Peak level 49.3 %
Extraction speed 8.1 X
Track quality 100.0 %
Test CRC F486F545
Copy CRC F486F545
Track not present in AccurateRip database
Copy OK

Track 21 Filename C:\EAC\Various - Erasme de Rotterdam - Le Temps et la Vie d'un grand Humaniste - Temps de confrontations CD 3\21 - Christ ist erstanden à 6 voix.wav Peak level 61.4 %
Extraction speed 8.5 X
Track quality 100.0 %
Test CRC D73CD2DB
Copy CRC D73CD2DB
Track not present in AccurateRip database
Copy OK

Track 22 Filename C:\EAC\Various - Erasme de Rotterdam - Le Temps et la Vie d'un grand Humaniste - Temps de confrontations CD 3\22 - 20- Adage 2100- Les mots sont les medecins des ames malades - Musique- Now o now.wav Peak level 53.1 %
Extraction speed 7.3 X
Track quality 99.9 %
Test CRC 04F1D950
Copy CRC 04F1D950
Track not present in AccurateRip database
Copy OK

Track 23 Filename C:\EAC\Various - Erasme de Rotterdam - Le Temps et la Vie d'un grand Humaniste - Temps de confrontations CD 3\23 - In Nomine a 5 - My Death.wav Peak level 54.4 %
Extraction speed 8.3 X
Track quality 100.0 %
Test CRC 82AA9438
Copy CRC 82AA9438
Track not present in AccurateRip database
Copy OK

Track 24 Filename C:\EAC\Various - Erasme de Rotterdam - Le Temps et la Vie d'un grand Humaniste - Temps de confrontations CD 3\24 - Pie Jesu Domine (Requiem).wav Peak level 36.3 %
Extraction speed 8.0 X
Track quality 100.0 %
Test CRC A0486160
Copy CRC A0486160
Track not present in AccurateRip database
Copy OK

Track 25 Filename C:\EAC\Various - Erasme de Rotterdam - Le Temps et la Vie d'un grand Humaniste - Temps de confrontations CD 3\25 - 21- La Mort d'Erasme.wav Peak level 51.0 %
Extraction speed 8.6 X
Track quality 100.0 %
Test CRC A16C1E4E
Copy CRC A16C1E4E
Track not present in AccurateRip database
Copy OK

Track 26 Filename C:\EAC\Various - Erasme de Rotterdam - Le Temps et la Vie d'un grand Humaniste - Temps de confrontations CD 3\26 - Plangite plerides - Planctus pour la mort d'Erasme.wav Peak level 31.2 %
Extraction speed 9.5 X
Track quality 100.0 %
Test CRC 796F97EE
Copy CRC 796F97EE
Track not present in AccurateRip database
Copy OK

Track 27 Filename C:\EAC\Various - Erasme de Rotterdam - Le Temps et la Vie d'un grand Humaniste - Temps de confrontations CD 3\27 - 22- Le Legs spirituel d'Erasme - Musique- Durezze e ligature.wav Peak level 44.1 %
Extraction speed 9.0 X
Track quality 100.0 %
Test CRC 74F8BBFA
Copy CRC 74F8BBFA
Track not present in AccurateRip database
Copy OK

None of the tracks are present in the AccurateRip database

No errors occurred

End of status report

==== Log checksum 3D94315ED35DE072D5C6A7822EFD8B44EE1552C8284500C5C19FCB1B8FDFA983 ====

Exact Audio Copy V1.0 beta 3 from 29. August 2011

EAC extraction logfile from 11. February 2013, 22:05

Various / Various - Erasme de Rotterdam - Mille Folie CD 4

Used drive : HL-DT-STDVD-ROM GDR8162B Adapter: 1 ID: 1

Read mode : Secure
Utilize accurate stream : Yes
Defeat audio cache : Yes
Make use of C2 pointers : No

Read offset correction

: 102
Overread into Lead-In and Lead-Out : No
Fill up missing offset samples with silence : Yes
Delete leading and trailing silent blocks : No
Null samples used in CRC calculations : Yes
Used interface
: Installed external ASPI interface
Gap handling
: Appended to previous track

Used output format : User Defined Encoder
Selected bitrate : 1024 kBit/s
Quality : High
Add ID3 tag : No
Command line compressor : C:\EAC\Flac\flac.exe
Additional command line options : -8 -V -T "ARTIST=%artist%" -T "TITLE=%title%" -T "ALBUM=%albumtitle%" -T "DATE=%year%" -T "TRACKNUMBER=%tracknr%" -T "GENRE=%genre%" -T "PERFORMER=%albuminterpret%" -T "COMPOSER=%composer%" %haslyrics%--tag-from-file=LYRICS="%lyricsfile%"%haslyrics% -T "ALBUMARTIST=%albumartist%" -T "DISCNUMBER=%cdnumber%" -T "TOTALDISCS=%totalcds%" -T "TOTALTRACKS=%numtracks%" -T "COMMENT=%comment%" %source% -o %dest%

TOC of the extracted CD Track | Start | Length | Start sector | End sector
--1 | 0:00.00 | 1:47.09 | 0 | 8033 2 | 1:47.09 | 4:15.08 | 8034 | 27166 3 | 6:02.17 | 2:01.61 | 27167 | 36302 4 | 8:04.03 | 1:30.29 | 36303 | 43081 5 | 9:34.32 | 2:34.59 | 43082 | 54690 6 | 12:09.16 | 1:58.11 | 54691 | 63551 7 | 14:07.27 | 1:44.36 | 63552 | 71387 8 | 15:51.63 | 5:27.20 | 71388 | 95932 9 | 21:19.08 | 1:28.55 | 95933 | 102587
10 | 22:47.63 | 1:57.25 | 102588 | 111387
11 | 24:45.13 | 1:55.19 | 111388 | 120031
12 | 26:40.32 | 3:53.50 | 120032 | 137556
13 | 30:34.07 | 1:55.69 | 137557 | 146250
14 | 32:30.01 | 2:23.59 | 146251 | 157034
15 | 34:53.60 | 2:53.11 | 157035 | 170020
16 | 37:46.71 | 0:58.06 | 170021 | 174376
17 | 38:45.02 | 2:06.67 | 174377 | 183893
18 | 40:51.69 | 1:48.19 | 183894 | 192012
19 | 42:40.13 | 2:28.04 | 192013 | 203116
20 | 45:08.17 | 2:01.57 | 203117 | 212248
21 | 47:09.74 | 1:07.43 | 212249 | 217316
22 | 48:17.42 | 3:46.12 | 217317 | 234278
23 | 52:03.54 | 1:56.02 | 234279 | 242980
24 | 53:59.56 | 1:49.50 | 242981 | 251205
25 | 55:49.31 | 1:39.43 | 251206 | 258673
26 | 57:28.74 | 3:46.42 | 258674 | 275665
27 | 61:15.41 | 4:31.27 | 275666 | 296017
28 | 65:46.68 | 2:17.41 | 296018 | 306333
29 | 68:04.34 | 1:49.02 | 306334 | 314510
30 | 69:53.36 | 2:37.05 | 314511 | 326290
31 | 72:30.41 | 2:14.36 | 326291 | 336376
32 | 74:45.02 | 2:28.31 | 336377 | 347507

Track 1 Filename C:\EAC\Various - Various - Erasme de Rotterdam - Mille Folie CD 4\01 - Folias (imperfectas) - Anonyme.wav Pre-gap length 0:00:02.00 Peak level 26.1 %
Extraction speed 2.4 X
Track quality 100.0 %
Test CRC 27A84570
Copy CRC 27A84570
Track not present in AccurateRip database
Copy OK

Track 2 Filename C:\EAC\Various - Various - Erasme de Rotterdam - Mille Folie CD 4\02 - La Folia- Yo Soy la Locura - Henry du Bailly.wav Peak level 97.1 %
Extraction speed 3.1 X
Track quality 100.0 %
Test CRC C6F0342B
Copy CRC C6F0342B
Track not present in AccurateRip database
Copy OK

Track 3 Filename C:\EAC\Various - Various - Erasme de Rotterdam - Mille Folie CD 4\03 - Passamezzo Antico - Diego Ortiz.wav Peak level 24.0 %
Extraction speed 2.3 X
Track quality 99.9 %
Test CRC 7A74C6D9
Copy CRC 7A74C6D9
Track not present in AccurateRip database
Copy OK

Track 4 Filename C:\EAC\Various - Various - Erasme de Rotterdam - Mille Folie CD 4\04 - Recercada quarta sobre la Folia - Diego Ortiz.wav Peak level 31.9 %
Extraction speed 2.7 X
Track quality 100.0 %
Test CRC 7B8B601A
Copy CRC 7B8B601A
Track not present in AccurateRip database
Copy OK

Track 5 Filename C:\EAC\Various - Various - Erasme de Rotterdam - Mille Folie CD 4\05 - Folias de la costa.wav Peak level 25.9 %
Extraction speed 3.2 X
Track quality 100.0 %
Test CRC 9A9E12F6
Copy CRC 9A9E12F6
Track not present in AccurateRip database
Copy OK

Track 6 Filename C:\EAC\Various - Various - Erasme de Rotterdam - Mille Folie CD 4\06 - La Gamba In Basso, E Soprano (1564) - Vincenzo Ruffo.wav Peak level 60.7 %
Extraction speed 3.2 X
Track quality 100.0 %
Test CRC 80BA7B38
Copy CRC 80BA7B38
Track not present in AccurateRip database
Copy OK

Track 7 Filename C:\EAC\Various - Various - Erasme de Rotterdam - Mille Folie CD 4\07 - Romanesca - Alonso Mudarra.wav Peak level 39.3 %
Extraction speed 3.1 X
Track quality 100.0 %
Test CRC 5F3BEE6F
Copy CRC 5F3BEE6F
Track not present in AccurateRip database
Copy OK

Track 8 Filename C:\EAC\Various - Various - Erasme de Rotterdam - Mille Folie CD 4\08 - Folia- Rodrigo Martinez - Anonyme (improv.).wav Peak level 77.1 %
Extraction speed 4.0 X
Track quality 100.0 %
Test CRC 71C0333E
Copy CRC 71C0333E
Track not present in AccurateRip database
Copy OK

Track 9 Filename C:\EAC\Various - Various - Erasme de Rotterdam - Mille Folie CD 4\09 - Si habra en este baldres - Juan del Enzina.wav Peak level 68.3 %
Extraction speed 3.3 X
Track quality 100.0 %
Test CRC ED8F1333
Copy CRC ED8F1333
Track not present in AccurateRip database
Copy OK

Track 10 Filename C:\EAC\Various - Various - Erasme de Rotterdam - Mille Folie CD 4\10 - Las Vacas - Romanesca (improv.).wav Peak level 33.4 %
Extraction speed 3.6 X
Track quality 100.0 %
Test CRC 23CD567C
Copy CRC 23CD567C
Track not present in AccurateRip database
Copy OK

Track 11 Filename C:\EAC\Various - Various - Erasme de Rotterdam - Mille Folie CD 4\11 - Diferencias Sobre Las Vacas - Anonyme.wav Peak level 65.9 %
Extraction speed 3.6 X
Track quality 100.0 %
Test CRC FEF07F82
Copy CRC FEF07F82
Track not present in AccurateRip database
Copy OK

Track 12 Filename C:\EAC\Various - Various - Erasme de Rotterdam - Mille Folie CD 4\12 - Folias antiguas - Anonyme.wav Peak level 70.1 %
Extraction speed 4.3 X
Track quality 100.0 %
Test CRC DDCDF914
Copy CRC DDCDF914
Track not present in AccurateRip database
Copy OK

Track 13 Filename C:\EAC\Various - Various - Erasme de Rotterdam - Mille Folie CD 4\13 - Harke, harke - Tobias Hume.wav Peak level 62.9 %
Extraction speed 3.9 X
Track quality 100.0 %
Test CRC 8B2928B6
Copy CRC 8B2928B6
Track not present in AccurateRip database
Copy OK

Track 14 Filename C:\EAC\Various - Various - Erasme de Rotterdam - Mille Folie CD 4\14 - Browning my dear - Clement Woodcock.wav Peak level 38.2 %
Extraction speed 4.2 X
Track quality 100.0 %
Test CRC FDFA65C0
Copy CRC FDFA65C0
Track not present in AccurateRip database
Copy OK

Track 15 Filename C:\EAC\Various - Various - Erasme de Rotterdam - Mille Folie CD 4\15 - Belle qui tiens ma vie - d'apres Thoinot Arbeau (improv.).wav Peak level 37.1 %
Extraction speed 4.2 X
Track quality 100.0 %
Test CRC ACD1E1D2
Copy CRC ACD1E1D2
Track not present in AccurateRip database
Copy OK

Track 16 Filename C:\EAC\Various - Various - Erasme de Rotterdam - Mille Folie CD 4\16 - Cucu, cucu, cucucu ! - Juan del Enzina.wav Peak level 79.0 %
Extraction speed 2.4 X
Track quality 99.8 %
Test CRC E4988BD1
Copy CRC E4988BD1
Track not present in AccurateRip database
Copy OK

Track 17 Filename C:\EAC\Various - Various -
Direct Download

Tags: Savall, Erasmus, Rotterdam

Jordi Savall - Erasmus von Rotterdam: Eloge de la Folie (2013) [6CD Set] {Alia Vox} Download via Hotfile Rapidshare Fileserve Megaupload & FileSonic, Jordi Savall - Erasmus von Rotterdam: Eloge de la Folie (2013) [6CD Set] {Alia Vox} free torrent downloads included crack, serial, keygen.Jordi Savall - Erasmus von Rotterdam: Eloge de la Folie (2013) [6CD Set] {Alia Vox} Fast Download via Rapidshare Hotfile Fileserve Filesonic Megaupload, Jordi Savall - Erasmus von Rotterdam: Eloge de la Folie (2013) [6CD Set] {Alia Vox} Torrents and Emule Download or anything related.
Leave a Comment
Your Name:
E-Mail:
Add Comments:

Enter Code: