Buffalo Springfield - Retrospective: The Best Of Buffalo Springfield (1969)

Download Now

Buffalo Springfield - Retrospective: The Best Of Buffalo Springfield (1969)

Buffalo Springfield - Retrospective: The Best Of Buffalo Springfield (1969)
EAC | FLAC | Tracks (Cue&Log) ~ 236 Mb (incl 5%) | Mp3 (CBR320) ~ 110 Mb (incl 5%) | Scans included
Genre: Folk Rock, Country Rock, Psychedelic | Label: ATCO | # 38-105-2 | Time: 00:40:17

"Retrospective: The Best of Buffalo Springfield may not be definitive, but it's a good, basic overview of the group's career, containing most of the group's biggest hits and signature songs. Yes, several worthy album cuts are missing, but as a sampler, this works quite well, offering a nice introduction to the group."



Tracklist:

01. For What It's Worth (02:37)
02. Mr. Soul (02:48)
03. Sit Down, I Think I Love You (02:29)
04. Kind Woman (04:11)
05. Bluebird (04:25)
06. On The Way Home (02:26)
07. Nowadays Clancy Can't Even Sing (03:24)
08. Broken Arrow (06:10)
09. Rock And Roll Woman (02:43)
10. I Am A Child (02:19)
11. Go And Say Goodbye (02:20)
12. Expecting To Fly (03:43)


Exact Audio Copy V1.0 beta 3 from 29. August 2011

EAC extraction logfile from 8. May 2014, 1:07

Buffalo Springfield / Retrospective: The Best Of Buffalo Springfield

Used drive : ASUS DRW-24F1ST a Adapter: 0 ID: 0

Read mode : Secure
Utilize accurate stream : Yes
Defeat audio cache : Yes
Make use of C2 pointers : No

Read offset correction

: 6
Overread into Lead-In and Lead-Out : No
Fill up missing offset samples with silence : Yes
Delete leading and trailing silent blocks : No
Null samples used in CRC calculations : Yes
Used interface
: Native Win32 interface for Win NT & 2000
Gap handling
: Appended to previous track

Used output format : User Defined Encoder
Selected bitrate : 1024 kBit/s
Quality : High
Add ID3 tag : No
Command line compressor : C:\Program Files (x86)\Exact Audio Copy\Flac\flac.exe
Additional command line options : -T "Artist=%artist%" -T "Title=%title%" -T "Album=%albumtitle%" -T "Date=%year%" -T "Tracknumber=%tracknr%" -T "Genre=%genre%" -T "Discnumber=%cdnumber%" -T "Totaldiscs=%totalcds%" %hascover%--picture="%coverfile%"%hascover% -8 -V %source%

TOC of the extracted CD Track | Start | Length | Start sector | End sector
--1 | 0:00.32 | 2:40.70 | 32 | 12101 2 | 2:41.27 | 2:51.40 | 12102 | 24966 3 | 5:32.67 | 2:33.53 | 24967 | 36494 4 | 8:06.45 | 4:14.40 | 36495 | 55584 5 | 12:21.10 | 4:28.72 | 55585 | 75756 6 | 16:50.07 | 2:30.00 | 75757 | 87006 7 | 19:20.07 | 3:27.30 | 87007 | 102561 8 | 22:47.37 | 6:14.05 | 102562 | 130616 9 | 29:01.42 | 2:46.40 | 130617 | 143106
10 | 31:48.07 | 2:22.33 | 143107 | 153789
11 | 34:10.40 | 2:23.20 | 153790 | 164534
12 | 36:33.60 | 3:43.67 | 164535 | 181326

Track 1 Filename C:\Buffalo Springfield - Retrospective_ The Best Of Buffalo Springfield (1969) [FLAC]\01. For What It's Worth.wav Pre-gap length 0:00:02.32 Peak level 67.3 %
Extraction speed 1.9 X
Track quality 100.0 %
Test CRC 054223FB
Copy CRC 054223FB
Accurately ripped (confidence 15) [720939F3] (AR v2)
Copy OK

Track 2 Filename C:\Buffalo Springfield - Retrospective_ The Best Of Buffalo Springfield (1969) [FLAC]\02. Mr. Soul.wav Pre-gap length 0:00:03.37 Peak level 95.7 %
Extraction speed 2.0 X
Track quality 100.0 %
Test CRC EEE77530
Copy CRC EEE77530
Accurately ripped (confidence 15) [67F6F235] (AR v2)
Copy OK

Track 3 Filename C:\Buffalo Springfield - Retrospective_ The Best Of Buffalo Springfield (1969) [FLAC]\03. Sit Down, I Think I Love You.wav Pre-gap length 0:00:03.27 Peak level 79.2 %
Extraction speed 1.6 X
Track quality 99.9 %
Test CRC B19BD258
Copy CRC B19BD258
Accurately ripped (confidence 15) [A14AADD4] (AR v2)
Copy OK

Track 4 Filename C:\Buffalo Springfield - Retrospective_ The Best Of Buffalo Springfield (1969) [FLAC]\04. Kind Woman.wav Pre-gap length 0:00:03.70 Peak level 53.7 %
Extraction speed 2.1 X
Track quality 100.0 %
Test CRC 7C3810C2
Copy CRC 7C3810C2
Accurately ripped (confidence 15) [9DA163D4] (AR v2)
Copy OK

Track 5 Filename C:\Buffalo Springfield - Retrospective_ The Best Of Buffalo Springfield (1969) [FLAC]\05. Bluebird.wav Pre-gap length 0:00:03.15 Peak level 78.0 %
Extraction speed 2.1 X
Track quality 100.0 %
Test CRC 003DE818
Copy CRC 003DE818
Accurately ripped (confidence 15) 6894F93 (AR v2)
Copy OK

Track 6 Filename C:\Buffalo Springfield - Retrospective_ The Best Of Buffalo Springfield (1969) [FLAC]\06. On The Way Home.wav Pre-gap length 0:00:03.55 Peak level 98.1 %
Extraction speed 1.9 X
Track quality 100.0 %
Test CRC 939A494D
Copy CRC 939A494D
Accurately ripped (confidence 15) [83EF01B4] (AR v2)
Copy OK

Track 7 Filename C:\Buffalo Springfield - Retrospective_ The Best Of Buffalo Springfield (1969) [FLAC]\07. Nowadays Clancy Can't Even Sing.wav Pre-gap length 0:00:03.12 Peak level 98.2 %
Extraction speed 2.0 X
Track quality 100.0 %
Test CRC C370D11C
Copy CRC C370D11C
Accurately ripped (confidence 15) [5F2915D5] (AR v2)
Copy OK

Track 8 Filename C:\Buffalo Springfield - Retrospective_ The Best Of Buffalo Springfield (1969) [FLAC]\08. Broken Arrow.wav Pre-gap length 0:00:03.25 Peak level 69.9 %
Extraction speed 2.2 X
Track quality 100.0 %
Test CRC 8CE970DC
Copy CRC 8CE970DC
Accurately ripped (confidence 15) [69145365] (AR v2)
Copy OK

Track 9 Filename C:\Buffalo Springfield - Retrospective_ The Best Of Buffalo Springfield (1969) [FLAC]\09. Rock And Roll Woman.wav Pre-gap length 0:00:03.25 Peak level 80.6 %
Extraction speed 1.9 X
Track quality 100.0 %
Test CRC D7FE1A6A
Copy CRC D7FE1A6A
Accurately ripped (confidence 15) [D5567258] (AR v2)
Copy OK

Track 10 Filename C:\Buffalo Springfield - Retrospective_ The Best Of Buffalo Springfield (1969) [FLAC]\10. I Am A Child.wav Pre-gap length 0:00:03.25 Peak level 67.5 %
Extraction speed 1.5 X
Track quality 99.9 %
Test CRC 5AB33371
Copy CRC 5AB33371
Accurately ripped (confidence 15) [A3AE3927] (AR v2)
Copy OK

Track 11 Filename C:\Buffalo Springfield - Retrospective_ The Best Of Buffalo Springfield (1969) [FLAC]\11. Go And Say Goodbye.wav Pre-gap length 0:00:03.03 Peak level 94.3 %
Extraction speed 1.9 X
Track quality 100.0 %
Test CRC C6CE1326
Copy CRC C6CE1326
Accurately ripped (confidence 15) [704129B6] (AR v2)
Copy OK

Track 12 Filename C:\Buffalo Springfield - Retrospective_ The Best Of Buffalo Springfield (1969) [FLAC]\12. Expecting To Fly.wav Pre-gap length 0:00:03.00 Peak level 65.6 %
Extraction speed 2.0 X
Track quality 100.0 %
Test CRC 732560F8
Copy CRC 732560F8
Accurately ripped (confidence 15) [0D2495F2] (AR v2)
Copy OK

All tracks accurately ripped

No errors occurred

End of status report

==== Log checksum 75A02D5FC711DB8B43ACA4D5B232CFD0A9AF7928404207CFE739C195671BF717 ====

foobar2000 1.2 / Dynamic Range Meter 1.1.1
log date: 2015-10-18 17:28:16

Analyzed: Buffalo Springfield / Retrospective: The Best Of Buffalo Springfield

DR Peak RMS Duration Track

DR12 -3.43 dB -17.77 dB 2:41 01-For What It's Worth
DR11 -0.37 dB -14.20 dB 2:52 02-Mr. Soul
DR12 -2.02 dB -16.32 dB 2:34 03-Sit Down, I Think I Love You
DR12 -5.40 dB -19.70 dB 4:15 04-Kind Woman
DR10 -2.15 dB -15.30 dB 4:29 05-Bluebird
DR11 -0.16 dB -13.15 dB 2:30 06-On The Way Home
DR13 -0.15 dB -17.40 dB 3:27 07-Nowadays Clancy Can't Even Sing
DR12 -3.11 dB -18.28 dB 6:14 08-Broken Arrow
DR11 -1.86 dB -15.96 dB 2:47 09-Rock And Roll Woman
DR12 -3.41 dB -18.59 dB 2:22 10-I Am A Child
DR12 -0.51 dB -15.09 dB 2:23 11-Go And Say Goodbye
DR11 -3.65 dB -17.72 dB 3:44 12-Expecting To Fly

Number of tracks: 12
Official DR value: DR12

Samplerate: 44100 Hz
Channels: 2
Bits per sample: 16
Bitrate: 723 kbps
Codec: FLAC

Buffalo Springfield - Retrospective: The Best Of Buffalo Springfield (1969)

Buffalo Springfield - Retrospective: The Best Of Buffalo Springfield (1969)

All thanks to original releaser
Password: designol

DOWNLOAD LINKS
Buy Premium From My Links To Get Resumable Support & Max Speed & To Support Me


Links are Interchangeable - No Password - Single Extraction
Direct Download

Tags: Buffalo, Springfield, Retrospective, Buffalo, Springfield

Buffalo Springfield - Retrospective: The Best Of Buffalo Springfield (1969) Download via Hotfile Rapidshare Fileserve Megaupload & FileSonic, Buffalo Springfield - Retrospective: The Best Of Buffalo Springfield (1969) free torrent downloads included crack, serial, keygen.Buffalo Springfield - Retrospective: The Best Of Buffalo Springfield (1969) Fast Download via Rapidshare Hotfile Fileserve Filesonic Megaupload, Buffalo Springfield - Retrospective: The Best Of Buffalo Springfield (1969) Torrents and Emule Download or anything related.
Leave a Comment
Your Name:
E-Mail:
Add Comments:

Enter Code: