VA - Prog P38. Shock The Monkey (2015)

Download Now

VA - Prog P38. Shock The Monkey (2015)

VA - Prog P38. Shock The Monkey (2015)
EAC | Flac(Image) + Cue + Log & MP3 CBR 320Kbps
Team Rock, ROP60CD-10-15 | ~ 403 or 146 Mb | Scans Included
Progressive Rock / Neo Prog / Crossover Prog / Symphonic Prog

~ Gareth Page, Scale The Summit, The Enid, Second Sight, Wubworld, Caligula's Horse and many more ~


VA - Prog P38. Shock The Monkey (2015):

VA - Prog P38. Shock The Monkey (2015)

Tracklist:

1. Gareth Page - Brocken Spectre
2. Scale The Summit - Kestrel
3. Caligula's Horse - Turntail
4. Abigail's Ghost - Silver
5. Nad Sylvan - Courting The Widow
6. The Enid - First Light
7. Georg Varos - For Johann
8. Second Sight - Assassin
9. Perihelion - Végtelen Kék
10. Wubworld - Debate

Exact Audio Copy V1.1 from 23. June 2015

EAC extraction logfile from 14. October 2015, 18:07

Various Artists / Prog - P38: Shock The Monkey

Used drive : ATAPI iHAS124 W Adapter: 1 ID: 0

Read mode : Secure
Utilize accurate stream : Yes
Defeat audio cache : Yes
Make use of C2 pointers : No

Read offset correction

: 48
Overread into Lead-In and Lead-Out : No
Fill up missing offset samples with silence : Yes
Delete leading and trailing silent blocks : No
Null samples used in CRC calculations : Yes
Used interface
: Native Win32 interface for Win NT & 2000
Gap handling
: Appended to previous track

Used output format : User Defined Encoder
Selected bitrate : 896 kBit/s
Quality : High
Add ID3 tag : No
Command line compressor : C:\Program Files (x86)\FLAC\win64\flac.exe
Additional command line options : -8 -V -T "artist=%artist%" -T "albumartist=%albumartist%" -T "album=%albumtitle%" -T "title=%title%" -T "year=%year%" -T "tracknumber=%tracknr2%" -T "genre=%genre%" %source% -o %dest%

TOC of the extracted CD Track | Start | Length | Start sector | End sector
--1 | 0:00.00 | 7:56.58 | 0 | 35757 2 | 7:56.58 | 4:55.60 | 35758 | 57942 3 | 12:52.43 | 5:02.54 | 57943 | 80646 4 | 17:55.22 | 5:51.52 | 80647 | 107023 5 | 23:46.74 | 6:13.50 | 107024 | 135048 6 | 30:00.49 | 4:52.70 | 135049 | 157018 7 | 34:53.44 | 5:53.02 | 157019 | 183495 8 | 40:46.46 | 5:02.35 | 183496 | 206180 9 | 45:49.06 | 4:00.44 | 206181 | 224224
10 | 49:49.50 | 11:24.43 | 224225 | 275567

Track 1 Filename F:\My Documents\My Music\Albums (Complete)\01. Gareth Page - Brocken Spectre.wav Pre-gap length 0:00:02.00 Peak level 98.8 %
Extraction speed 4.1 X
Track quality 99.9 %
Test CRC 6D616CBE
Copy CRC 6D616CBE
Track not present in AccurateRip database
Copy OK

Track 2 Filename F:\My Documents\My Music\Albums (Complete)\02. Scale The Summit - Kestrel.wav Pre-gap length 0:00:02.00 Peak level 93.3 %
Extraction speed 4.1 X
Track quality 99.9 %
Test CRC B88DB309
Copy CRC B88DB309
Track not present in AccurateRip database
Copy OK

Track 3 Filename F:\My Documents\My Music\Albums (Complete)\03. Caligula's Horse - Turntail.wav Pre-gap length 0:00:02.00 Peak level 91.6 %
Extraction speed 5.9 X
Track quality 100.0 %
Test CRC 23C622DF
Copy CRC 23C622DF
Track not present in AccurateRip database
Copy OK

Track 4 Filename F:\My Documents\My Music\Albums (Complete)\04. Abigail's Ghost - Silver.wav Pre-gap length 0:00:02.00 Peak level 100.0 %
Extraction speed 6.4 X
Track quality 100.0 %
Test CRC 8FCDDB5F
Copy CRC 8FCDDB5F
Track not present in AccurateRip database
Copy OK

Track 5 Filename F:\My Documents\My Music\Albums (Complete)\05. Nad Sylvan - Courting The Widow.wav Pre-gap length 0:00:02.00 Peak level 98.8 %
Extraction speed 6.9 X
Track quality 100.0 %
Test CRC 4E903BDC
Copy CRC 4E903BDC
Track not present in AccurateRip database
Copy OK

Track 6 Filename F:\My Documents\My Music\Albums (Complete)\06. The Enid - First Light.wav Pre-gap length 0:00:02.00 Peak level 98.8 %
Extraction speed 7.1 X
Track quality 100.0 %
Test CRC F5A5BA8D
Copy CRC F5A5BA8D
Track not present in AccurateRip database
Copy OK

Track 7 Filename F:\My Documents\My Music\Albums (Complete)\07. Georg Voros - For Johann.wav Pre-gap length 0:00:02.00 Peak level 90.1 %
Extraction speed 7.6 X
Track quality 100.0 %
Test CRC 6479A2D1
Copy CRC 6479A2D1
Track not present in AccurateRip database
Copy OK

Track 8 Filename F:\My Documents\My Music\Albums (Complete)\08. Second Sight - Assassin.wav Pre-gap length 0:00:02.00 Peak level 98.8 %
Extraction speed 5.8 X
Track quality 99.9 %
Test CRC 4E529DBA
Copy CRC 4E529DBA
Track not present in AccurateRip database
Copy OK

Track 9 Filename F:\My Documents\My Music\Albums (Complete)\09. Perihelion - Végtelen Kék.wav Pre-gap length 0:00:02.00 Peak level 91.2 %
Extraction speed 7.9 X
Track quality 100.0 %
Test CRC 6170F1CF
Copy CRC 6170F1CF
Track not present in AccurateRip database
Copy OK

Track 10 Filename F:\My Documents\My Music\Albums (Complete)\10. Wubworld - Debate.wav Pre-gap length 0:00:02.00 Peak level 98.8 %
Extraction speed 7.7 X
Track quality 99.9 %
Test CRC DACFB173
Copy CRC DACFB173
Track not present in AccurateRip database
Copy OK

None of the tracks are present in the AccurateRip database

No errors occurred

End of status report

- CUETools DB Plugin V2.1.6

[CTDB TOCID: tUqzX42_Fr.Itg5vnqX4vULA0T0-] found
Submit result: tUqzX42_Fr.Itg5vnqX4vULA0T0- has been confirmed
Track | CTDB Status
1 | (3/3) Accurately ripped
2 | (3/3) Accurately ripped
3 | (3/3) Accurately ripped
4 | (3/3) Accurately ripped
5 | (3/3) Accurately ripped
6 | (3/3) Accurately ripped
7 | (3/3) Accurately ripped
8 | (3/3) Accurately ripped
9 | (3/3) Accurately ripped
10 | (3/3) Accurately ripped

==== Log checksum B781969AA039E1FED29216F2869B9F7E3EA44A2A3F0A7726FECB0DE87F3B4130 ====

foobar2000 1.2.9 / Dynamic Range Meter 1.1.1
log date: 2015-10-19 02:06:49

Statistics for: 03-Turntail
Number of samples: 13349952
Duration: 5:03
Left Right

Peak Value: -0.75 dB -0.75 dB
Avg RMS: -8.72 dB -9.23 dB
DR channel: 5.44 dB 6.01 dB

Official DR Value: DR6

Samplerate: 44100 Hz
Channels: 2
Bits per sample: 16
Bitrate: 890 kbps
Codec: FLAC

Analyzed: Gareth Page / Prog - P38: Shock The Monkey (1) Georg Voros / Prog - P38: Shock The Monkey (2)

DR Peak RMS Duration Track

DR8 -0.10 dB -11.71 dB 7:57 01-Brocken Spectre
DR7 -0.90 dB -10.25 dB 5:53 07-For Johann

Number of tracks: 2
Official DR value: DR8

Samplerate: 44100 Hz
Channels: 2
Bits per sample: 16
Bitrate: 890 kbps
Codec: FLAC

Analyzed: Nad Sylvan / Prog - P38: Shock The Monkey (1) Perihelion / Prog - P38: Shock The Monkey (2)

DR Peak RMS Duration Track

DR9 -0.10 dB -12.32 dB 6:14 05-Courting The Widow
DR5 -0.80 dB -6.93 dB 4:01 09-VР№gtelen KР№k

Number of tracks: 2
Official DR value: DR7

Samplerate: 44100 Hz
Channels: 2
Bits per sample: 16
Bitrate: 890 kbps
Codec: FLAC

Analyzed: Scale The Summit / Prog - P38: Shock The Monkey (1) Second Sight / Prog - P38: Shock The Monkey (2)

DR Peak RMS Duration Track

DR6 -0.60 dB -8.56 dB 4:56 02-Kestrel
DR8 -0.10 dB -8.74 dB 5:02 08-Assassin

Number of tracks: 2
Official DR value: DR7

Samplerate: 44100 Hz
Channels: 2
Bits per sample: 16
Bitrate: 890 kbps
Codec: FLAC

Analyzed: The Enid / Prog - P38: Shock The Monkey (1) Wubworld / Prog - P38: Shock The Monkey (2)

DR Peak RMS Duration Track

DR9 -0.10 dB -12.89 dB 4:53 06-First Light
DR8 -0.10 dB -10.07 dB 11:25 10-Debate

Number of tracks: 2
Official DR value: DR9

Samplerate: 44100 Hz
Channels: 2
Bits per sample: 16
Bitrate: 890 kbps
Codec: FLAC

[CUETools log; Date: 19.10.2015 1:55:35; Version: 2.1.4]
[CTDB TOCID: tUqzX42_Fr.Itg5vnqX4vULA0T0-] found.
Track | CTDB Status
1 | (5/5) Accurately ripped
2 | (5/5) Accurately ripped
3 | (5/5) Accurately ripped
4 | (5/5) Accurately ripped
5 | (5/5) Accurately ripped
6 | (5/5) Accurately ripped
7 | (5/5) Accurately ripped
8 | (5/5) Accurately ripped
9 | (5/5) Accurately ripped
10 | (5/5) Accurately ripped
[AccurateRip ID: 0016527e-00b125e8-960e5a0a] found.
Track [ CRC | V2 ] Status
01 [a57de4cc|9f2b567f] (0+1/1) Accurately ripped
02 [d674b858|ddb1034f] (0+1/1) Accurately ripped
03 [f4abf163|73e2ab69] (0+1/1) Accurately ripped
04 [d41729f5|5cd11234] (0+1/1) Accurately ripped
05 [49210f25|fafa2379] (0+1/1) Accurately ripped
06 [41da10b2|25d346e6] (0+1/1) Accurately ripped
07 [16986896|135fac73] (0+1/1) Accurately ripped
08 [e9b5f5fc|7c72027a] (0+1/1) Accurately ripped
09 [a95edc61|f88153f9] (0+1/1) Accurately ripped
10 [ac51f8ae|51992450] (0+1/1) Accurately ripped

Track Peak [ CRC32 ] [W/O NULL] [ LOG ]
-- 100,0 [3756A41B] [242235CE]
01 98,8 [6D616CBE] [CBB66C2F] CRC32
02 93,3 88DB309 [50B9526A] CRC32
03 91,6 [23C622DF] [31A4AFDA] CRC32
04 100,0 [8FCDDB5F] [A2A07034] CRC32
05 98,8 [4E903BDC] [E23C3B7E] CRC32
06 98,8 [F5A5BA8D] [03B24400] CRC32
07 90,1 [6479A2D1] [F2E57404] CRC32
08 98,8 [4E529DBA] [2E8CC82C] CRC32
09 91,2 [6170F1CF] [0461D7AE] CRC32
10 98,8 [DACFB173] [473FF2D8] CRC32

VA - Prog P38. Shock The Monkey (2015)

All thanks go to the original releaser



Download VA - Prog P38. Shock The Monkey (2015):


DOWNLOAD LINKS
Buy Premium From My Links To Get Resumable Support & Max Speed & To Support Me


Links are Interchangeable - No Password - Single Extraction
Direct Download

Tags: Monkey

VA - Prog P38. Shock The Monkey (2015) Download via Hotfile Rapidshare Fileserve Megaupload & FileSonic, VA - Prog P38. Shock The Monkey (2015) free torrent downloads included crack, serial, keygen.VA - Prog P38. Shock The Monkey (2015) Fast Download via Rapidshare Hotfile Fileserve Filesonic Megaupload, VA - Prog P38. Shock The Monkey (2015) Torrents and Emule Download or anything related.
Leave a Comment
Your Name:
E-Mail:
Add Comments:

Enter Code: