Angela Bofill - Too Tough (1983) / Teaser (1983) [2008, Reissue]

Download Now

Angela Bofill - Too Tough (1983) / Teaser (1983) [2008, Reissue]

Angela Bofill - Too Tough (1983) / Teaser (1983) [2008, Reissue]
R&B, Soul/Funk, Electronic, Disco | EAC Rip | FLAC, Tracks+CUE + LOG + Artwork-300dpi (JPEG) | 79:49 Min | 614,50 Mb
Label: Passion Music Ltd./Soul Music.Com (UK) | Released: 2008, March, 18

"
Angela Bofill's 1983 albums, both released while the singer was with Arista, are combined on this reissue from David Nathan's soulmusic.com label. Too Tough, a number six Billboard R&B hit produced with Narada Michael Walden, is one of her best albums. It contains two of her bigger hits: the upbeat pop-funk title track and the quiet storm favorite "Tonight I Give In." Walden's once again prominent on Teaser, which wasn't nearly as major. Although it reached number 20 on the R&B chart, the material let her down. The most notable number is the ballad "I'm on Your Side."
"

Angela Bofill - Too Tough (1983) / Teaser (1983) [2008, Reissue]


Release of these albums: "Too Tough" - 1983, January, 2 [LP Arista Records, Cat.# AL-9616, USA]; "Teaser" - 1983, October, 27 [LP Arista Records, Cat.# AL8-8198, USA]
Release of this CD: 2008, March, 18 [CD Passion Music Ltd./Soul Music.Com (UK), Cat.# SMDC 02 CD / UPC: 5013993110255]
℗ 1983 Arista Records LLC., lisenced courtesy of Sony BMG Music Entertainment (UK) Ltd.
© 2008 Passion Music Ltd.
Manufactured and marketed by Passion Music Ltd.

Tracklist:

"Too Tough" (1983)

01. Too Tough (5:22)
(Jeffrey Cohen, Narada Michael Walden)
02. Ain't Nothing Like The Real Thing (2:55)
(Nikolas Ashford / Valerie Simpson)
03. Tonight I Give In (3:25)
(Lana Bogan, Donnie Shelton)
04. You Could Come Take Me Home (3:42)
(Jeffrey Cohen, Narada Michael Walden)
05. Love You Too Much (3:41)
(Gerard McMahon)
06. Is This A Dream (5:01)
(Angela Bofill, Danny Madden, Eva Lee, Steve Gaboury)
[Remix by Michael Brauer]
07. Song For A Rainy Day (3:29)
(Angela Bofill)
08. I Can See It In Your Eyes (3:21)
(Angela Bofill, Danny Madden, Eva Lee, Steve Gaboury)
09. Accept Me (I'm Not A Girl Anymore) (3:28)
(Angela Bofill)
10. Rainbow Inside My Heart (3:30)
(Angela Bofill)

"Teaser" (1983)

11. Special Delivery (4:42)
(Jeffrey Cohen, Narada Michael Walden, Preston Glass)
12. Call Of The Wild (4:50)
(Richard Wolf, Wayne Perkins)
13. Nothin' But A Teaser (4:37)
(Alan Glass, Narada Michael Walden, Preston Glass)
14. I'm On Your Side (4:57)
(Angela Bofill, Jeffrey Cohen, Narada Michael Walden)
15. Penetration (5:45)
(Jeffrey Cohen, Narada Michael Walden)
16. Your A Special Part Of Me (Duet with Johnny Mathis) (4:17)
(Angela Bofill, Loree Gold)
17. Still A Thrill (4:37)
(Jeffrey Cohen, Narada Michael Walden)
18. Gotta Make It Up To You (4:50)
(Angela Bofill, Jeffrey Cohen, Narada Michael Walden)
19. Crazy For Him (3:11)
(Ellen Schwartz, Loree Gold, Roger Bruno)

~Too Tough~
Arranged By [Horns] - Jerry Hey, Marc Russo, Wayne Wallace
Arranged By [Rhythm] - Angela Bofill, Francisco Centeño
Arranged By [Strings] - Frank Martin (tracks: 5), Michael Gibbs
Backing Vocals - Angela Bofill, Jim Gilstrap, John Lehman, Kelly Kool, Myrna Matthews
Bass - Francisco Centeño, Randy Jackson
Drums - Buddy Williams, Steve Ferrone
Drums, Keyboards, Percussion - Narada Michael Walden
Engineer - David Frazier, Leslie Ann Jones, Maureen Droney (tracks: 1), Michael Brauer
Engineer [Assistant] - Carl Beatty, Michael Christopher, Ray Pyle, Wayne Lewis
Guitar - Corrado Rustici, Doc Powell, Peter Mauno
Horns - Fred Barry, Marc Russo, Tim Acosta, Wayne Wallace
Keyboards - Frank Martin, Nat Adderley Jr., Steve Robbins
Lead Vocals - Boz Scaggs (tracks: 2)
Management [Direction] - Vincent Romeo
Mixed By - Leslie Ann Jones
Percussion - Sheila Escovedo
Producer - Angela Bofill, Narada Michael Walden
Saxophone - Marc Russo
Vibraphone - Brian Atkinson (tracks: 2)

~Teaser~
Arranged By - Michael Colombier (tracks: 8)
Arranged By [Strings] - Michael Gibbs
Art Direction - Maude Gilman
Backing Vocals - Boni Boyer, Bunny Hull, Edward Hawkins, Jim Gilstrap, John Lehman, Linette Hawkins, Preston Glass, Tremaine Hawkins, Walter Hawkins
Bass - Abe Laboriel (tracks: 8), Randy Jackson
Bells [Church] - Preston Glass
Drums - John Robinson (tracks: 8), Narada Michael Walden
Engineer - David Frazier, Larry Hirsch (tracks: 8)
Guitar - Corrado Rustici, David Williams (tracks: 8)
Keyboards - Michael Colombier (tracks: 8), Narada Michael Walden
Keyboards [Obx Bass] - David Sancious
Management [Direction] - Vincent Romeo
Other [Clothing & Jewelry] - Anthony Ferrara
Other [Hair] - Alejandro
Other [Make Up] - Alfonso Grundy
Percussion - Jorge Bermudez, Narada Michael Walden
Photography By - Mick Rock
Producer - Denny Diante (tracks: 8), Narada Michael Walden (tracks: 1 to 5, 7 to 9)
Saxophone - Mark Russo
Vocoder - Frank Martin


Exact Audio Copy V0.99 prebeta 5 from 4. May 2009

EAC extraction logfile from 7. February 2010, 14:54

Angela Bofill / Too Tough \ Teaser

Used drive : HL-DT-STDVDRAM GE20LU11 Adapter: 2 ID: 0

Read mode : Secure
Utilize accurate stream : Yes
Defeat audio cache : Yes
Make use of C2 pointers : No

Read offset correction

: 667
Overread into Lead-In and Lead-Out : No
Fill up missing offset samples with silence : Yes
Delete leading and trailing silent blocks : No
Null samples used in CRC calculations : Yes
Used interface
: Native Win32 interface for Win NT & 2000
Gap handling
: Appended to previous track

Used output format : User Defined Encoder
Selected bitrate : 320 kBit/s
Quality : High
Add ID3 tag : No
Command line compressor : C:\Program Files (x86)\Exact Audio Copy\Flac\flac.exe
Additional command line options : -V -8 -T "artist=%a" -T "title=%t" -T "album=%g" -T "date=%y" -T "tracknumber=%n" -T "genre=%m" %s

TOC of the extracted CD Track | Start | Length | Start sector | End sector
--1 | 0:00.00 | 5:22.26 | 0 | 24175 2 | 5:22.26 | 2:55.37 | 24176 | 37337 3 | 8:17.63 | 3:25.38 | 37338 | 52750 4 | 11:43.26 | 3:42.37 | 52751 | 69437 5 | 15:25.63 | 3:41.38 | 69438 | 86050 6 | 19:07.26 | 5:01.37 | 86051 | 108662 7 | 24:08.63 | 3:29.07 | 108663 | 124344 8 | 27:37.70 | 3:21.38 | 124345 | 139457 9 | 30:59.33 | 3:28.37 | 139458 | 155094
10 | 34:27.70 | 3:30.38 | 155095 | 170882
11 | 37:58.33 | 4:42.37 | 170883 | 192069
12 | 42:40.70 | 4:50.38 | 192070 | 213857
13 | 47:31.33 | 4:37.37 | 213858 | 234669
14 | 52:08.70 | 4:57.38 | 234670 | 256982
15 | 57:06.33 | 5:45.37 | 256983 | 282894
16 | 62:51.70 | 4:17.38 | 282895 | 302207
17 | 67:09.33 | 4:37.37 | 302208 | 323019
18 | 71:46.70 | 4:50.47 | 323020 | 344816
19 | 76:37.42 | 3:11.59 | 344817 | 359200

Track 1 Filename C:\Users\Desktop\Angela Bofill\01. -Too Tough.wav Pre-gap length 0:00:02.00 Peak level 94.4 %
Track quality 100.0 %
Test CRC 960A5807
Copy CRC 960A5807
Accurately ripped (confidence 2) [029F233D]
Copy OK

Track 2 Filename C:\Users\Desktop\Angela Bofill\02. -Ain't Nothing Like The Real Thing.wav Pre-gap length 0:00:00.14 Peak level 94.4 %
Track quality 100.0 %
Test CRC D5E2A03B
Copy CRC D5E2A03B
Accurately ripped (confidence 2) [AE0C996B]
Copy OK

Track 3 Filename C:\Users\Desktop\Angela Bofill\03. -Tonight I Give In.wav Pre-gap length 0:00:00.13 Peak level 94.4 %
Track quality 100.0 %
Test CRC 0B6B2C5F
Copy CRC 0B6B2C5F
Track not present in AccurateRip database
Copy OK

Track 4 Filename C:\Users\Desktop\Angela Bofill\04. -You Could Take Me Home.wav Pre-gap length 0:00:00.14 Peak level 94.4 %
Track quality 99.9 %
Test CRC 81CABE8A
Copy CRC 81CABE8A
Accurately ripped (confidence 2) [61BA4E52]
Copy OK

Track 5 Filename C:\Users\Desktop\Angela Bofill\05. -Love You Too Much.wav Pre-gap length 0:00:00.13 Peak level 94.4 %
Track quality 99.9 %
Test CRC 3E467C84
Copy CRC 3E467C84
Accurately ripped (confidence 2) [CB7C7C78]
Copy OK

Track 6 Filename C:\Users\Desktop\Angela Bofill\06. -Is This A Dream.wav Pre-gap length 0:00:00.14 Peak level 94.4 %
Track quality 99.9 %
Test CRC 69C5CDC0
Copy CRC 69C5CDC0
Accurately ripped (confidence 2) B50DFE9
Copy OK

Track 7 Filename C:\Users\Desktop\Angela Bofill\07. -Song For A Rainy Day.wav Pre-gap length 0:00:00.13 Peak level 94.4 %
Track quality 100.0 %
Test CRC D1561724
Copy CRC D1561724
Accurately ripped (confidence 2) [D5CBEDBB]
Copy OK

Track 8 Filename C:\Users\Desktop\Angela Bofill\08. -I Can See It In Your Eyes.wav Peak level 94.4 %
Track quality 100.0 %
Test CRC DE8AA63F
Copy CRC DE8AA63F
Accurately ripped (confidence 2) [A29B85DD]
Copy OK

Track 9 Filename C:\Users\Desktop\Angela Bofill\09. -Accept Me (I'm Not A Girl Anymore).wav Pre-gap length 0:00:00.14 Peak level 94.4 %
Track quality 100.0 %
Test CRC C3311658
Copy CRC C3311658
Accurately ripped (confidence 2) [D3F8EF90]
Copy OK

Track 10 Filename C:\Users\Desktop\Angela Bofill\10. -Rainbow Inside My Heart.wav Pre-gap length 0:00:00.13 Peak level 94.4 %
Track quality 99.9 %
Test CRC CC6A81A3
Copy CRC CC6A81A3
Accurately ripped (confidence 2) [5663D1F2]
Copy OK

Track 11 Filename C:\Users\Desktop\Angela Bofill\11. -Special Delivery.wav Pre-gap length 0:00:00.14 Peak level 98.8 %
Track quality 100.0 %
Test CRC 9952CF0B
Copy CRC 9952CF0B
Accurately ripped (confidence 2) [1F001AB4]
Copy OK

Track 12 Filename C:\Users\Desktop\Angela Bofill\12. -Call Of The Wild.wav Pre-gap length 0:00:00.13 Peak level 98.8 %
Track quality 100.0 %
Test CRC 99274364
Copy CRC 99274364
Accurately ripped (confidence 2) [5585B7B4]
Copy OK

Track 13 Filename C:\Users\Desktop\Angela Bofill\13. -Nothin' But A Teaser.wav Pre-gap length 0:00:00.14 Peak level 98.8 %
Track quality 100.0 %
Test CRC 13143B0C
Copy CRC 13143B0C
Accurately ripped (confidence 2) [D211E9D3]
Copy OK

Track 14 Filename C:\Users\Desktop\Angela Bofill\14. -I'm On Your Side.wav Pre-gap length 0:00:00.13 Peak level 98.8 %
Track quality 99.9 %
Test CRC 1673F842
Copy CRC 1673F842
Accurately ripped (confidence 2) [250C95E7]
Copy OK

Track 15 Filename C:\Users\Desktop\Angela Bofill\15. -Penetration.wav Pre-gap length 0:00:00.14 Peak level 98.8 %
Track quality 100.0 %
Test CRC A2727755
Copy CRC A2727755
Accurately ripped (confidence 2) [E4616540]
Copy OK

Track 16 Filename C:\Users\Desktop\Angela Bofill\16. -You're A Special Part Of Me.wav Pre-gap length 0:00:00.13 Peak level 98.8 %
Track quality 100.0 %
Test CRC B98CC134
Copy CRC B98CC134
Accurately ripped (confidence 2) [1511AA8A]
Copy OK

Track 17 Filename C:\Users\Desktop\Angela Bofill\17. -Still A Thrill.wav Pre-gap length 0:00:00.14 Peak level 98.8 %
Track quality 100.0 %
Test CRC 78E87ADD
Copy CRC 78E87ADD
Accurately ripped (confidence 2) [9AF5761D]
Copy OK

Track 18 Filename C:\Users\Desktop\Angela Bofill\18. -Gotta Make It Up To You.wav Pre-gap length 0:00:00.13 Peak level 98.8 %
Track quality 99.9 %
Test CRC 8A94D88E
Copy CRC 8A94D88E
Accurately ripped (confidence 2) [45F2D028]
Copy OK

Track 19 Filename C:\Users\Desktop\Angela Bofill\19. -Crazy For Him.wav Pre-gap length 0:00:00.14 Copy aborted

17 track(s) accurately ripped
1 track(s) not present in the AccurateRip database
1 track(s) canceled

Some tracks could not be verified as accurate

There were errors

End of status report

--

Exact Audio Copy V0.99 prebeta 5 from 4. May 2009

EAC extraction logfile from 7. February 2010, 14:58

Angela Bofill / Too Tough \ Teaser

Used drive : TSSTcorpCDDVDW TS-L632N Adapter: 1 ID: 0

Read mode : Secure
Utilize accurate stream : Yes
Defeat audio cache : Yes
Make use of C2 pointers : No

Read offset correction

: 6
Overread into Lead-In and Lead-Out : Yes
Fill up missing offset samples with silence : Yes
Delete leading and trailing silent blocks : No
Null samples used in CRC calculations : Yes
Used interface
: Native Win32 interface for Win NT & 2000
Gap handling
: Appended to previous track

Used output format : User Defined Encoder
Selected bitrate : 320 kBit/s
Quality : High
Add ID3 tag : No
Command line compressor : C:\Program Files (x86)\Exact Audio Copy\Flac\flac.exe
Additional command line options : -V -8 -T "artist=%a" -T "title=%t" -T "album=%g" -T "date=%y" -T "tracknumber=%n" -T "genre=%m" %s

TOC of the extracted CD Track | Start | Length | Start sector | End sector
--1 | 0:00.00 | 5:22.26 | 0 | 24175 2 | 5:22.26 | 2:55.37 | 24176 | 37337 3 | 8:17.63 | 3:25.38 | 37338 | 52750 4 | 11:43.26 | 3:42.37 | 52751 | 69437 5 | 15:25.63 | 3:41.38 | 69438 | 86050 6 | 19:07.26 | 5:01.37 | 86051 | 108662 7 | 24:08.63 | 3:29.07 | 108663 | 124344 8 | 27:37.70 | 3:21.38 | 124345 | 139457 9 | 30:59.33 | 3:28.37 | 139458 | 155094
10 | 34:27.70 | 3:30.38 | 155095 | 170882
11 | 37:58.33 | 4:42.37 | 170883 | 192069
12 | 42:40.70 | 4:50.38 | 192070 | 213857
13 | 47:31.33 | 4:37.37 | 213858 | 234669
14 | 52:08.70 | 4:57.38 | 234670 | 256982
15 | 57:06.33 | 5:45.37 | 256983 | 282894
16 | 62:51.70 | 4:17.38 | 282895 | 302207
17 | 67:09.33 | 4:37.37 | 302208 | 323019
18 | 71:46.70 | 4:50.47 | 323020 | 344816
19 | 76:37.42 | 3:11.59 | 344817 | 359200

Track 19 Filename C:\Users\Desktop\Angela Bofill\19. -Crazy For Him.wav Pre-gap length 0:00:00.14 Peak level 98.8 %
Track quality 100.0 %
Test CRC B1588AFB
Copy CRC B1588AFB
Track not present in AccurateRip database
Copy OK

None of the tracks are present in the AccurateRip database

No errors occurred

End of status report

foobar2000 1.3.7 / Dynamic Range Meter 1.1.1
log date: 2015-10-18 23:02:06

Analyzed: Angela Bofill / Too Tough \ Teaser

DR Peak RMS Duration Track

DR6 -0.50 dB -7.94 dB 5:22 01-Too Tough
DR7 -0.50 dB -8.41 dB 2:55 02-Ain't Nothing Like The Real Thing
DR5 -0.50 dB -9.46 dB 3:26 03-Tonight I Give In
DR7 -0.50 dB -10.19 dB 3:42 04-You Could Take Me Home
DR6 -0.50 dB -8.97 dB 3:42 05-Love You Too Much
DR7 -0.50 dB -8.58 dB 5:01 06-Is This A Dream
DR10 -0.50 dB -13.56 dB 3:29 07-Song For A Rainy Day
DR9 -0.50 dB -10.38 dB 3:22 08-I Can See It In Your Eyes
DR8 -0.50 dB -11.76 dB 3:28 09-Accept Me (I'm Not A Girl Anymore)
DR7 -0.50 dB -10.62 dB 3:31 10-Rainbow Inside My Heart
DR7 -0.10 dB -8.72 dB 4:42 11-Special Delivery
DR8 -0.10 dB -9.64 dB 4:51 12-Call Of The Wild
DR9 -0.10 dB -10.21 dB 4:37 13-Nothin' But A Teaser
DR8 -0.10 dB -11.95 dB 4:58 14-I'm On Your Side
DR8 -0.10 dB -9.41 dB 5:45 15-Penetration
DR10 -0.10 dB -12.27 dB 4:18 16-You're A Special Part Of Me
DR9 -0.10 dB -10.16 dB 4:37 17-Still A Thrill
DR10 -0.10 dB -12.58 dB 4:51 18-Gotta Make It Up To You
DR9 -0.10 dB -10.40 dB 3:12 19-Crazy For Him

Number of tracks: 19
Official DR value: DR8

Samplerate: 44100 Hz
Channels: 2
Bits per sample: 16
Bitrate: 1050 kbps
Codec: FLAC

All thanks to - RunawayTrane

password: BlondStyle


DOWNLOAD:
Buy Premium To Support Me & Get Resumable Support & Max Speed


Links are Interchangeable - No Password
Direct Download

Tags: Angela, Bofill, Teaser, Reissue

Angela Bofill - Too Tough (1983) / Teaser (1983) [2008, Reissue] Download via Hotfile Rapidshare Fileserve Megaupload & FileSonic, Angela Bofill - Too Tough (1983) / Teaser (1983) [2008, Reissue] free torrent downloads included crack, serial, keygen.Angela Bofill - Too Tough (1983) / Teaser (1983) [2008, Reissue] Fast Download via Rapidshare Hotfile Fileserve Filesonic Megaupload, Angela Bofill - Too Tough (1983) / Teaser (1983) [2008, Reissue] Torrents and Emule Download or anything related.
Leave a Comment
Your Name:
E-Mail:
Add Comments:

Enter Code: