Johnny "Hammond" Smith - Black Coffee + Mr. Wonderful (1962-63) {2012 Riverside Remaster, Jazzplus Series}

Download Now


Johnny "Hammond" Smith - Black Coffee + Mr. Wonderful (1962-63) {2012 Riverside Remaster, Jazzplus Series}
Johnny "Hammond" Smith - Black Coffee + Mr. Wonderful (1962-63) {2012 Riverside Remaster, Jazzplus Series}
EAC rip (secure mode) | FLAC (tracks)+CUE+LOG -> 507 Mb | MP3 @320 -> 184 Mb
Full Artwork @ 300 dpi (jpg) -> 18 Mb | 5% repair rar
© 2012 Riverside / Universal | 06007 5340501
Jazz / Soul Jazz / Hard Bop / Organ

"This two-fer combines two early-'60s dates for Johnny "Hammond" Smith, a gifted organist who had the chops to play more complex jazz changes while keeping the groove deep. Both of these dates were originally released on Riverside. Black Coffee, a club gig, was issued in 1962 with a lineup of saxophonist Seldon Powell, guitarist Eddie McFadden, and drummer Leo Stevens. Smith walks the line between beautifully rendered standards such as "Body and Soul" and "I Remember Clifford," as well as some hard-edged soul-jazz stompers including the title track and his own "Rufus Toofus.""

Johnny "Hammond" Smith - Black Coffee + Mr. Wonderful (1962-63) {2012 Riverside Remaster, Jazzplus Series}

"The latter set, issued a year later, featured Houston Person in the saxophone chair, and Sonny Williams on trumpet; it was recorded in the studio and is much more of a hard bop date, with the organist displaying his consummate skills on the title track, "Lambert's Lounge," and "Departure." In all, this is an excellent showcase of both of the organist's personas; both recordings stand the test of time well, and the price can't be beat."


Johnny "Hammond" Smith - Black Coffee + Mr. Wonderful (1962-63) {2012 Riverside Remaster, Jazzplus Series}


NEW DIGITAL REMASTER
FULL LP-ARTWORKS IN BOOKLET


Personnel:
Johnny "Hammond" Smith - organ
Eddie McFadden - guitar
Leo Stevens - drums
Sonny Williams - trumper
Seldon Powell - tenor saxophone
Houston Person - tenor saxophone

tracklist:
Black Coffee (Riverside RS 9442)

01. Black Coffee
02. Monterey Theme
03. I Remember Clifford
04. Far Away Places
05. Rufus Toofus
06. Body And Soul
07. He's A Real Gone Guy

Mr. Wonderful (Riverside RS 9466)
08. Blues For De-De
09. Mr. Wonderful
10. Cyra
11. Lambert's Lodge
12. Love Letters
13. Blues On Sunday
14. Departure
15. Opus 2

Exact Audio Copy V1.0 beta 1 from 15. November 2010

EAC extraction logfile from 14. April 2013, 8:28

Johnny Hammond Smith / Black Coffee

Used drive : SONY DVD RW DRU-810A Adapter: 1 ID: 3

Read mode : Secure
Utilize accurate stream : Yes
Defeat audio cache : Yes
Make use of C2 pointers : No

Read offset correction

: 618
Overread into Lead-In and Lead-Out : No
Fill up missing offset samples with silence : Yes
Delete leading and trailing silent blocks : No
Null samples used in CRC calculations : Yes
Used interface
: Installed external ASPI interface
Gap handling
: Appended to previous track

Used output format : User Defined Encoder
Selected bitrate : 768 kBit/s
Quality : High
Add ID3 tag : No
Command line compressor : C:\Program Files\Exact Audio Copy-NEW\Flac\flac.exe
Additional command line options : -8 -V -T "ARTIST=%a" -T "TITLE=%t" -T "ALBUM=%g" -T "DATE=%y" -T "TRACKNUMBER=%n" -T "TOTALTRACKS=%x" -T "GENRE=%m" -T "ALBUMARTIST=%v" -T "ALBUM ARTIST=%v" -T "COMMENT=EAC V1.01b1, Secure Mode, Test & Copy, AccurateRip, FL

TOC of the extracted CD Track | Start | Length | Start sector | End sector
--1 | 0:00.00 | 4:19.45 | 0 | 19469 2 | 4:19.45 | 3:07.27 | 19470 | 33521 3 | 7:26.72 | 4:18.30 | 33522 | 52901 4 | 11:45.27 | 7:16.63 | 52902 | 85664 5 | 19:02.15 | 7:22.32 | 85665 | 118846 6 | 26:24.47 | 6:20.40 | 118847 | 147386 7 | 32:45.12 | 5:34.10 | 147387 | 172446 8 | 38:19.22 | 5:03.70 | 172447 | 195241 9 | 43:23.17 | 5:24.13 | 195242 | 219554
10 | 48:47.30 | 4:24.25 | 219555 | 239379
11 | 53:11.55 | 3:45.45 | 239380 | 256299
12 | 56:57.25 | 5:43.05 | 256300 | 282029
13 | 62:40.30 | 4:50.17 | 282030 | 303796
14 | 67:30.47 | 5:57.35 | 303797 | 330606
15 | 73:28.07 | 4:30.23 | 330607 | 350879

Track 1 Filename J:\New Rips\Johnny Hammond Smith - Black Coffee (2012) [FLAC]\01 - Black Coffee.wav Pre-gap length 0:00:02.00 Peak level 99.4 %
Extraction speed 4.8 X
Track quality 100.0 %
Test CRC F1A87C92
Copy CRC F1A87C92
Cannot be verified as accurate (confidence 2) [04F4A75F], AccurateRip returned [F2BC23F1]
Copy OK

Track 2 Filename J:\New Rips\Johnny Hammond Smith - Black Coffee (2012) [FLAC]\02 - Monterey Theme.wav Pre-gap length 0:00:01.65 Peak level 100.0 %
Extraction speed 5.0 X
Track quality 100.0 %
Test CRC F10F4082
Copy CRC F10F4082
Cannot be verified as accurate (confidence 2) [14F2BE97], AccurateRip returned [DA2A0775]
Copy OK

Track 3 Filename J:\New Rips\Johnny Hammond Smith - Black Coffee (2012) [FLAC]\03 - I Remember Clifford.wav Pre-gap length 0:00:02.17 Peak level 99.9 %
Extraction speed 5.6 X
Track quality 100.0 %
Test CRC F30BA97B
Copy CRC F30BA97B
Cannot be verified as accurate (confidence 2) [AC86E83F], AccurateRip returned [D57A180B]
Copy OK

Track 4 Filename J:\New Rips\Johnny Hammond Smith - Black Coffee (2012) [FLAC]\04 - Far Away Places.wav Pre-gap length 0:00:02.15 Peak level 100.0 %
Extraction speed 6.5 X
Track quality 100.0 %
Test CRC 33EDE2AB
Copy CRC 33EDE2AB
Cannot be verified as accurate (confidence 2) [88D38FA3], AccurateRip returned [2213C791]
Copy OK

Track 5 Filename J:\New Rips\Johnny Hammond Smith - Black Coffee (2012) [FLAC]\05 - Rufus Toofus.wav Pre-gap length 0:00:01.48 Peak level 100.0 %
Extraction speed 7.2 X
Track quality 100.0 %
Test CRC 79A9CA07
Copy CRC 79A9CA07
Cannot be verified as accurate (confidence 2) [822ED886], AccurateRip returned [866BCDE0]
Copy OK

Track 6 Filename J:\New Rips\Johnny Hammond Smith - Black Coffee (2012) [FLAC]\06 - Body And Soul.wav Pre-gap length 0:00:01.72 Peak level 99.9 %
Extraction speed 6.8 X
Track quality 99.9 %
Test CRC 2C5DEAC7
Copy CRC 2C5DEAC7
Cannot be verified as accurate (confidence 2) [54512605], AccurateRip returned [8A346CBB]
Copy OK

Track 7 Filename J:\New Rips\Johnny Hammond Smith - Black Coffee (2012) [FLAC]\07 - He's A Real Gone Guy.wav Pre-gap length 0:00:01.35 Peak level 100.0 %
Extraction speed 7.9 X
Track quality 100.0 %
Test CRC 69BE1D9D
Copy CRC 69BE1D9D
Cannot be verified as accurate (confidence 2) [7682F2B2], AccurateRip returned [D003832A]
Copy OK

Track 8 Filename J:\New Rips\Johnny Hammond Smith - Black Coffee (2012) [FLAC]\08 - Blues For De-De.wav Pre-gap length 0:00:02.15 Peak level 100.0 %
Extraction speed 8.0 X
Track quality 100.0 %
Test CRC E01F2ACA
Copy CRC E01F2ACA
Cannot be verified as accurate (confidence 2) [C1D44602], AccurateRip returned [13381B96]
Copy OK

Track 9 Filename J:\New Rips\Johnny Hammond Smith - Black Coffee (2012) [FLAC]\09 - Mr Wonderful.wav Pre-gap length 0:00:02.62 Peak level 100.0 %
Extraction speed 8.4 X
Track quality 100.0 %
Test CRC 4AFBDCA6
Copy CRC 4AFBDCA6
Cannot be verified as accurate (confidence 2) [399BFC67], AccurateRip returned [FEE08687]
Copy OK

Track 10 Filename J:\New Rips\Johnny Hammond Smith - Black Coffee (2012) [FLAC]\10 - Cyra.wav Pre-gap length 0:00:02.33 Peak level 100.0 %
Extraction speed 7.4 X
Track quality 99.9 %
Test CRC D4D03E29
Copy CRC D4D03E29
Cannot be verified as accurate (confidence 2) [548DF4DC], AccurateRip returned [11BDD6E4]
Copy OK

Track 11 Filename J:\New Rips\Johnny Hammond Smith - Black Coffee (2012) [FLAC]\11 - Lambert's Lodge.wav Pre-gap length 0:00:02.50 Peak level 100.0 %
Extraction speed 8.5 X
Track quality 100.0 %
Test CRC 48D0A758
Copy CRC 48D0A758
Cannot be verified as accurate (confidence 2) [2E2AC8DE], AccurateRip returned [3855B960]
Copy OK

Track 12 Filename J:\New Rips\Johnny Hammond Smith - Black Coffee (2012) [FLAC]\12 - Love Letters.wav Pre-gap length 0:00:02.73 Peak level 100.0 %
Extraction speed 9.3 X
Track quality 100.0 %
Test CRC 6F06D45D
Copy CRC 6F06D45D
Cannot be verified as accurate (confidence 2) [204517A3], AccurateRip returned [CD11F8AB]
Copy OK

Track 13 Filename J:\New Rips\Johnny Hammond Smith - Black Coffee (2012) [FLAC]\13 - Blues On Sunday.wav Pre-gap length 0:00:02.68 Peak level 100.0 %
Extraction speed 8.1 X
Track quality 99.9 %
Test CRC 35CE4615
Copy CRC 35CE4615
Cannot be verified as accurate (confidence 2) [24422D64], AccurateRip returned [5424810A]
Copy OK

Track 14 Filename J:\New Rips\Johnny Hammond Smith - Black Coffee (2012) [FLAC]\14 - Departure.wav Pre-gap length 0:00:03.37 Peak level 100.0 %
Extraction speed 9.9 X
Track quality 100.0 %
Test CRC BE1B7043
Copy CRC BE1B7043
Cannot be verified as accurate (confidence 2) [C83EBC66], AccurateRip returned [D8D7E55E]
Copy OK

Track 15 Filename J:\New Rips\Johnny Hammond Smith - Black Coffee (2012) [FLAC]\15 - Opus 2.wav Pre-gap length 0:00:02.50 Peak level 100.0 %
Extraction speed 8.4 X
Track quality 99.9 %
Test CRC 40C4CA01
Copy CRC 40C4CA01
Cannot be verified as accurate (confidence 2) [6B23B677], AccurateRip returned [C674E505]
Copy OK

No tracks could be verified as accurate
You may have a different pressing from the one(s) in the database

No errors occurred

End of status report

==== Log checksum B0290635E9378013B6E79BAACF550BE600CB69A71A91BC34804101804B8A54B7 ====

Johnny "Hammond" Smith - Black Coffee + Mr. Wonderful (1962-63) {2012 Riverside Remaster, Jazzplus Series}

Johnny "Hammond" Smith - Black Coffee + Mr. Wonderful (1962-63) {2012 Riverside Remaster, Jazzplus Series}

DOWNLOAD:
Buy Premium To Support Me & Get Resumable Support & Max Speed


Links are Interchangeable - No Password
Direct Download

Tags: Johnny, Hammond, Coffee, Wonderful, Riverside, Remaster, Jazzplus, Series

Johnny "Hammond" Smith - Black Coffee + Mr. Wonderful (1962-63) {2012 Riverside Remaster, Jazzplus Series} Download via Hotfile Rapidshare Fileserve Megaupload & FileSonic, Johnny "Hammond" Smith - Black Coffee + Mr. Wonderful (1962-63) {2012 Riverside Remaster, Jazzplus Series} free torrent downloads included crack, serial, keygen.Johnny "Hammond" Smith - Black Coffee + Mr. Wonderful (1962-63) {2012 Riverside Remaster, Jazzplus Series} Fast Download via Rapidshare Hotfile Fileserve Filesonic Megaupload, Johnny "Hammond" Smith - Black Coffee + Mr. Wonderful (1962-63) {2012 Riverside Remaster, Jazzplus Series} Torrents and Emule Download or anything related.
Leave a Comment
Your Name:
E-Mail:
Add Comments:

Enter Code: