Banco - Capolinea (1980)

Download Now

Banco - Capolinea (1980)

Banco - Capolinea (1980)
Rock | 1cd | EAC Rip | Flac + Cue + Log | covers
Strange Days, WAS-1039 | rel: 2005 | 280Mb

'Shame!'', ''Disco!'', ''They betrayed prog ideals!'', ''Why Banco did not kill themselves after this record?'' - is what we often read here and there about ''Capolinea''. Is this album really that bad? I don't think so.
On the contrary, we have here perfectly sounding live record of BANCO. Yes, with its highs and lows. The opener ''Il ragno'' has funky beat, pretty good for this uplifting song. Then we hear a decent version of ''Canto di primavera'', quite close to studio original. There are excellent melodic bass lines (fretless bass I guess) throughout the whole song and contrasting heavier part in the end of ''750.000 anni fa ... l'amore'' from ''Darwin!''. Nice! ''Capolinea'' is an instrumental jam based on ''Fino alla mia porta'' theme from the album ''Come in un'ultima cena''. Good live version again.
The only obvious flaw is, in my opinion, new arrangements of ''R.I.P.''. Funky (or, if you like, disco) beat and jazzy scats ruin dramatic atmosphere of one of the band's greatest songs, additionally reduced here to 4 and a half minutes. From the other hand, it's musicians' right to play their own music in some different way. Probably such significant song like ''R.I.P.'' was a wrong choice for experiments while in case of instrumental ''Garofano rosso'' new arrangements work quite well.
One of the best versions of ''Non mi rompete'' closes this short live album. I don't know whether this record presents the whole concert. Back then, in vinyl days, it was a risky move to make a double album. If other songs from that gig were recorded and longer CD will be released one day I'll be among those who orders a copy. ~progarchives

Track listing
01. Il Ragno (5:30)
02. Canto Di Primavera (4:58)
03. 750.000 Anni Fa... L'Amore (4:06)
04. Capolinea (1a parte) (4:14)
05. Capolinea (2a parte) (3:29)
06. R.I.P. (4:32)
07. Garofano Rosso (4:38)
08. Non Mi Rompete (6:54)
~ (38:21)

Personnel
- Francesco Di Giacomo / vocals
- Gianni Nocenzi / Yamaha GP 70 piano, Roland and Arp Odissey synthesizers
- Vittorio Nocenzi / Polysinth Yamaha CS 80, Minimoog, Multiman Crumar, Uranus 2, Vocostring CRB, vocals
- Rodolfo Maltese / electric & acoustic guitars, Sint Uranus 2, vocals
- Pierluigi Calderoni / drums, percussion
- Gianni Colailacomo / electric bass, acoustic guitar, EKO, vocals
- Karl Potter / percussion

Exact Audio Copy V0.99 prebeta 5 from 4. May 2009

Отчёт EAC об извлечении, выполненном 18. марта 2011, 22:55

Banco Del Mutuo Soccorso / Capolinea

Дисковод: MAD DOG MD-16X3DVD9-8XB Adapter: 3 ID: 1

Режим чтения : Достоверность
Использование точного потока : Да
Отключение кэша аудио : Да
Использование указателей C2 : Нет

Коррекция смещения при чтении : 48
Способность читать области Lead-in и Lead-out : Нет
Заполнение пропущенных сэмплов тишиной : Да
Удаление блоков с тишиной в начале и конце : Нет
При вычислениях CRC использовались нулевые сэмплы : Да
Интерфейс : Установленный внешний ASPI-интерфейс

Выходной формат : Внутренние WAV-операции
Формат сэмплов : 44.100 Гц; 16 бит; стерео

TOC извлечённого CD Трек | Старт | Длительность | Начальный сектор | Конечный сектор

1 | 0:00.00 | 5:29.70 | 0 | 24744
2 | 5:29.70 | 4:57.70 | 24745 | 47089
3 | 10:27.65 | 4:06.12 | 47090 | 65551
4 | 14:34.02 | 4:14.20 | 65552 | 84621
5 | 18:48.22 | 3:28.55 | 84622 | 100276
6 | 22:17.02 | 4:32.05 | 100277 | 120681
7 | 26:49.07 | 4:38.28 | 120682 | 141559
8 | 31:27.35 | 6:53.47 | 141560 | 172581

Характеристики диапазона извлечения и сообщения об ошибках

Выбранный диапазон Имя файла D:\obraz\Banco - Capolinea\Banco Del Mutuo Soccorso - Capolinea.wav Пиковый уровень 99.6 %
Качество диапазона 100.0 %
CRC теста 3BDAA023
CRC копии 3BDAA023
Копирование... OK

Ошибок не произошло


AccurateRip: сводка

Трек 1 точное извлечение (доверие 3) [D0BEA087]
Трек 2 точное извлечение (доверие 3) [4B6DA3B6]
Трек 3 точное извлечение (доверие 3) [64EF3477]
Трек 4 точное извлечение (доверие 3) DA53397
Трек 5 точное извлечение (доверие 3) [584A5508]
Трек 6 точное извлечение (доверие 3) [1585E284]
Трек 7 точное извлечение (доверие 3) [0B1965D0]
Трек 8 точное извлечение (доверие 3) [10FD1C1B]

Все треки извлечены точно

Конец отчёта

[CUETools log; Date: 2015.10.19. 10:17:57; Version: 2.1.5]
[CTDB TOCID: MkscN6g8mNFEdDYm1GhAKgCQmzA-] found.
Track | CTDB Status
1 | (2/2) Accurately ripped
2 | (2/2) Accurately ripped
3 | (2/2) Accurately ripped
4 | (2/2) Accurately ripped
5 | (2/2) Accurately ripped
6 | (2/2) Accurately ripped
7 | (2/2) Accurately ripped
8 | (2/2) Accurately ripped
[AccurateRip ID: 000b8d76-004c6b69-6708fd08] found.
Track [ CRC | V2 ] Status
01 [d0bea087|a1e43b2a] (4+2/6) Accurately ripped
02 [4b6da3b6|15da2703] (4+2/6) Accurately ripped
03 [64ef3477|35d2673f] (4+2/6) Accurately ripped
04 da53397|14ae0e33 (4+2/6) Accurately ripped
05 [584a5508|1ddb42e8] (4+2/6) Accurately ripped
06 [1585e284|46f48d18] (4+2/6) Accurately ripped
07 [0b1965d0|33306602] (4+2/6) Accurately ripped
08 [10fd1c1b|96fb0c17] (4+2/6) Accurately ripped

Track Peak [ CRC32 ] [W/O NULL]
-- 99,6 [3BDAA023] [0472D8E4]
01 99,6 [AEB13940] [5E771CC7]
02 99,6 [12288942] [20DA00CF]
03 99,6 [783B9A9A] [44A29E06]
04 99,6 [F950678C] [AEDCBFF2]
05 99,6 [E142A03B] [1FECB0EC]
06 99,6 67AC190 [0549302D]
07 99,6 [4C317947] [F5B3FDDB]
08 99,6 [33D7738D] [C9BEA1F9]

Thx to novox
password: asd
DOWNLOAD LINKS
Buy Premium From My Links To Get Resumable Support & Max Speed & To Support Me


Links are Interchangeable - No Password - Single Extraction
Direct Download

Tags: Capolinea

Banco - Capolinea (1980) Download via Hotfile Rapidshare Fileserve Megaupload & FileSonic, Banco - Capolinea (1980) free torrent downloads included crack, serial, keygen.Banco - Capolinea (1980) Fast Download via Rapidshare Hotfile Fileserve Filesonic Megaupload, Banco - Capolinea (1980) Torrents and Emule Download or anything related.
Leave a Comment
Your Name:
E-Mail:
Add Comments:

Enter Code: