Freda Payne - After The Lights Go Down Low (1963)

Download Now

Freda Payne - After The Lights Go Down Low (1963)

Freda Payne - After The Lights Go Down Low (1963)
EAC Rip | FLAC with CUE and log | scans | 232 mb
MP3 CBR 320kbps | RAR | 95 mb
Genre: vocal jazz, jazz

After The Lights Go Down Low is the 1963 album by Freda Payne. Also called After The Lights Go Down Low And Much More!!!, which was her debut for the jazz label Impulse Records, as she started out as a jazz singer. She moved on to MGM Records afterwards but would not have a successful song until 1970, when she released "Band Of Gold". This is from the CD released by Verve Music Group on 13 September, 2005.
"By the year 2000, the golden oldie rotation of "Band of Gold" was the main thing keeping the memory of Freda Payne alive. Yet deep in the catalog of the classic jazz label Impulse lies this ambitious, largely successful recording of After the Lights Go Down Low, which shows just how diverse, and indeed brilliant, Freda Payne can be. The album is divided into half big-band tracks, and the other into small a small combo setting. The main presence in both cases is alto saxophonist Phil Woods, and this is one of the few recordings he doesn't turn into a football scrimmage for bebop yardage. There is an incredible wealth of material here, and it is definitely impressive to consider that Duke Ellington wrote a song specifically for this session. It is the singer's confidence and marvelous vocal abilities that steal the show at every turn, but that is not to demean the contributions of top-drawer jazz musicians such as pianist Walter Perkins and guitarist Jim Hall. The record is dominated by Tin Pan Alley material, to be sure, but on the second side some serious jazz is attempted, including a beautiful "'Round Midnight," and a version of "Lonely Woman" by Ornette Coleman. When it comes to the latter tune, the author of the liner notes seems to be straining to hide his contempt, referring to the song as a "composition" in italics, as if it was too touchy to print such a thing in a regular font. It is hoped that an Impulse reissue will see the light of day in this case, so that the line "all that's left is a "band of gold"" will no longer be true in the case of this virtuoso songstress. The album was reissued on CD in 2005 in Verve's limited-edition series, with beautifully remastered sound, complete reproduction of album cover art, and liner notes."


Freda Payne - After The Lights Go Down Low (1963)

01. After the Lights Go Down Low
02. Sweet Pumpkin
03. Blue Piano
04. The Things We Love To Do
05. Awaken My Lonely One
06. Sweet September
07. I Cried for You
08. 'Round Midnight
09. Out of This World
10. Lonely Woman
11. I Wish I Knew
12. It's Time

Freda Payne-vocals
Al DeRisi-trumpet
Jimmy Nottingham-trumpet
Ernie Royal-trumpet
Nick Travis-trumpet
Quentin Jackson-trombone
Alan Raph-trombone
Bob Brookmeyer-valve trombone
Phil Woods-alto saxophone
Seldon Powell-tenor saxphone
Zoot Sims-tenor saxphone
Sol Schlinger-baritone saxophone
Hank Jones-piano
Art Davis-bass
Gus Johnson-drums
Manny Albam-arranger, conductor
Recorded September 1963 at RCA Studios, New York City
Tracks 1 and 2 on September 17
Tracks 3-6 on September 18

Tracks 7-12
Phil Woods-alto saxophone
Hank Jones-piano
Jim Hall-guitar
Art Davis-bass
Walter Perkins-drums
Recorded September 19, 1963 at RCA Studios, New York City

Produced by Bob Thiele
CD mastered by Hideaki Nishimura at Universal Music Mastering Studio-Tokyo

Freda Payne - After The Lights Go Down Low (1963)



EAC extraction logfile from 12. September 2006, 18:12 for CD
Freda Payne / After The Lights Go Down Low

Used drive : LITE-ON DVDRW SOHW-1633S Adapter: 0 ID: 0
Read mode : Secure with NO C2, accurate stream, disable cache
Read offset correction : 12
Overread into Lead-In and Lead-Out : No

Used output format : Internal WAV Routines 44.100 Hz; 16 Bit; Stereo

Other options :
Fill up missing offset samples with silence : Yes
Delete leading and trailing silent blocks : No
Installed external ASPI interface

Track 1
Filename D:\FLAC\Freda Payne - AFter The Lights Go Down Low (1963) [FLAC]\01 - After the Lights Go Down Low.wav Pre-gap length 0:00:02.00 Peak level 77.3 %
Track quality 100.0 %
Test CRC C300442E
Copy CRC C300442E
Copy OK

Track 2
Filename D:\FLAC\Freda Payne - AFter The Lights Go Down Low (1963) [FLAC]\02 - Sweet Pumpkin.wav Pre-gap length 0:00:03.88 Peak level 70.9 %
Track quality 99.9 %
Test CRC 1FEC171F
Copy CRC 1FEC171F
Copy OK

Track 3
Filename D:\FLAC\Freda Payne - AFter The Lights Go Down Low (1963) [FLAC]\03 - Blue Piano.wav Pre-gap length 0:00:03.66 Peak level 69.4 %
Track quality 100.0 %
Test CRC 254D02F2
Copy CRC 254D02F2
Copy OK

Track 4
Filename D:\FLAC\Freda Payne - AFter The Lights Go Down Low (1963) [FLAC]\04 - The Things We Love To Do.wav Pre-gap length 0:00:03.70 Peak level 71.4 %
Track quality 100.0 %
Test CRC C0B4229A
Copy CRC C0B4229A
Copy OK

Track 5
Filename D:\FLAC\Freda Payne - AFter The Lights Go Down Low (1963) [FLAC]\05 - Awaken My Lonely One.wav Pre-gap length 0:00:04.60 Peak level 74.6 %
Track quality 100.0 %
Test CRC 60E25D18
Copy CRC 60E25D18
Copy OK

Track 6
Filename D:\FLAC\Freda Payne - AFter The Lights Go Down Low (1963) [FLAC]\06 - Sweet September.wav Pre-gap length 0:00:03.64 Peak level 70.7 %
Track quality 100.0 %
Test CRC D2EA5933
Copy CRC D2EA5933
Copy OK

Track 7
Filename D:\FLAC\Freda Payne - AFter The Lights Go Down Low (1963) [FLAC]\07 - I Cried for You.wav Pre-gap length 0:00:03.66 Peak level 74.8 %
Track quality 99.9 %
Test CRC ED39B2CB
Copy CRC ED39B2CB
Copy OK

Track 8
Filename D:\FLAC\Freda Payne - AFter The Lights Go Down Low (1963) [FLAC]\08 - 'Round Midnight.wav Pre-gap length 0:00:03.22 Peak level 80.2 %
Track quality 100.0 %
Test CRC D48755E6
Copy CRC D48755E6
Copy OK

Track 9
Filename D:\FLAC\Freda Payne - AFter The Lights Go Down Low (1963) [FLAC]\09 - Out of This World.wav Pre-gap length 0:00:04.49 Peak level 73.3 %
Track quality 100.0 %
Test CRC F5C3C680
Copy CRC F5C3C680
Copy OK

Track 10
Filename D:\FLAC\Freda Payne - AFter The Lights Go Down Low (1963) [FLAC]\10 - Lonely Woman.wav Pre-gap length 0:00:03.48 Peak level 69.5 %
Track quality 100.0 %
Test CRC FC133A75
Copy CRC FC133A75
Copy OK

Track 11
Filename D:\FLAC\Freda Payne - AFter The Lights Go Down Low (1963) [FLAC]\11 - I Wish I Knew.wav Pre-gap length 0:00:04.13 Peak level 69.6 %
Track quality 100.0 %
Test CRC 05D0935C
Copy CRC 05D0935C
Copy OK

Track 12
Filename D:\FLAC\Freda Payne - AFter The Lights Go Down Low (1963) [FLAC]\12 - It's Time.wav Pre-gap length 0:00:03.94 Peak level 63.2 %
Track quality 100.0 %
Test CRC F1AB2FF2
Copy CRC F1AB2FF2
Copy OK

No errors occured

End of status report
DOWNLOAD LINKS
Buy Premium From My Links To Get Resumable Support & Max Speed & To Support Me


Links are Interchangeable - No Password - Single Extraction
Direct Download

Tags: Lights

Freda Payne - After The Lights Go Down Low (1963) Download via Hotfile Rapidshare Fileserve Megaupload & FileSonic, Freda Payne - After The Lights Go Down Low (1963) free torrent downloads included crack, serial, keygen.Freda Payne - After The Lights Go Down Low (1963) Fast Download via Rapidshare Hotfile Fileserve Filesonic Megaupload, Freda Payne - After The Lights Go Down Low (1963) Torrents and Emule Download or anything related.
Leave a Comment
Your Name:
E-Mail:
Add Comments:

Enter Code: