Gene Krupa & Buddy Rich - The Drum Battle At JATP (1960) {Verve By Request Edition}

Download Now

Gene Krupa & Buddy Rich - The Drum Battle At JATP (1960) {Verve By Request Edition}

Gene Krupa & Buddy Rich - The Drum Battle At JATP (1960) {Verve By Request Edition}
EAC Rip | FLAC with CUE and log | scans | 131 mb
MP3 CBR 320kbps | RAR | 79 mb
Genre: jazz

The Drum Battle At JATP is a 1960 album by drummers Gene Krupa and Buddy Rich of a "battle" recorded in 1952. This CD is part of the Verve By Request Edition series and was released on 17 August, 1999.
"This set was initially issued as the 15th instalment in Norman Grantz's Jazz at the Philharmonic series of LPs, EPs, and 45s. As that highly collectible compilation of performances has been out of print since the 1960s, many of the volumes were later issued under the respective artists' name. As the title would imply, Drum Battle: Jazz at the Philharmonic features the artistry of the Gene Krupa Trio with Buddy Rich (drums) sitting in on a few numbers as well as the inimitable jazz scat vocalizations of Ella Fitzgerald on a hot steppin' and definitive "Perdido." Opening the disc is Krupa's trio with Willie Smith (alto sax) and Hank Jones (piano) providing a solid and singularly swinging rhythm section. While Smith drives the band, Krupa is front and center with his antagonistic percussive prodding. "Idaho" is marked with Jones' rollicking post-bop mastery as he trades solos with Smith and can be heard quoting lines from Monk before yielding to Smith. The cover of Duke Ellington's "Sophisticated Lady" sparkles from beginning to end. Jones' opening flourish sets the tenure as Smith settles into a smoky lead, containing some nice syncopation and regal augmentation from Jones. Krupa primarily provides ample rhythm work on the emotive ballad. Smith's diversion into "Stormy Weather" is notable for exemplifying the lyrically improvisational nature of this combo. The tempo is significantly stepped up on a cover of Benny Goodman's "Flying Home," which is full of high-spirited playing and garners a sizable reaction from the audience. The lengthy "Drum Boogie" is one of Krupa's signature pieces and is greeted with tremendous enthusiasm. Buddy Rich climbs on board for a one-on-one duel with Krupa, whose styles mesh into a mile-a-minute wash of profound percussion. The duet segues into an inspired and free-form jam on "Perdido," with Fitzgerald belting out her lines with authority, class, and most of all, soul."


Gene Krupa & Buddy Rich - The Drum Battle At JATP (1960) {Verve By Request Edition}

1. Introduction By Norman Granz
2. Idaho
3. Sophisticated Lady
4. Flying Home
5. Drum Boogie
6. The Drum Battle
7. Perdido

On tracks 2-5
THE GENE KRUPA TRIO:
Gene Krupa-drums
Willie Smith-alto saxophone
Hank Jones-piano

On track 6
Gene Krupa-drums
Buddy Rich-drums

On track 7
Gene Krupa-drums
Buddy Rich-drums
Roy Eldridge-trumpet
Charlie Shavers-trumpet
Benny Carter-alto saxophone
Flip Phillips-tenor saxophone
-Lester Young-tenor saxophone
Oscar Peterson-piano
Barney Kessel-guitar
Ray Brown-bass
Ella Fitzgerald-vocals

Original recordings produced by Norman Granz
Recorded September 13, 1952 at Carnegie Hall, New York City (portions of the recording were apparently assembled from the two separate Carnegie Hall concerts of September 13)

CD Mastered by Lesson 25 at PolyGram Studios

Gene Krupa & Buddy Rich - The Drum Battle At JATP (1960) {Verve By Request Edition}



EAC extraction logfile from 15. August 2006, 19:39 for CD
Gene Krupa & Buddy Rich / The Drum Battle At JATP

Used drive : LITE-ON DVDRW SOHW-1633S Adapter: 0 ID: 0
Read mode : Secure with NO C2, accurate stream, disable cache
Read offset correction : 12
Overread into Lead-In and Lead-Out : No

Used output format : Internal WAV Routines 44.100 Hz; 16 Bit; Stereo

Other options :
Fill up missing offset samples with silence : Yes
Delete leading and trailing silent blocks : No
Installed external ASPI interface

Track 1
Filename D:\FLAC\Gene Krupa & Buddy Rich - The Drum Battle At JATP (1952) [FLAC] (Verve By Request Edition)\01 - Introduction By Norman Granz.wav Pre-gap length 0:00:02.00 Peak level 65.7 %
Track quality 100.0 %
Test CRC 0D87310C
Copy CRC 0D87310C
Copy OK

Track 2
Filename D:\FLAC\Gene Krupa & Buddy Rich - The Drum Battle At JATP (1952) [FLAC] (Verve By Request Edition)\02 - Idaho.wav Peak level 86.9 %
Track quality 99.9 %
Test CRC C754228E
Copy CRC C754228E
Copy OK

Track 3
Filename D:\FLAC\Gene Krupa & Buddy Rich - The Drum Battle At JATP (1952) [FLAC] (Verve By Request Edition)\03 - Sophisticated Lady.wav Peak level 82.4 %
Track quality 100.0 %
Test CRC 17C27D5C
Copy CRC 17C27D5C
Copy OK

Track 4
Filename D:\FLAC\Gene Krupa & Buddy Rich - The Drum Battle At JATP (1952) [FLAC] (Verve By Request Edition)\04 - Flying Home.wav Peak level 89.5 %
Track quality 100.0 %
Test CRC B7AE6B9E
Copy CRC B7AE6B9E
Copy OK

Track 5
Filename D:\FLAC\Gene Krupa & Buddy Rich - The Drum Battle At JATP (1952) [FLAC] (Verve By Request Edition)\05 - Drum Boogie.wav Pre-gap length 0:00:03.50 Peak level 99.6 %
Track quality 100.0 %
Test CRC 6C005B8A
Copy CRC 6C005B8A
Copy OK

Track 6
Filename D:\FLAC\Gene Krupa & Buddy Rich - The Drum Battle At JATP (1952) [FLAC] (Verve By Request Edition)\06 - The Drum Battle.wav Peak level 97.3 %
Track quality 100.0 %
Test CRC F1DE47F4
Copy CRC F1DE47F4
Copy OK

Track 7
Filename D:\FLAC\Gene Krupa & Buddy Rich - The Drum Battle At JATP (1952) [FLAC] (Verve By Request Edition)\07 - Perdido.wav Peak level 65.2 %
Track quality 100.0 %
Test CRC B7B3D66F
Copy CRC B7B3D66F
Copy OK

No errors occured

End of status report
DOWNLOAD LINKS
Buy Premium From My Links To Get Resumable Support & Max Speed & To Support Me


Links are Interchangeable - No Password - Single Extraction
Direct Download

Tags: Battle, Request

Gene Krupa & Buddy Rich - The Drum Battle At JATP (1960) {Verve By Request Edition} Download via Hotfile Rapidshare Fileserve Megaupload & FileSonic, Gene Krupa & Buddy Rich - The Drum Battle At JATP (1960) {Verve By Request Edition} free torrent downloads included crack, serial, keygen.Gene Krupa & Buddy Rich - The Drum Battle At JATP (1960) {Verve By Request Edition} Fast Download via Rapidshare Hotfile Fileserve Filesonic Megaupload, Gene Krupa & Buddy Rich - The Drum Battle At JATP (1960) {Verve By Request Edition} Torrents and Emule Download or anything related.
Leave a Comment
Your Name:
E-Mail:
Add Comments:

Enter Code: