Mozart - Maurerische Trauermusik K 477, Requiem K 626 (Jordi Savall) [2011]

Download Now

Mozart - Maurerische Trauermusik K 477, Requiem K 626 (Jordi Savall) [2011]


Mozart - Maurerische Trauermusik K 477, Requiem K 626 (Jordi Savall) [2011]
EAC Rip | FLAC, IMG+CUE, LOG | Covers | 1cd, 247.93 MB
Classical | Label: AliaVox | Catalog Number: AVSA 9880

" Mozart was an avowed Freemason, and his connection to the order became integrated with his compositional output. In 1785 he composed the Maurerische Trauermusik (Masonic Funeral Music). It was written in honor of two deceased brethren Franz, Count Esterhazy de Galantha and Georg August, Duke of Mecklenburg-Strelitz. Mozart associated certain musical motifs with Masonic ideas. The rising interval of the major sixth and various rhythmic embodiments of Masonic ritual knocks were among the elements he used as musical symbols. Although the Requiem is not specifically Masonic in nature, there are aspects present including some of these musical motifs. This 1991 recording bears the signature of Jordi Savall s talent as a conductor the intensity of emotion, clarity of structure and the emphasis on singing musical lines. This new multichannel re-mastering sheds new light on a true gem of the back catalog. "

Tracklisting:
1. Maurerische Trauermusik K 477 (Ode Funebre)
2. Requiem, K 626: I. Requiem
3. II. Dies Irae
4. III. Tuba Mirum
5. IV. Rex tremendae
6. V. Recordare
7. VI. Confutatis
8. VII. Lacrimosa
9. VIII. Domine Jesu
10. IX. Hostias
11. X. Sanctus
12. XI. Benedictus
13. XII. Agnus Dei
14. XIII. Lux Aeterna

Exact Audio Copy V1.0 beta 1 from 15. November 2010

EAC extraction logfile from 14. September 2011, 20:26

Le Concert des Nations - La Capella Reial de Catalunya - Jordi Savall / Mozart - Maurerische Trauermusik K477, Requiem K626

Used drive : PIONEER DVD-RW DVR-218L Adapter: 1 ID: 0

Read mode : Secure
Utilize accurate stream : Yes
Defeat audio cache : Yes
Make use of C2 pointers : No

Read offset correction

: 6
Overread into Lead-In and Lead-Out : No
Fill up missing offset samples with silence : Yes
Delete leading and trailing silent blocks : No
Null samples used in CRC calculations : Yes
Used interface
: Native Win32 interface for Win NT & 2000

Used output format : User Defined Encoder
Selected bitrate : 192 kBit/s
Quality : High
Add ID3 tag : No
Command line compressor : C:\Program Files\Exact Audio Copy\Flac\flac.exe
Additional command line options : -T "DATE=%y" -T "GENRE=%m" -8 -V %s

TOC of the extracted CD Track | Start | Length | Start sector | End sector
--1 | 0:00.00 | 5:24.51 | 0 | 24350 2 | 5:24.51 | 6:45.37 | 24351 | 54762 3 | 12:10.13 | 1:41.55 | 54763 | 62392 4 | 13:51.68 | 2:53.50 | 62393 | 75417 5 | 16:45.43 | 1:43.34 | 75418 | 83176 6 | 18:29.02 | 5:11.19 | 83177 | 106520 7 | 23:40.21 | 2:09.48 | 106521 | 116243 8 | 25:49.69 | 3:03.61 | 116244 | 130029 9 | 28:53.55 | 3:25.73 | 130030 | 145477
10 | 32:19.53 | 3:32.65 | 145478 | 161442
11 | 35:52.43 | 1:16.59 | 161443 | 167201
12 | 37:09.27 | 4:59.13 | 167202 | 189639
13 | 42:08.40 | 3:24.49 | 189640 | 204988
14 | 45:33.14 | 5:21.46 | 204989 | 229109

Range status and errors

Selected range Filename C:\Mozart - Maurerische Trauermusik K477, Requiem K626.wav Peak level 96.1 %
Extraction speed 0.1 X
Range quality 100.0 %
Test CRC 27420D71
Copy CRC 27420D71
Copy OK

No errors occurred


AccurateRip summary

Track 1 accurately ripped (confidence 2) 1452036
Track 2 accurately ripped (confidence 2) [4A3C655D]
Track 3 accurately ripped (confidence 2) [1CA62BD3]
Track 4 accurately ripped (confidence 2) [9F235430]
Track 5 accurately ripped (confidence 2) 7595F57
Track 6 accurately ripped (confidence 2) [23AEC895]
Track 7 accurately ripped (confidence 2) [5A69C245]
Track 8 accurately ripped (confidence 2) [5BFA71FF]
Track 9 accurately ripped (confidence 2) [9040BA40]
Track 10 accurately ripped (confidence 2) [1A033D4E]
Track 11 accurately ripped (confidence 2) [A6EA448B]
Track 12 accurately ripped (confidence 2) [01183030]
Track 13 accurately ripped (confidence 2) [D8D3BA3C]
Track 14 accurately ripped (confidence 2) [CF526EB9]

All tracks accurately ripped

End of status report

==== Log checksum 12174CEE0B7E52A19696BE8DDCF57B62E16644E8FBAACF19CD9B02BCF2629F3C ====


Performer:
Montserrat Figueras - soprano
Claudia Schubert - alto
Gerd Türk - tenor
Stephan Schreckenberger - bass
La Capella Reial de Catalunya
Le Concert des Nations
Direction - Jordi Savall
DOWNLOAD:
Buy Premium From My Links To Get Resumable Support & Max Speed & To Support Me


Links are Interchangeable - No Password
Direct Download

Tags: Mozart, Maurerische, Trauermusik, Requiem, Savall

Mozart - Maurerische Trauermusik K 477, Requiem K 626 (Jordi Savall) [2011] Download via Hotfile Rapidshare Fileserve Megaupload & FileSonic, Mozart - Maurerische Trauermusik K 477, Requiem K 626 (Jordi Savall) [2011] free torrent downloads included crack, serial, keygen.Mozart - Maurerische Trauermusik K 477, Requiem K 626 (Jordi Savall) [2011] Fast Download via Rapidshare Hotfile Fileserve Filesonic Megaupload, Mozart - Maurerische Trauermusik K 477, Requiem K 626 (Jordi Savall) [2011] Torrents and Emule Download or anything related.
Leave a Comment
Your Name:
E-Mail:
Add Comments:

Enter Code: