Ainigma - Diluvium (1973) [Reissue 2006]

Download Now

Ainigma - Diluvium (1973) [Reissue 2006]

Ainigma - Diluvium (1973) [Reissue 2006]
EAC Rip | FLAC (tracks+.cue+log) - 414 MB | MP3 CBR 320 kbps (LAME 3.93) - 138 MB | Covers - 54 MB
Genre: Progressive/Krautrock | RAR 3% Rec. | Label: Garden Of Delights (CD 118)

"Ainigma from Garmisch-Partenkirchen in Upper Bavaria played a quite rough and wild kind of progressive rock dominated by Willi Klüter's keyboards. Their only LP, "Diluvium" from 1973, deals with the Flood and is a collectors' item now. It is not bad musically, the extremely lousy recording, however, done - or rather: bungled - by an amateur, has not done it any good. Until now, several LP re-releases came out, some legally, some illegally, and one legitimate CD, though without any bonus tracks. For the Garden of Delights version on hand, Willi Klüter thoroughly remastered the master tapes in his studio, without, however, distorting the original sound."

Tracklist:
01. Prejudice
02. You Must Run
03. All Things Are Fading
04. Diluvium
05. Thunderstorm (Bonus track)
06. Diluvium (Instrumental, Bonus track)

Total time: 58:56

EAC extraction logfile from 24. November 2007, 9:27 for CD
Diluvium / Ainigma

Used drive : PLEXTOR DVDR PX-755A Adapter: 4 ID: 1
Read mode : Secure with NO C2, accurate stream, disable cache
Read offset correction : 30
Overread into Lead-In and Lead-Out : No

Used output format : Internal WAV Routines 44.100 Hz; 16 Bit; Stereo

Other options :
Fill up missing offset samples with silence : Yes
Delete leading and trailing silent blocks : No
Installed external ASPI interface

Track 1
Filename D:\1 - Music + Stuff\01 - Prejudice.wav Pre-gap length 0:00:02.00 Peak level 96.6 %
Track quality 100.0 %
Test CRC DD1D885A
Copy CRC DD1D885A
Copy OK

Track 2
Filename D:\1 - Music + Stuff\02 - You Must Run.wav Peak level 96.6 %
Track quality 100.0 %
Test CRC D0C80040
Copy CRC D0C80040
Copy OK

Track 3
Filename D:\1 - Music + Stuff\03 - All Things Are Fading.wav Peak level 96.6 %
Track quality 100.0 %
Test CRC 57E5BA3F
Copy CRC 57E5BA3F
Copy OK

Track 4
Filename D:\1 - Music + Stuff\04 - Diluvium.wav Peak level 96.6 %
Track quality 99.9 %
Test CRC 2DF54DA9
Copy CRC 2DF54DA9
Copy OK

Track 5
Filename D:\1 - Music + Stuff\05 - Thunderstorm.wav Peak level 96.6 %
Track quality 100.0 %
Test CRC 15C1A1CF
Copy CRC 15C1A1CF
Copy OK

Track 6
Filename D:\1 - Music + Stuff\06 - Diluvium (Inst.).wav Pre-gap length 0:00:03.00 Peak level 96.6 %
Track quality 100.0 %
Test CRC 52F6444C
Copy CRC 52F6444C
Copy OK

No errors occured

End of status report

[CUETools log; Date: 25.10.2015 19:00:46; Version: 2.1.4]
[CTDB TOCID: vnonUuoeGmTwlYKXcqpR3gLi5qg-] found.
Track | CTDB Status
1 | (3/3) Accurately ripped
2 | (3/3) Accurately ripped
3 | (3/3) Accurately ripped
4 | (3/3) Accurately ripped
5 | (3/3) Accurately ripped
6 | (3/3) Accurately ripped
[AccurateRip ID: 000be2c2-004225e6-5a0dcf06] found.
Track [ CRC | V2 ] Status
01 [71be8aaf|43e884e6] (0+3/3) Accurately ripped
02 [3ad006fa|b55e5fb3] (0+3/3) Accurately ripped
03 82dcaeb|cda6c84d (0+3/3) Accurately ripped
04 [08b1e448|c5ffc1f7] (0+3/3) Accurately ripped
05 [67ea1f59|4ad8217c] (0+3/3) Accurately ripped
06 [a49612fe|faf25941] (0+3/3) Accurately ripped

Track Peak [ CRC32 ] [W/O NULL] [ LOG ]
-- 96,6 [4EE8A2F3] [123295B1]
01 96,6 [DD1D885A] [2EF212C5] CRC32
02 96,6 [D0C80040] [9CCFAAA5] CRC32
03 96,6 [57E5BA3F] [86F870E8] CRC32
04 96,6 [2DF54DA9] [C4FFF07C] CRC32
05 96,6 [15C1A1CF] [967900B5] CRC32
06 96,6 [52F6444C] [D2BFCEC0] CRC32
Thanks to progunlmtd

More Garden of Delights releases from my blog:
DOWNLOAD LINKS:


No Password
Direct Download

Tags: Ainigma, Diluvium, Reissue

Ainigma - Diluvium (1973) [Reissue 2006] Download via Hotfile Rapidshare Fileserve Megaupload & FileSonic, Ainigma - Diluvium (1973) [Reissue 2006] free torrent downloads included crack, serial, keygen.Ainigma - Diluvium (1973) [Reissue 2006] Fast Download via Rapidshare Hotfile Fileserve Filesonic Megaupload, Ainigma - Diluvium (1973) [Reissue 2006] Torrents and Emule Download or anything related.
Leave a Comment
Your Name:
E-Mail:
Add Comments:

Enter Code: