BulletBoys - Elefante' (2015)

Download Now

BulletBoys - Elefante' (2015)

BulletBoys - Elefante' (2015)
EAC Rip | FLAC (Img) + Cue + Log ~ 329 Mb | MP3 CBR320 ~ 122 Mb
Scans Included (JPG, 400 dpi) | RAR 5% Recovery
Hard Rock | Deadline Music #CLP 2307

"BulletBoys is an American hard rock group formed in Los Angeles, California, in 1986. The group's original lineup was composed of former Ratt and Kagny and the Dirty Rats guitarist/King Kobra lead vocalist Marq Torien (vocals), former King Kobra guitarist Mick Sweda, Lonnie Vencent (bass) and Jimmy D'Anda (drums, percussion). To date, the band has released eight studio albums, BulletBoys (1988); Freakshow (1991); Za-Za (1993); Acid Monkey (1995); Sophie (2003); 10c Billionaire (2009), Rocked and Ripped (2011), and Elefanté (2015), as well as the live album Behind the Orange Curtain (2007)..."

Wiki | Discogs | All Music
***************

BulletBoys - Elefante' (2015)

Track List:

01. Rollover [03:09]
02. Tsunami [04:16]
03. Synphony [03:33]
04. The Villain [03:17]
05. Kin Folk [04:00]
06. Saving You From Me [03:32]
07. As Dumb As [04:35]
08. Superhuman Girl [04:03]
09. Drop Your Weapon [04:16]
10. Bitch Is Back [01:48]
11. Elefante' [04:02]

Exact Audio Copy V1.0 beta 3 from 29. August 2011

EAC extraction logfile from 24. October 2015, 13:48

BulletBoys / Elefante'

Used drive : PIONEER BD-RW BDR-TD03 Adapter: 0 ID: 1

Read mode : Secure
Utilize accurate stream : Yes
Defeat audio cache : Yes
Make use of C2 pointers : No

Read offset correction

: 667
Overread into Lead-In and Lead-Out : No
Fill up missing offset samples with silence : Yes
Delete leading and trailing silent blocks : No
Null samples used in CRC calculations : Yes
Used interface
: Native Win32 interface for Win NT & 2000

Used output format : User Defined Encoder
Selected bitrate : 768 kBit/s
Quality : High
Add ID3 tag : No
Command line compressor : C:\Program Files (x86)\Exact Audio Copy\FLAC\FLAC.EXE
Additional command line options : -6 -V -T "ARTIST=%artist%" -T "TITLE=%title%" -T "ALBUM=%albumtitle%" -T "DATE=%year%" -T "TRACKNUMBER=%tracknr%" -T "GENRE=%genre%" -T "COMMENT=%comment%" -T "BAND=%albuminterpret%" -T "ALBUMARTIST=%albuminterpret%" -T "COMPOSER=%composer%" %haslyrics%--tag-from-file=LYRICS="%lyricsfile%"%haslyrics% -T "DISCNUMBER=%cdnumber%" -T "TOTALDISCS=%totalcds%" -T "TOTALTRACKS=%numtracks%" %hascover%--picture="%coverfile%"%hascover% %source% -o %dest%

TOC of the extracted CD Track | Start | Length | Start sector | End sector
--1 | 0:00.00 | 3:08.18 | 0 | 14117 2 | 3:08.18 | 4:15.18 | 14118 | 33260 3 | 7:23.36 | 3:32.40 | 33261 | 49200 4 | 10:56.01 | 3:16.21 | 49201 | 63921 5 | 14:12.22 | 3:59.43 | 63922 | 81889 6 | 18:11.65 | 3:31.58 | 81890 | 97772 7 | 21:43.48 | 4:34.04 | 97773 | 118326 8 | 26:17.52 | 4:02.04 | 118327 | 136480 9 | 30:19.56 | 4:15.72 | 136481 | 155677
10 | 34:35.53 | 1:47.24 | 155678 | 163726
11 | 36:23.02 | 4:01.15 | 163727 | 181816

Range status and errors

Selected range Filename C:\Users\Deris\Desktop\...\BullBoSlon\BulletBoys - Elefante'.wav Peak level 100.0 %
Extraction speed 4.4 X
Range quality 100.0 %
Test CRC 9410A8DA
Copy CRC 9410A8DA
Copy OK

No errors occurred


AccurateRip summary

Track 1 accurately ripped (confidence 1) [A603EA20] (AR v2)
Track 2 accurately ripped (confidence 1) [598EFF8B] (AR v2)
Track 3 accurately ripped (confidence 1) [939C39FF] (AR v2)
Track 4 accurately ripped (confidence 1) [23F1176D] (AR v2)
Track 5 accurately ripped (confidence 1) [FF6C6094] (AR v2)
Track 6 accurately ripped (confidence 1) [6F357139] (AR v2)
Track 7 accurately ripped (confidence 1) [6E6BB178] (AR v2)
Track 8 accurately ripped (confidence 1) [0A03F5D7] (AR v2)
Track 9 accurately ripped (confidence 1) [78815B87] (AR v2)
Track 10 accurately ripped (confidence 1) [05ABDFD7] (AR v2)
Track 11 accurately ripped (confidence 1) EA5D774 (AR v2)

All tracks accurately ripped

End of status report

- CUETools DB Plugin V2.1.3

[CTDB TOCID: hBYMP_y4SQGPWZDzx08.EOt0Ec8-] found, Submit result: hBYMP_y4SQGPWZDzx08.EOt0Ec8- has been confirmed
[84c685c4] (1/1) Accurately ripped

==== Log checksum 5596378A5596C7FC5472B072A3019DBE9572A446FE19C5BE4F3A4BF46C772C33 ====

foobar2000 1.2.6 / Dynamic Range Meter 1.1.1
log date: 2015-10-25 13:49:24

Analyzed: BulletBoys / Elefante'

DR Peak RMS Duration Track

DR6 0.00 dB -7.38 dB 3:08 01-Rollover
DR7 0.00 dB -8.30 dB 4:15 02-Tsunami
DR7 0.00 dB -8.23 dB 3:33 03-Synphony
DR7 0.00 dB -7.86 dB 3:16 04-The Villain
DR6 0.00 dB -7.66 dB 4:00 05-Kin Folk
DR6 0.00 dB -7.57 dB 3:32 06-Saving You From Me
DR6 0.00 dB -7.20 dB 4:34 07-As Dumb As
DR6 0.00 dB -6.94 dB 4:02 08-Superhuman Girl
DR6 0.00 dB -7.21 dB 4:16 09-Drop Your Weapon
DR7 0.00 dB -8.88 dB 1:47 10-Bitch Is Back
DR6 0.00 dB -7.41 dB 4:01 11-Elefante'

Number of tracks: 11
Official DR value: DR6

Samplerate: 44100 Hz
Channels: 2
Bits per sample: 16
Bitrate: 1003 kbps
Codec: FLAC

[CUETools log; Date: 25.10.2015 13:49:19; Version: 2.1.5]
[CTDB TOCID: hBYMP_y4SQGPWZDzx08.EOt0Ec8-] found.
Track | CTDB Status
1 | (2/2) Accurately ripped
2 | (2/2) Accurately ripped
3 | (2/2) Accurately ripped
4 | (2/2) Accurately ripped
5 | (2/2) Accurately ripped
6 | (2/2) Accurately ripped
7 | (2/2) Accurately ripped
8 | (2/2) Accurately ripped
9 | (2/2) Accurately ripped
10 | (2/2) Accurately ripped
11 | (2/2) Accurately ripped
[AccurateRip ID: 0010ba03-00917cf7-9509780b] found.
Track [ CRC | V2 ] Status
01 [af286754|a603ea20] (0+1/2) Accurately ripped
02 [d295b76c|598eff8b] (0+1/2) Accurately ripped
03 [33169758|939c39ff] (0+1/2) Accurately ripped
04 [14361395|23f1176d] (0+1/2) Accurately ripped
05 [3365138d|ff6c6094] (0+1/2) Accurately ripped
06 [c1518574|6f357139] (0+1/2) Accurately ripped
07 [8d300ef5|6e6bb178] (0+1/2) Accurately ripped
08 [d45cce52|0a03f5d7] (0+1/2) Accurately ripped
09 [fa381893|78815b87] (0+1/2) Accurately ripped
10 [84a6d063|05abdfd7] (0+1/2) Accurately ripped
11 [816fef10|bea5d774] (0+1/2) Accurately ripped

Track Peak [ CRC32 ] [W/O NULL] [ LOG ]
-- 100,0 [9410A8DA] [8A56A699] CRC32
01 100,0 [E5F8DF02] [E8F1FF70]
02 100,0 920528D [E1E2F0A8]
03 100,0 [A9F764B0] [87C10C5C]
04 100,0 [19E550D8] [1A283452]
05 100,0 [CF4B7379] [62409A10]
06 100,0 [1F3E4B68] [9D3D89E5]
07 100,0 [55B55401] [83F10223]
08 100,0 [C88A30D6] [6B81630A]
09 100,0 A73A29F [7E47BAF8]
10 100,0 [EA008236] [E18658D8]
11 100,0 [309A3EFB] [DEA14DEF]

BulletBoys - Elefante' (2015)

See also:
DOWNLOAD LINKS
Buy Premium From My Links To Get Resumable Support & Max Speed & To Support Me


Links are Interchangeable - No Password - Single Extraction
Direct Download

Tags: BulletBoys, Elefante

BulletBoys - Elefante' (2015) Download via Hotfile Rapidshare Fileserve Megaupload & FileSonic, BulletBoys - Elefante' (2015) free torrent downloads included crack, serial, keygen.BulletBoys - Elefante' (2015) Fast Download via Rapidshare Hotfile Fileserve Filesonic Megaupload, BulletBoys - Elefante' (2015) Torrents and Emule Download or anything related.
Leave a Comment
Your Name:
E-Mail:
Add Comments:

Enter Code: