Grover Washington Jr. - Anthology Of Grover Washington Jr. (1985)

Download Now

Grover Washington Jr. - Anthology Of Grover Washington Jr. (1985)

Grover Washington Jr. - Anthology Of Grover Washington Jr. (1985)
EAC Rip | FLAC with CUE and log | scans | 345 mb
MP3 CBR 320kbps | RAR | 137 mb
Genre: jazz, vocal jazz, smooth jazz soul

Anthology Of Grover Washington Jr. is a 1985 compilation by the late saxophonist Grover Washington Jr. It features many of the jazz radio hits he would take to the charts, but also includes his biggest hit of his career, "Just The Two Of Us", which featured Bill Withers on vocals.
"Grover Washington Jr. covered a lot of ground and recorded for many labels in his lifetime. While some prefer the harder, more funkier work he did for the CTI subsidiary Kudu, his lighter work for the label lead him to being signed to Elektra Records. Anthology Of Grover Washington, Jr. highlights the best of his Elektra work. His style of smooth jazz would continue when he moved on to Columbia Records for the remainder of his career, but Washington was able to produce a few hits during his Elektra stay."


Grover Washington Jr. - Anthology Of Grover Washington Jr. (1985)

01. The Best Is Yet To Come
02. East River Drive
03. Be Mine (Tonight)
04. Can You Dig It
05. In The Name Of Love
06. Just The Two Of Us
07. Jammin'
08. Little Black Samba
09. Jet Stream
10. Let It Flow ("For Dr. J")

Grover Washington Jr. - Anthology Of Grover Washington Jr. (1985)



EAC extraction logfile from 12. October 2006, 14:45 for CD
Grover Washington Jr. / Anthology Of Grover Washington Jr.

Used drive : LITE-ON DVDRW SOHW-1633S Adapter: 0 ID: 0
Read mode : Secure with NO C2, accurate stream, disable cache
Read offset correction : 12
Overread into Lead-In and Lead-Out : No

Used output format : Internal WAV Routines 44.100 Hz; 16 Bit; Stereo

Other options :
Fill up missing offset samples with silence : Yes
Delete leading and trailing silent blocks : No
Installed external ASPI interface

Track 1
Filename D:\FLAC\Grover Washington Jr. - Anthology Of Grover Washington Jr. (1985) [FLAC]\01 - The Best Is Yet To Come.wav Pre-gap length 0:00:02.42 Peak level 89.9 %
Track quality 100.0 %
Test CRC 82CC8AC6
Copy CRC 82CC8AC6
Copy OK

Track 2
Filename D:\FLAC\Grover Washington Jr. - Anthology Of Grover Washington Jr. (1985) [FLAC]\02 - East River Drive.wav Pre-gap length 0:00:02.70 Peak level 90.7 %
Track quality 100.0 %
Test CRC 81BEC10B
Copy CRC 81BEC10B
Copy OK

Track 3
Filename D:\FLAC\Grover Washington Jr. - Anthology Of Grover Washington Jr. (1985) [FLAC]\03 - Be Mine (Tonight).wav Pre-gap length 0:00:02.64 Peak level 90.4 %
Track quality 100.0 %
Test CRC 697DF264
Copy CRC 697DF264
Copy OK

Track 4
Filename D:\FLAC\Grover Washington Jr. - Anthology Of Grover Washington Jr. (1985) [FLAC]\04 - Can You Dig It.wav Pre-gap length 0:00:02.62 Peak level 97.3 %
Track quality 100.0 %
Test CRC C6E6001C
Copy CRC C6E6001C
Copy OK

Track 5
Filename D:\FLAC\Grover Washington Jr. - Anthology Of Grover Washington Jr. (1985) [FLAC]\05 - In The Name Of Love.wav Pre-gap length 0:00:02.64 Peak level 93.4 %
Track quality 99.9 %
Test CRC B9E7D8D7
Copy CRC B9E7D8D7
Copy OK

Track 6
Filename D:\FLAC\Grover Washington Jr. - Anthology Of Grover Washington Jr. (1985) [FLAC]\06 - Just The Two Of Us.wav Pre-gap length 0:00:02.62 Peak level 96.4 %
Track quality 99.9 %
Test CRC D3BA6B75
Copy CRC D3BA6B75
Copy OK

Track 7
Filename D:\FLAC\Grover Washington Jr. - Anthology Of Grover Washington Jr. (1985) [FLAC]\07 - Jammin'.wav Pre-gap length 0:00:02.66 Peak level 92.7 %
Track quality 100.0 %
Test CRC E73A4732
Copy CRC E73A4732
Copy OK

Track 8
Filename D:\FLAC\Grover Washington Jr. - Anthology Of Grover Washington Jr. (1985) [FLAC]\08 - Little Black Samba.wav Pre-gap length 0:00:02.66 Peak level 100.0 %
Track quality 99.9 %
Test CRC 837D8288
Copy CRC 837D8288
Copy OK

Track 9
Filename D:\FLAC\Grover Washington Jr. - Anthology Of Grover Washington Jr. (1985) [FLAC]\09 - Jet Stream.wav Pre-gap length 0:00:02.70 Peak level 91.6 %
Track quality 99.9 %
Test CRC 04A8C52B
Copy CRC 04A8C52B
Copy OK

Track 10
Filename D:\FLAC\Grover Washington Jr. - Anthology Of Grover Washington Jr. (1985) [FLAC]\10 - Let It Flow (''For Dr. J'').wav Pre-gap length 0:00:02.69 Peak level 83.0 %
Track quality 100.0 %
Test CRC 5EABF497
Copy CRC 5EABF497
Copy OK

No errors occured

End of status report
DOWNLOAD LINKS
Buy Premium From My Links To Get Resumable Support & Max Speed & To Support Me


Links are Interchangeable - No Password - Single Extraction
Direct Download

Tags: Grover, Washington, Anthology, Grover, Washington

Grover Washington Jr. - Anthology Of Grover Washington Jr. (1985) Download via Hotfile Rapidshare Fileserve Megaupload & FileSonic, Grover Washington Jr. - Anthology Of Grover Washington Jr. (1985) free torrent downloads included crack, serial, keygen.Grover Washington Jr. - Anthology Of Grover Washington Jr. (1985) Fast Download via Rapidshare Hotfile Fileserve Filesonic Megaupload, Grover Washington Jr. - Anthology Of Grover Washington Jr. (1985) Torrents and Emule Download or anything related.
Leave a Comment
Your Name:
E-Mail:
Add Comments:

Enter Code: