Jeannie Reynolds ‎- One Wish (1977) [2012 Expansion Recs]

Download Now

Jeannie Reynolds ‎- One Wish (1977) [2012 Expansion Recs]

Jeannie Reynolds ‎- One Wish (1977) [2012]
EAC Rip | FLAC (Tracks) +CUE, LOG | 422 MB | Covers Included
R&B / Soul | Label: Expansion Records | Catalog Number: EXCDM 39

"L J Reynolds produced his sister Jeannie's second album ‘One Wish' in 1977. Jeannie's big voice is well suited to the Isaac Hayes/David Porter song ‘Guide Me Well' (produced by Don Davis). Jeannie's rare groove/two step classic ‘I Don't Want To Be Second Best' and ‘Don't Make Me A Fool' (using the riff from Soulful Strut') are the album's highlights along with the bonus cut ‘Unwanted Company'."

"Expansion proudly presents on CD for the first time, a true mid 70s lost soul gem from the vaults of Casablanca Records. Jeannie’s voice has been compared to such greats as Gladys Knight and Tina Turner, and her tragic story left a legacy of only two albums, “One Wish” being the second and released in 1977. Jeannie was the sister of Detroit soul star L.J. Reynolds who predominantly composed and produced songs on “One Wish” during his time with The Dramatics, and the group’s producer Don Davis was also at work here too. The album has so many highlights it’s hard to know where to start. There’s the soul drenched power ballad “I’m Hooked On You”, a song later recorded by The Dramatics themselves, and much later sampled by The Prodigy on “Stuck On You”. There is further drama in the gospel styled production of the Hayes/Porter song “Guide Me Well” and the show tune flavoured “I Know I’ll Always be In Love With You”, both with so much soul alongside the funk elsewhere on the album and the masterpiece many have collected this album on vinyl for over the years, “I Don’t Want To Be Second Best”. Bonus tracks include four sides from two 7” singles, all non-album tracks and including her biggest commercial hit “The Phone’s Been Jumping All Day”. This is all quality soul from the post Motown, pre-disco period of innovative and lavishly produced music."


Exact Audio Copy V1.0 beta 3 from 29. August 2011

EAC extraction logfile from 24. October 2015, 16:11

Jeannie Reynolds / One Wish

Used drive : GENERIC CDRCB05 Adapter: 4 ID: 0

Read mode : Secure
Utilize accurate stream : Yes
Defeat audio cache : Yes
Make use of C2 pointers : No

Read offset correction

: 102
Overread into Lead-In and Lead-Out : No
Fill up missing offset samples with silence : Yes
Delete leading and trailing silent blocks : No
Null samples used in CRC calculations : Yes
Used interface
: Native Win32 interface for Win NT & 2000
Gap handling
: Appended to previous track

Used output format : User Defined Encoder
Selected bitrate : 1024 kBit/s
Quality : High
Add ID3 tag : No
Command line compressor : C:\Program Files\FLAC\flac.exe
Additional command line options : -8 -V -T "ARTIST=%artist%" -T "TITLE=%title%" -T "ALBUM=%albumtitle%" -T "DATE=%year%" -T "TRACKNUMBER=%tracknr%" -T "GENRE=%genre%" -T "PERFORMER=%albuminterpret%" -T "COMPOSER=%composer%" %haslyrics%--tag-from-file=LYRICS="%lyricsfile%"%haslyrics% -T "ALBUMARTIST=%albumartist%" -T "DISCNUMBER=%cdnumber%" -T "TOTALDISCS=%totalcds%" -T "TOTALTRACKS=%numtracks%" -T "COMMENT=%comment%" %source% -o %dest%

TOC of the extracted CD Track | Start | Length | Start sector | End sector
--1 | 0:00.00 | 4:30.27 | 0 | 20276 2 | 4:30.27 | 3:11.52 | 20277 | 34653 3 | 7:42.04 | 3:45.46 | 34654 | 51574 4 | 11:27.50 | 5:24.62 | 51575 | 75936 5 | 16:52.37 | 3:11.28 | 75937 | 90289 6 | 20:03.65 | 4:23.52 | 90290 | 110066 7 | 24:27.42 | 3:46.41 | 110067 | 127057 8 | 28:14.08 | 3:37.32 | 127058 | 143364 9 | 31:51.40 | 3:33.27 | 143365 | 159366
10 | 35:24.67 | 3:56.38 | 159367 | 177104
11 | 39:21.30 | 3:28.37 | 177105 | 192741
12 | 42:49.67 | 4:52.64 | 192742 | 214705

Track 1 Filename G:\POSTS\Jeannie Reynolds ‎- One Wish (1977) [2012]\01 - Come My Way.wav Pre-gap length 0:00:02.00 Peak level 98.8 %
Extraction speed 2.5 X
Track quality 100.0 %
Test CRC 2C61F460
Copy CRC 2C61F460
Track not present in AccurateRip database
Copy OK

Track 2 Filename G:\POSTS\Jeannie Reynolds ‎- One Wish (1977) [2012]\02 - Be Someone.wav Pre-gap length 0:00:01.56 Peak level 98.8 %
Extraction speed 2.6 X
Track quality 100.0 %
Test CRC AC7F17F4
Copy CRC AC7F17F4
Track not present in AccurateRip database
Copy OK

Track 3 Filename G:\POSTS\Jeannie Reynolds ‎- One Wish (1977) [2012]\03 - I Know I'll Always Be In Love With You.wav Pre-gap length 0:00:02.13 Peak level 98.8 %
Extraction speed 2.9 X
Track quality 100.0 %
Test CRC 2FBD5016
Copy CRC 2FBD5016
Track not present in AccurateRip database
Copy OK

Track 4 Filename G:\POSTS\Jeannie Reynolds ‎- One Wish (1977) [2012]\04 - I'm Hooked On You.wav Pre-gap length 0:00:02.07 Peak level 98.8 %
Extraction speed 3.2 X
Track quality 100.0 %
Test CRC 6DFC003B
Copy CRC 6DFC003B
Track not present in AccurateRip database
Copy OK

Track 5 Filename G:\POSTS\Jeannie Reynolds ‎- One Wish (1977) [2012]\05 - Sexy Man.wav Pre-gap length 0:00:02.27 Peak level 98.8 %
Extraction speed 3.2 X
Track quality 100.0 %
Test CRC 82C3E374
Copy CRC 82C3E374
Track not present in AccurateRip database
Copy OK

Track 6 Filename G:\POSTS\Jeannie Reynolds ‎- One Wish (1977) [2012]\06 - I Don't Want To Be Second Best.wav Pre-gap length 0:00:01.30 Peak level 98.8 %
Extraction speed 3.5 X
Track quality 100.0 %
Test CRC 7BA9158A
Copy CRC 7BA9158A
Track not present in AccurateRip database
Copy OK

Track 7 Filename G:\POSTS\Jeannie Reynolds ‎- One Wish (1977) [2012]\07 - Don't Make A Fool Of Me.wav Pre-gap length 0:00:03.24 Peak level 98.8 %
Extraction speed 3.6 X
Track quality 100.0 %
Test CRC 92599B33
Copy CRC 92599B33
Track not present in AccurateRip database
Copy OK

Track 8 Filename G:\POSTS\Jeannie Reynolds ‎- One Wish (1977) [2012]\08 - Guide Me Well.wav Pre-gap length 0:00:02.02 Peak level 98.8 %
Extraction speed 3.2 X
Track quality 99.9 %
Test CRC 43A127BC
Copy CRC 43A127BC
Track not present in AccurateRip database
Copy OK

Track 9 Filename G:\POSTS\Jeannie Reynolds ‎- One Wish (1977) [2012]\09 - The Phone's Been Jumping All Day.wav Pre-gap length 0:00:01.65 Peak level 98.8 %
Extraction speed 3.8 X
Track quality 100.0 %
Test CRC 8E28F666
Copy CRC 8E28F666
Track not present in AccurateRip database
Copy OK

Track 10 Filename G:\POSTS\Jeannie Reynolds ‎- One Wish (1977) [2012]\10 - Unwanted Company.wav Pre-gap length 0:00:02.38 Peak level 98.8 %
Extraction speed 4.1 X
Track quality 100.0 %
Test CRC B56DF624
Copy CRC B56DF624
Track not present in AccurateRip database
Copy OK

Track 11 Filename G:\POSTS\Jeannie Reynolds ‎- One Wish (1977) [2012]\11 - Lay Some Lovin' On Me.wav Pre-gap length 0:00:01.13 Peak level 98.8 %
Extraction speed 3.6 X
Track quality 99.9 %
Test CRC E753DAA9
Copy CRC E753DAA9
Track not present in AccurateRip database
Copy OK

Track 12 Filename G:\POSTS\Jeannie Reynolds ‎- One Wish (1977) [2012]\12 - Love Don't Come Easy For Me.wav Pre-gap length 0:00:01.50 Peak level 100.0 %
Extraction speed 4.5 X
Track quality 100.0 %
Test CRC 7473CC6E
Copy CRC 7473CC6E
Track not present in AccurateRip database
Copy OK

None of the tracks are present in the AccurateRip database

No errors occurred

End of status report

==== Log checksum 33EC49AB5CAE2EDEA5141469EC37AB7E83F133CC96DE34BFCD913BDFEDC36609 ====

Tracklist:
01. Come My Way
02. Be Someone
03. I Know I'll Always Be In Love With You
04. I'm Hooked On You
05. Sexy Man
06. I Don't Want To Be Second Best
07. Don't Make A Fool Of Me
08. Guide Me Well
09. The Phone's Been Jumping All Day
10. Unwanted Company
11. Lay Some Loving On Me
12. Love Don't Come Easy For Me
DOWNLOAD LINKS:
Buy Premium To Support Me & Get Resumable Support & Max Speed


Links are Interchangeable - No Password - Single Extraction
Direct Download

Tags: Jeannie, Reynolds, Expansion

Jeannie Reynolds ‎- One Wish (1977) [2012 Expansion Recs] Download via Hotfile Rapidshare Fileserve Megaupload & FileSonic, Jeannie Reynolds ‎- One Wish (1977) [2012 Expansion Recs] free torrent downloads included crack, serial, keygen.Jeannie Reynolds ‎- One Wish (1977) [2012 Expansion Recs] Fast Download via Rapidshare Hotfile Fileserve Filesonic Megaupload, Jeannie Reynolds ‎- One Wish (1977) [2012 Expansion Recs] Torrents and Emule Download or anything related.
Leave a Comment
Your Name:
E-Mail:
Add Comments:

Enter Code: