Journey - Captured (1981) (BSCD2)

Download Now

Journey - Captured (1981) (BSCD2)

Journey - Captured (1981) (BSCD2)
Rock | 1cd | EAC Rip | Flac + Cue + Log | covers
Sony, SICP 30138 | rem: 2013 | 510Mb + 570MB scans

After spending the better half of the '70s as an ersatz prog band given to Neal Schon's noodling, never-ending solos, low record sales, and muddling about on the marginal rock circuit, the members of Journey certainly welcomed the phenomenal chart success and arena tours that came their way in the late '70s. With Captured, a live double-disc from 1980, the newly crowned kings of AOR show off like a formerly fat girl at prom. "Separate Ways" and "Faithfully" were still a few years away, but the band had plenty of hits by this time and they blast through them all, including a blistering version of "Any Way You Want It."
The band are in rare form and vocalist Steve Perry uses Captured as his coming out, while the thousands of diehards sweating in the blistering sun give the album an underlying hum of energy that tops even Perry's. ~Allmusic

Track listing
01. Majestic (0:42)
02. Where Were You (3:23)
03. Just The Same Way (3:37)
04. Line Of Fire (3:19)
05. Lights (3:31)
06. Stay Awhile (2:19)
07. Too Late (3:42)
08. Dixie Highway (6:54)
09. Feeling That Way (3:15)
10. Anytime (4:26)
11. Do You Recall (3:27)
12. Walks Like A Lady (7:08)
13. La Do Da (7:03)
14. Lovin', Touchin', Squeezin' (5:10)
15. Wheel In The Sky (5:02)
16. Any Way You Want It (3:41)
17. The Party's Over (Hopelessly In Love) (3:43)
~ (70:22)

Personnel
- Steve Perry - lead vocals
- Neal Schon - guitar, vocals
- Gregg Rolie - keyboards, vocals
- Ross Valory - bass, vocals
- Steve Smith - drums, percussion

Exact Audio Copy V1.0 beta 3 from 29. August 2011

EAC extraction logfile from 3. May 2013, 20:10

Journey / Captured BSCD2

Used drive : PLEXTOR BD-R PX-B950SA Adapter: 6 ID: 0

Read mode : Secure
Utilize accurate stream : Yes
Defeat audio cache : Yes
Make use of C2 pointers : No

Read offset correction

: 6
Overread into Lead-In and Lead-Out : No
Fill up missing offset samples with silence : Yes
Delete leading and trailing silent blocks : No
Null samples used in CRC calculations : Yes
Used interface
: Native Win32 interface for Win NT & 2000

Used output format : Internal WAV Routines
Sample format : 44.100 Hz; 16 Bit; Stereo

TOC of the extracted CD Track | Start | Length | Start sector | End sector
--1 | 0:00.00 | 0:41.47 | 0 | 3121 2 | 0:41.47 | 3:22.54 | 3122 | 18325 3 | 4:04.26 | 3:37.09 | 18326 | 34609 4 | 7:41.35 | 3:19.31 | 34610 | 49565 5 | 11:00.66 | 3:31.32 | 49566 | 65422 6 | 14:32.23 | 2:18.46 | 65423 | 75818 7 | 16:50.69 | 3:41.51 | 75819 | 92444 8 | 20:32.45 | 6:53.74 | 92445 | 123493 9 | 27:26.44 | 3:15.00 | 123494 | 138118
10 | 30:41.44 | 4:26.27 | 138119 | 158095
11 | 35:07.71 | 3:26.69 | 158096 | 173614
12 | 38:34.65 | 7:07.73 | 173615 | 205712
13 | 45:42.63 | 7:02.64 | 205713 | 237426
14 | 52:45.52 | 5:09.48 | 237427 | 260649
15 | 57:55.25 | 5:02.31 | 260650 | 283330
16 | 62:57.56 | 3:40.69 | 283331 | 299899
17 | 66:38.50 | 3:42.67 | 299900 | 316616

Range status and errors

Selected range Filename C:\Users\Meijin\Desktop\Lossless_ ALLexxess\Journey\1981 Captured (Sony Music Japan Mini LP BSCD2 2013)\Journey - Captured BSCD2.wav Peak level 98.8 %
Extraction speed 3.9 X
Range quality 100.0 %
Test CRC 47025E08
Copy CRC 47025E08
Copy OK

No errors occurred


AccurateRip summary

Track 1 not present in database
Track 2 not present in database
Track 3 not present in database
Track 4 not present in database
Track 5 not present in database
Track 6 not present in database
Track 7 not present in database
Track 8 not present in database
Track 9 not present in database
Track 10 not present in database
Track 11 not present in database
Track 12 not present in database
Track 13 not present in database
Track 14 not present in database
Track 15 not present in database
Track 16 not present in database
Track 17 not present in database

None of the tracks are present in the AccurateRip database

End of status report

==== Log checksum 1A2130BAEFFE728ECD4B279EFFECBBDF206ED1B56D955B719794ED0CCAA601E0 ====

[CUETools log; Date: 2015.10.28. 9:34:37; Version: 2.1.5]
[AccurateRip ID: 0026b351-0201ac5f-e1107d11] found.
Track [ CRC | V2 ] Status
01 [79af22e6|cbfcff33] (0+2/2) Accurately ripped
02 [366a396f|072f6874] (0+2/2) Accurately ripped
03 [f4c0b5ab|a534ecaf] (0+2/2) Accurately ripped
04 [570efce1|f9dd51a0] (0+2/2) Accurately ripped
05 [ab47809d|91a9020f] (0+2/2) Accurately ripped
06 [aead0d85|da347348] (0+2/2) Accurately ripped
07 [c90da3c6|d68ea916] (0+2/2) Accurately ripped
08 [3b4a5338|0d7edc2b] (0+2/2) Accurately ripped
09 [a395e520|4def2e14] (0+2/2) Accurately ripped
10 [afed6f4b|7a1e6b1c] (0+2/2) Accurately ripped
11 [cb4ac0da|6937d6cd] (0+2/2) Accurately ripped
12 [db45429d|c6147c1c] (0+2/2) Accurately ripped
13 [8aa5bf36|039267fd] (0+2/2) Accurately ripped
14 [cc8e06ed|5c4732ed] (0+2/2) Accurately ripped
15 [d59549f4|ec9833f2] (0+2/2) Accurately ripped
16 [f0c64935|5e4d598e] (0+2/2) Accurately ripped
17 [5a9dd5cf|9fa5be2c] (0+2/2) Accurately ripped

Track Peak [ CRC32 ] [W/O NULL] [ LOG ]
-- 98,8 [47025E08] [EE972432] CRC32
01 77,0 [F95D063C] [C8E85ADF]
02 98,8 [1BBC1B36] [3FDAD3DA]
03 98,8 51DC269 F5C5E61
04 98,8 [FFAA328B] [01278A9E]
05 98,8 [95DF330E] [8E10E7B5]
06 98,8 [13DC97EF] [0865FBD1]
07 98,8 [E369D498] [987F5003]
08 98,8 [AB949D5F] [45BCF1AC]
09 98,8 [EAE8C8F8] [54120966]
10 98,8 [A09E1B99] [76285381]
11 98,8 AA35E9A [CE21A4DF]
12 98,8 AC42B30 [F607B97D]
13 98,8 [E63D2277] [A3761CFD]
14 98,8 [690FEE3A] [9CDF7676]
15 98,8 331A66F [CE0293F3]
16 98,8 [17619C57] [C797B58B]
17 98,8 [F4EF34F3] [CA3990CE]

Thx to ALLexxess
password: asd
DOWNLOAD LINKS
Buy Premium From My Links To Get Resumable Support & Max Speed & To Support Me


Links are Interchangeable - No Password - Single Extraction
Direct Download

Tags: Journey, Captured

Journey - Captured (1981) (BSCD2) Download via Hotfile Rapidshare Fileserve Megaupload & FileSonic, Journey - Captured (1981) (BSCD2) free torrent downloads included crack, serial, keygen.Journey - Captured (1981) (BSCD2) Fast Download via Rapidshare Hotfile Fileserve Filesonic Megaupload, Journey - Captured (1981) (BSCD2) Torrents and Emule Download or anything related.
Leave a Comment
Your Name:
E-Mail:
Add Comments:

Enter Code: