New Order - Movement (1981) 2CD Collector's Remastered Edition 2008 [Correct Reissue 2009]

Download Now

New Order - Movement (1981) 2CD Collector's Remastered Edition 2008 [Correct Reissue 2009]

New Order - Movement (1981) 2CD Collector's Remastered Edition 2008 [Correct Reissue 2009]
EAC | FLAC | Tracks (Cue&Log) ~ 630 Mb (incl 5%) | Mp3 (CBR320) ~ 215 Mb (incl 5%) | Scans ~ 147 Mb
Genre: Alternative Dance Rock, Post-Punk, Synthpop | Label: London/Rhino | # 2564693694 | Time: 01:30:01

"Digitally remastered and expanded two CD edition of this 1981 album from the Manchester quartet, one of the most successful and consistent bands of the '80s and beyond. After the suicide of vocalist, Ian Curtis, the three surviving members of Joy Division regrouped under the band name New Order, adding Gillian Gilbert on keyboards. The rest, as they say, is history. Disc One in this package contains the original album in its digitally remastered glory. Disc Two is filled with 10 non-album singles, B-sides and remixes. This is as great as it gets!"

"Movement is the first hesitant step in the transition from Joy Division to New Order. Despite a relatively assured debut single ("Ceremony," which didn't even appear on the album), the first New Order album revealed a band apparently caught up in mourning for its former lead singer. (But of course, themes of loss and isolation were hardly novel for them.) Movement encompassed songs written just after the suicide of Ian Curtis, and it was recorded with alternating vocal spots to see whose would fit best -- although neither Peter Hook nor Bernard Sumner sounded worthy of the mantle. (At times, their hesitancy makes it sound as if they were recording guide vocals for a Joy Division LP, expecting Ian Curtis to come in later.) Despite the band's opaque lyrics, critics and fans were spotting references to Curtis all over the record, with despair and confusion reigning especially on "Senses" ("No reason ever was given") and "ICB" ("It's so far away, and it's closing in"). More so than on any Joy Division record, it also revealed a group unafraid to experiment relentlessly in the studio until it had emerged with something unique. Spurred on by producer Martin Hannett, despite his antagonistic relationship with the band (and perhaps, because of it), New Order produced a ghostly, brittle record, occasionally uptempo but never upbeat, with drum machines rattling and echoing over dark waves of synthesizers and Hook's basswork. A masterpiece in the career of any other post-punk band, Movement only paled in comparison to the band's later work. [Rhino's 2008 remastering of New Order's first five albums, subtitled The Factory Years, provided complete remastering of each original LP plus a bonus disc that included a good sampling of the band's non-album material contemporary to the album. For Movement, that means both sides of their critical 1981-1982 singles ("Ceremony," "Temptation," "Everything's Gone Green") plus alternate versions of "Ceremony" and "Everything's Gone Green."]

Review by John Bush, Allmusic.com
"




Tracklist:

CD1 - The Album:

01. Dreams Never End (03:15)
02. Truth (04:39)
03. Senses (04:46)
04. Chosen Time (04:08)
05. ICB (04:34)
06. The Him (05:31)
07. Doubts Even Here (04:19)
08. Denial (04:23)

CD2 - Bonus:

01. Ceremony (Alternative version) (04:26)
02. Temptation (7' mix) (05:24)
03. In a Lonely Place (06:17)
04. Everything's Gone Green (05:33)
05. Procession (04:29)
06. Cries and Whispers (03:26)
07. Hurt (08:04)
08. Mesh (03:03)
09. Ceremony (04:37)
10. Temptation (12' mix) (08:56)


Exact Audio Copy V1.0 beta 6 from 9. April 2015

EAC extraction logfile from 11. September 2015, 0:30

New Order / Movement (Collector's Edition) CD1

Used drive : PIONEER DVD-RW DVR-221L Adapter: 1 ID: 1

Read mode : Secure
Utilize accurate stream : Yes
Defeat audio cache : Yes
Make use of C2 pointers : No

Read offset correction

: 6
Overread into Lead-In and Lead-Out : No
Fill up missing offset samples with silence : Yes
Delete leading and trailing silent blocks : No
Null samples used in CRC calculations : Yes
Used interface
: Native Win32 interface for Win NT & 2000
Gap handling
: Appended to previous track

Used output format : User Defined Encoder
Selected bitrate : 1024 kBit/s
Quality : High
Add ID3 tag : Yes
Command line compressor : C:\Program Files (x86)\Exact Audio Copy\FLAC\FLAC.EXE
Additional command line options : -6 -V -T "COMMENT=Ripped by RRC" -T "ARTIST=%artist%" -T "TITLE=%title%" -T "ALBUM=%albumtitle%" -T "DATE=%year%" -T "TRACKNUMBER=%tracknr%" -T "GENRE=%genre%" -T "BAND=%albuminterpret%" -T "ALBUMARTIST=%albuminterpret%" -T "COMPOSER=%composer%" %haslyrics%--tag-from-file=LYRICS="%lyricsfile%"%haslyrics% -T "DISCNUMBER=%cdnumber%" -T "TOTALDISCS=%totalcds%" -T "TOTALTRACKS=%numtracks%" %hascover%--picture="%coverfile%"%hascover% %source%

TOC of the extracted CD Track | Start | Length | Start sector | End sector
--1 | 0:00.00 | 3:15.36 | 0 | 14660 2 | 3:15.36 | 4:39.53 | 14661 | 35638 3 | 7:55.14 | 4:46.71 | 35639 | 57159 4 | 12:42.10 | 4:08.08 | 57160 | 75767 5 | 16:50.18 | 4:34.36 | 75768 | 96353 6 | 21:24.54 | 5:31.33 | 96354 | 121211 7 | 26:56.12 | 4:19.46 | 121212 | 140682 8 | 31:15.58 | 4:23.54 | 140683 | 160461

Track 1 Filename E:\RRC Own Rip\01-Dreams Never End.wav Pre-gap length 0:00:02.00 Peak level 73.6 %
Extraction speed 2.4 X
Track quality 100.0 %
Test CRC 7524BB6E
Copy CRC 7524BB6E
Accurately ripped (confidence 41) [2717168E] (AR v2)
Copy OK

Track 2 Filename E:\RRC Own Rip\02-Truth.wav Pre-gap length 0:00:01.04 Peak level 67.3 %
Extraction speed 2.9 X
Track quality 100.0 %
Test CRC DAEC7F00
Copy CRC DAEC7F00
Accurately ripped (confidence 41) [D44352C2] (AR v2)
Copy OK

Track 3 Filename E:\RRC Own Rip\03-Senses.wav Pre-gap length 0:00:01.50 Peak level 76.7 %
Extraction speed 3.2 X
Track quality 100.0 %
Test CRC 309C87C9
Copy CRC 309C87C9
Accurately ripped (confidence 41) F5BDFEF (AR v2)
Copy OK

Track 4 Filename E:\RRC Own Rip\04-Chosen Time.wav Pre-gap length 0:00:00.58 Peak level 71.2 %
Extraction speed 3.4 X
Track quality 100.0 %
Test CRC 39B4838D
Copy CRC 39B4838D
Accurately ripped (confidence 41) [AD6CC388] (AR v2)
Copy OK

Track 5 Filename E:\RRC Own Rip\05-ICB.wav Pre-gap length 0:00:01.32 Peak level 82.5 %
Extraction speed 3.5 X
Track quality 100.0 %
Test CRC 8766D5B0
Copy CRC 8766D5B0
Accurately ripped (confidence 41) [0D93FF1C] (AR v2)
Copy OK

Track 6 Filename E:\RRC Own Rip\06-The Him.wav Pre-gap length 0:00:00.28 Peak level 75.9 %
Extraction speed 4.1 X
Track quality 100.0 %
Test CRC 07A7B2A6
Copy CRC 07A7B2A6
Accurately ripped (confidence 41) [C1D3E2B0] (AR v2)
Copy OK

Track 7 Filename E:\RRC Own Rip\07-Doubts Even Here.wav Pre-gap length 0:00:03.29 Peak level 71.1 %
Extraction speed 3.3 X
Track quality 99.9 %
Test CRC 693A7A69
Copy CRC 693A7A69
Accurately ripped (confidence 41) [AF06FAC4] (AR v2)
Copy OK

Track 8 Filename E:\RRC Own Rip\08-Denial.wav Pre-gap length 0:00:01.58 Peak level 76.5 %
Extraction speed 4.4 X
Track quality 100.0 %
Test CRC E97410D4
Copy CRC E97410D4
Accurately ripped (confidence 41) [59175DB8] (AR v2)
Copy OK

All tracks accurately ripped

No errors occurred

End of status report

- CUETools DB Plugin V2.1.6

[CTDB TOCID: G1Ts1A5nhIm5WqwlcxlCUsxPR8A-] found
Submit result: already submitted
Track | CTDB Status
1 | (31/45) Accurately ripped
2 | (31/45) Accurately ripped
3 | (31/45) Accurately ripped
4 | (31/45) Accurately ripped
5 | (31/45) Accurately ripped
6 | (31/45) Accurately ripped
7 | (31/45) Accurately ripped
8 | (31/45) Accurately ripped

==== Log checksum 6301E4117800107C295A425B95BFC74FBFA435319BFFB923C8032134476938CE ====

foobar2000 1.2 / Dynamic Range Meter 1.1.1
log date: 2015-10-28 20:13:21

Analyzed: New Order / Movement (Collector's Edition) CD1

DR Peak RMS Duration Track

DR9 -2.65 dB -13.82 dB 3:15 01-Dreams Never End
DR10 -3.44 dB -17.07 dB 4:40 02-Truth
DR10 -2.30 dB -14.53 dB 4:47 03-Senses
DR9 -2.94 dB -13.36 dB 4:08 04-Chosen Time
DR7 -1.67 dB -10.40 dB 4:34 05-ICB
DR8 -2.38 dB -13.26 dB 5:31 06-The Him
DR9 -2.95 dB -13.70 dB 4:20 07-Doubts Even Here
DR10 -2.33 dB -14.54 dB 4:24 08-Denial

Number of tracks: 8
Official DR value: DR9

Samplerate: 44100 Hz
Channels: 2
Bits per sample: 16
Bitrate: 858 kbps
Codec: FLAC

Exact Audio Copy V1.0 beta 6 from 9. April 2015

EAC extraction logfile from 11. September 2015, 1:01

New Order / Movement (Collector's Edition) CD2

Used drive : PIONEER DVD-RW DVR-221L Adapter: 1 ID: 1

Read mode : Secure
Utilize accurate stream : Yes
Defeat audio cache : Yes
Make use of C2 pointers : No

Read offset correction

: 6
Overread into Lead-In and Lead-Out : No
Fill up missing offset samples with silence : Yes
Delete leading and trailing silent blocks : No
Null samples used in CRC calculations : Yes
Used interface
: Native Win32 interface for Win NT & 2000
Gap handling
: Appended to previous track

Used output format : User Defined Encoder
Selected bitrate : 1024 kBit/s
Quality : High
Add ID3 tag : Yes
Command line compressor : C:\Program Files (x86)\Exact Audio Copy\FLAC\FLAC.EXE
Additional command line options : -6 -V -T "COMMENT=Ripped by RRC" -T "ARTIST=%artist%" -T "TITLE=%title%" -T "ALBUM=%albumtitle%" -T "DATE=%year%" -T "TRACKNUMBER=%tracknr%" -T "GENRE=%genre%" -T "BAND=%albuminterpret%" -T "ALBUMARTIST=%albuminterpret%" -T "COMPOSER=%composer%" %haslyrics%--tag-from-file=LYRICS="%lyricsfile%"%haslyrics% -T "DISCNUMBER=%cdnumber%" -T "TOTALDISCS=%totalcds%" -T "TOTALTRACKS=%numtracks%" %hascover%--picture="%coverfile%"%hascover% %source%

TOC of the extracted CD Track | Start | Length | Start sector | End sector
--1 | 0:00.00 | 4:26.53 | 0 | 20002 2 | 4:26.53 | 5:24.49 | 20003 | 44351 3 | 9:51.27 | 6:17.55 | 44352 | 72681 4 | 16:09.07 | 5:33.24 | 72682 | 97680 5 | 21:42.31 | 4:29.56 | 97681 | 117911 6 | 26:12.12 | 3:26.66 | 117912 | 133427 7 | 29:39.03 | 8:04.30 | 133428 | 169757 8 | 37:43.33 | 3:03.41 | 169758 | 183523 9 | 40:46.74 | 4:37.26 | 183524 | 204324
10 | 45:24.25 | 8:56.71 | 204325 | 244595

Track 1 Filename E:\RRC Own Rip\01-Ceremony (Alternative version).wav Pre-gap length 0:00:02.00 Peak level 98.6 %
Extraction speed 2.6 X
Track quality 100.0 %
Test CRC B6BF783F
Copy CRC B6BF783F
Accurately ripped (confidence 23) 56CFC12 (AR v2)
Copy OK

Track 2 Filename E:\RRC Own Rip\02-Temptation (7'' mix).wav Pre-gap length 0:00:02.58 Peak level 89.1 %
Extraction speed 3.0 X
Track quality 100.0 %
Test CRC A81AC57F
Copy CRC A81AC57F
Accurately ripped (confidence 23) [8FCB5203] (AR v2)
Copy OK

Track 3 Filename E:\RRC Own Rip\03-In a Lonely Place.wav Pre-gap length 0:00:02.58 Peak level 98.8 %
Extraction speed 3.5 X
Track quality 100.0 %
Test CRC 0C411338
Copy CRC 0C411338
Accurately ripped (confidence 23) [3A4CB48C] (AR v2)
Copy OK

Track 4 Filename E:\RRC Own Rip\04-Everything's Gone Green.wav Pre-gap length 0:00:02.58 Peak level 98.5 %
Extraction speed 3.1 X
Track quality 99.9 %
Test CRC 058AE4F1
Copy CRC 058AE4F1
Accurately ripped (confidence 23) [1C0DBB28] (AR v2)
Copy OK

Track 5 Filename E:\RRC Own Rip\05-Procession.wav Pre-gap length 0:00:02.58 Peak level 98.6 %
Extraction speed 4.0 X
Track quality 100.0 %
Test CRC FAD5D090
Copy CRC FAD5D090
Accurately ripped (confidence 23) [1BDE7B8F] (AR v2)
Copy OK

Track 6 Filename E:\RRC Own Rip\06-Cries and Whispers.wav Pre-gap length 0:00:02.58 Peak level 98.8 %
Extraction speed 4.0 X
Track quality 100.0 %
Test CRC 14CFA739
Copy CRC 14CFA739
Accurately ripped (confidence 23) [9AE90C02] (AR v2)
Copy OK

Track 7 Filename E:\RRC Own Rip\07-Hurt.wav Pre-gap length 0:00:01.58 Peak level 98.6 %
Extraction speed 4.1 X
Track quality 99.9 %
Test CRC 32669A33
Copy CRC 32669A33
Accurately ripped (confidence 23) [F4248627] (AR v2)
Copy OK

Track 8 Filename E:\RRC Own Rip\08-Mesh.wav Pre-gap length 0:00:01.58 Peak level 99.7 %
Extraction speed 4.4 X
Track quality 100.0 %
Test CRC 4632D986
Copy CRC 4632D986
Accurately ripped (confidence 23) [E84CAAC4] (AR v2)
Copy OK

Track 9 Filename E:\RRC Own Rip\09-Ceremony.wav Pre-gap length 0:00:02.58 Peak level 98.3 %
Extraction speed 4.8 X
Track quality 100.0 %
Test CRC 48F48F94
Copy CRC 48F48F94
Accurately ripped (confidence 23) [DB5F1926] (AR v2)
Copy OK

Track 10 Filename E:\RRC Own Rip\10-Temptation (12'' mix).wav Pre-gap length 0:00:02.58 Peak level 99.7 %
Extraction speed 5.4 X
Track quality 100.0 %
Test CRC 98794BC0
Copy CRC 98794BC0
Accurately ripped (confidence 23) [AFE267CC] (AR v2)
Copy OK

All tracks accurately ripped

No errors occurred

End of status report

- CUETools DB Plugin V2.1.6

[CTDB TOCID: EvA89hLWhB.pZOTQTCMSjkXNZyY-] found
Submit result: already submitted
Track | CTDB Status
1 | (41/43) Accurately ripped
2 | (42/43) Accurately ripped
3 | (42/43) Accurately ripped
4 | (42/43) Accurately ripped
5 | (41/43) Accurately ripped
6 | (42/43) Accurately ripped
7 | (42/43) Accurately ripped
8 | (42/43) Accurately ripped
9 | (42/43) Accurately ripped
10 | (41/43) Accurately ripped, or (1/43) differs in 4 samples @00:00:45

==== Log checksum 9C70C1B5172F9CE080D126B8B85A59D978E9738DBF686C8DA7E581F96537C9F1 ====

foobar2000 1.2 / Dynamic Range Meter 1.1.1
log date: 2015-10-28 20:13:36

Analyzed: New Order / Movement (Collector's Edition) CD2

DR Peak RMS Duration Track

DR8 -0.12 dB -9.48 dB 4:27 01-Ceremony (Alternative version)
DR7 -1.00 dB -9.99 dB 5:25 02-Temptation (7' mix)
DR9 -0.10 dB -10.74 dB 6:18 03-In a Lonely Place
DR9 -0.13 dB -11.15 dB 5:33 04-Everything's Gone Green
DR9 -0.11 dB -11.95 dB 4:30 05-Procession
DR9 -0.10 dB -10.83 dB 3:27 06-Cries and Whispers
DR10 -0.12 dB -11.65 dB 8:04 07-Hurt
DR9 -0.02 dB -11.02 dB 3:04 08-Mesh
DR9 -0.15 dB -10.07 dB 4:37 09-Ceremony
DR7 -0.02 dB -9.74 dB 8:57 10-Temptation (12' mix)

Number of tracks: 10
Official DR value: DR9

Samplerate: 44100 Hz
Channels: 2
Bits per sample: 16
Bitrate: 996 kbps
Codec: FLAC

New Order - Movement (1981) 2CD Collector's Remastered Edition 2008 [Correct Reissue 2009]

New Order - Movement (1981) 2CD Collector's Remastered Edition 2008 [Correct Reissue 2009]

All thanks to original releaser - RRCLtd
Password: designol

DOWNLOAD LINKS
Buy Premium From My Links To Get Resumable Support & Max Speed & To Support Me


Links are Interchangeable - No Password - Single Extraction
Direct Download

Tags: Movement, Collector, Remastered, Correct, Reissue

New Order - Movement (1981) 2CD Collector's Remastered Edition 2008 [Correct Reissue 2009] Download via Hotfile Rapidshare Fileserve Megaupload & FileSonic, New Order - Movement (1981) 2CD Collector's Remastered Edition 2008 [Correct Reissue 2009] free torrent downloads included crack, serial, keygen.New Order - Movement (1981) 2CD Collector's Remastered Edition 2008 [Correct Reissue 2009] Fast Download via Rapidshare Hotfile Fileserve Filesonic Megaupload, New Order - Movement (1981) 2CD Collector's Remastered Edition 2008 [Correct Reissue 2009] Torrents and Emule Download or anything related.
Leave a Comment
Your Name:
E-Mail:
Add Comments:

Enter Code: