Fountains Of Wayne - Utopia Parkway (1999) [15 tracks Edition]

Download Now

Fountains Of Wayne - Utopia Parkway (1999) [15 tracks Edition]

Fountains Of Wayne - Utopia Parkway (1999) [15 tracks Edition]
EAC | FLAC | Tracks (Cue&Log) ~ 408 Mb (incl 5%) | Mp3 (CBR320) ~ 160 Mb (incl 5%) | Scans included
Genre: Alternative Pop/Rock, Power Pop | Label: Atlantic | # 7567809342 | Time: 00:49:04

"There's no denying that Fountains of Wayne know how to craft a great pop record. They know how to write a hook, they can pull of mild rockers and sweet ballads with equal aplomb, and they write melodies that feel like half-forgotten favorites. They have all the elements of a classic power pop band but they suffer from that peculiar '90s ailment -- detachment. For all their flair, talent, and craftsmanship, the band don't really dig deeper than the surface. Of course, that doesn't mean they make bad records, and their second album, Utopia Parkway, is, if anything, every bit as good as their fine debut. All the songs immediately make a connection and all of their melodic attributes simply strengthen with repeated listens. However, those repeated listens reveal that Fountains of Wayne don't have a lot to say. That's not a cardinal sin in guitar pop, since most bands simply recycle the same lovelorn themes, but Fountains choose to have fun with clichés, throwing in goofy asides even in their ballads."



Tracklist:

01. Utopia Parkway (03:07)
02. Red Dragon Tattoo (03:32)
03. Denise (02:33)
04. Hat And Feet (03:02)
05. The Valley Of Malls (03:23)
06. Troubled Times (03:38)
07. Go, Hippie (03:57)
08. A Fine Day For A Parade (04:13)
09. Amity Gardens (03:11)
10. Laser Show (02:24)
11. Lost In Space (02:19)
12. Prom Theme (03:08)
13. It Must Be Summer (03:19)
14. The Senator's Daughter (03:44)
15. I Know You Well (03:27)


Exact Audio Copy V1.0 beta 3 from 29. August 2011

Отчёт EAC об извлечении, выполненном 23. октября 2015, 7:47

Fountains of Wayne / Utopia Parkway

Дисковод: TSSTcorpCDDVDW SH-222BB Adapter: 3 ID: 0

Режим чтения : Достоверность
Использование точного потока : Да
Отключение кэша аудио : Да
Использование указателей C2 : Нет

Коррекция смещения при чтении : 6
Способность читать области Lead-in и Lead-out : Нет
Заполнение пропущенных сэмплов тишиной : Да
Удаление блоков с тишиной в начале и конце : Нет
При вычислениях CRC использовались нулевые сэмплы : Да
Интерфейс : Установленный внешний ASPI-интерфейс
Обработка зазоров
: Добавлено к предыдущему треку

Выходной формат : Пользовательский кодировщик
Выбранный битрейт : 128 kBit/s
Качество : Высокий
Добавление ID3-тега : Нет
Утилита сжатия : C:\Program Files\Exact Audio Copy\FLAC\FLAC.EXE
Дополнительные параметры : -V -8 -T "Genre=%genre%" -T "Artist=%artist%" -T "Title=%title%" -T "Album=%albumtitle%" -T "Date=%year%" -T "Tracknumber=%tracknr%" -T "Comment=%comment%" %source%

TOC извлечённого CD Трек | Старт | Длительность | Начальный сектор | Конечный сектор

1 | 0:00.00 | 3:07.15 | 0 | 14039
2 | 3:07.15 | 3:32.06 | 14040 | 29945
3 | 6:39.21 | 2:33.14 | 29946 | 41434
4 | 9:12.35 | 3:02.27 | 41435 | 55111
5 | 12:14.62 | 3:23.45 | 55112 | 70381
6 | 15:38.32 | 3:38.61 | 70382 | 86792
7 | 19:17.18 | 3:57.60 | 86793 | 104627
8 | 23:15.03 | 4:13.56 | 104628 | 123658
9 | 27:28.59 | 3:11.23 | 123659 | 138006
10 | 30:40.07 | 2:24.52 | 138007 | 148858
11 | 33:04.59 | 2:19.29 | 148859 | 159312
12 | 35:24.13 | 3:08.27 | 159313 | 173439
13 | 38:32.40 | 3:19.31 | 173440 | 188395
14 | 41:51.71 | 3:44.71 | 188396 | 205266
15 | 45:36.67 | 3:27.13 | 205267 | 220804

Трек 1 Имя файла I:\MOI_RAZDACI\Fountains of Wayne 1999\Fountains.of.Wayne_Utopia.Parkwa_1999\01. Utopia Parkway.wav Длина предзазора 0:00:02.00 Пиковый уровень 98.8 %
Скорость извлечения 1.4 X
Качество трека 99.9 %
CRC теста 6F317DD8
CRC копии 6F317DD8
Точное извлечение (достоверность 2) [931FAB7C] (AR v2)
Копирование... OK

Трек 2 Имя файла I:\MOI_RAZDACI\Fountains of Wayne 1999\Fountains.of.Wayne_Utopia.Parkwa_1999\02. Red Dragon Tattoo.wav Пиковый уровень 98.8 %
Скорость извлечения 1.8 X
Качество трека 100.0 %
CRC теста D831A70F
CRC копии D831A70F
Точное извлечение (достоверность 2) [C63B3A06] (AR v2)
Копирование... OK

Трек 3 Имя файла I:\MOI_RAZDACI\Fountains of Wayne 1999\Fountains.of.Wayne_Utopia.Parkwa_1999\03. Denise.wav Длина предзазора 0:00:00.06 Пиковый уровень 98.8 %
Скорость извлечения 1.8 X
Качество трека 100.0 %
CRC теста 3F8EB814
CRC копии 3F8EB814
Точное извлечение (достоверность 2) [459CC116] (AR v2)
Копирование... OK

Трек 4 Имя файла I:\MOI_RAZDACI\Fountains of Wayne 1999\Fountains.of.Wayne_Utopia.Parkwa_1999\04. Hat And Feet.wav Пиковый уровень 98.8 %
Скорость извлечения 2.0 X
Качество трека 100.0 %
CRC теста 82687316
CRC копии 82687316
Точное извлечение (достоверность 2) [4A3E4965] (AR v2)
Копирование... OK

Трек 5 Имя файла I:\MOI_RAZDACI\Fountains of Wayne 1999\Fountains.of.Wayne_Utopia.Parkwa_1999\05. The Valley Of Malls.wav Длина предзазора 0:00:00.08 Пиковый уровень 98.8 %
Скорость извлечения 2.2 X
Качество трека 100.0 %
CRC теста 336D2476
CRC копии 336D2476
Точное извлечение (достоверность 2) [333E74F2] (AR v2)
Копирование... OK

Трек 6 Имя файла I:\MOI_RAZDACI\Fountains of Wayne 1999\Fountains.of.Wayne_Utopia.Parkwa_1999\06. Troubled Times.wav Пиковый уровень 97.7 %
Скорость извлечения 1.9 X
Качество трека 99.9 %
CRC теста 5771393E
CRC копии 5771393E
Точное извлечение (достоверность 2) [E1D2E220] (AR v2)
Копирование... OK

Трек 7 Имя файла I:\MOI_RAZDACI\Fountains of Wayne 1999\Fountains.of.Wayne_Utopia.Parkwa_1999\07. Go, Hippie.wav Пиковый уровень 98.8 %
Скорость извлечения 2.5 X
Качество трека 100.0 %
CRC теста 0B15F03F
CRC копии 0B15F03F
Точное извлечение (достоверность 2) [58AA13E4] (AR v2)
Копирование... OK

Трек 8 Имя файла I:\MOI_RAZDACI\Fountains of Wayne 1999\Fountains.of.Wayne_Utopia.Parkwa_1999\08. A Fine Day For A Parade.wav Длина предзазора 0:00:00.02 Пиковый уровень 98.8 %
Скорость извлечения 2.6 X
Качество трека 100.0 %
CRC теста 4FDC43D1
CRC копии 4FDC43D1
Точное извлечение (достоверность 2) [1FD59F79] (AR v2)
Копирование... OK

Трек 9 Имя файла I:\MOI_RAZDACI\Fountains of Wayne 1999\Fountains.of.Wayne_Utopia.Parkwa_1999\09. Amity Gardens.wav Длина предзазора 0:00:00.04 Пиковый уровень 98.8 %
Скорость извлечения 2.6 X
Качество трека 100.0 %
CRC теста DB988CD1
CRC копии DB988CD1
Точное извлечение (достоверность 2) 44AD118 (AR v2)
Копирование... OK

Трек 10 Имя файла I:\MOI_RAZDACI\Fountains of Wayne 1999\Fountains.of.Wayne_Utopia.Parkwa_1999\10. Laser Show.wav Пиковый уровень 98.8 %
Скорость извлечения 2.6 X
Качество трека 100.0 %
CRC теста 847A4ED1
CRC копии 847A4ED1
Точное извлечение (достоверность 2) [F323F2B8] (AR v2)
Копирование... OK

Трек 11 Имя файла I:\MOI_RAZDACI\Fountains of Wayne 1999\Fountains.of.Wayne_Utopia.Parkwa_1999\11. Lost In Space.wav Пиковый уровень 98.8 %
Скорость извлечения 2.6 X
Качество трека 100.0 %
CRC теста 95383AF0
CRC копии 95383AF0
Точное извлечение (достоверность 2) [93BF4443] (AR v2)
Копирование... OK

Трек 12 Имя файла I:\MOI_RAZDACI\Fountains of Wayne 1999\Fountains.of.Wayne_Utopia.Parkwa_1999\12. Prom Theme.wav Пиковый уровень 98.8 %
Скорость извлечения 2.9 X
Качество трека 100.0 %
CRC теста 4363B8C6
CRC копии 4363B8C6
Точное извлечение (достоверность 2) [9151A633] (AR v2)
Копирование... OK

Трек 13 Имя файла I:\MOI_RAZDACI\Fountains of Wayne 1999\Fountains.of.Wayne_Utopia.Parkwa_1999\13. It Must Be Summer.wav Пиковый уровень 98.8 %
Скорость извлечения 3.0 X
Качество трека 100.0 %
CRC теста 6E38D93E
CRC копии 6E38D93E
Точное извлечение (достоверность 2) [1AD76578] (AR v2)
Копирование... OK

Трек 14 Имя файла I:\MOI_RAZDACI\Fountains of Wayne 1999\Fountains.of.Wayne_Utopia.Parkwa_1999\14. The Senator's Daughter.wav Пиковый уровень 96.6 %
Скорость извлечения 3.1 X
Качество трека 100.0 %
CRC теста 59F2ECFF
CRC копии 59F2ECFF
Точное извлечение (достоверность 2) [D8674578] (AR v2)
Копирование... OK

Трек 15 Имя файла I:\MOI_RAZDACI\Fountains of Wayne 1999\Fountains.of.Wayne_Utopia.Parkwa_1999\15. I Know You Well.wav Пиковый уровень 97.6 %
Скорость извлечения 2.3 X
Качество трека 99.9 %
CRC теста 7672EF95
CRC копии 7672EF95
Точное извлечение (достоверность 2) [42EE0DAF] (AR v2)
Копирование... OK

Все треки извлечены точно

Ошибок не произошло

Конец отчёта

==== Контрольная сумма отчёта 345F84CB1DDAE0A2ADB00CB9D91BEC4E37127440B72A73411A9DDE5BBC324231 ====

foobar2000 1.2 / Dynamic Range Meter 1.1.1
log date: 2015-10-29 21:01:20

Analyzed: Fountains of Wayne / Utopia Parkway

DR Peak RMS Duration Track

DR6 -0.10 dB -7.66 dB 3:07 01-Utopia Parkway
DR7 -0.10 dB -8.12 dB 3:32 02-Red Dragon Tattoo
DR6 -0.10 dB -8.14 dB 2:33 03-Denise
DR9 -0.10 dB -10.93 dB 3:02 04-Hat And Feet
DR7 -0.10 dB -8.58 dB 3:24 05-The Valley Of Malls
DR7 -0.20 dB -9.34 dB 3:39 06-Troubled Times
DR7 -0.10 dB -7.29 dB 3:58 07-Go, Hippie
DR8 -0.10 dB -9.77 dB 4:14 08-A Fine Day For A Parade
DR7 -0.10 dB -7.86 dB 3:11 09-Amity Gardens
DR7 -0.10 dB -7.82 dB 2:25 10-Laser Show
DR7 -0.10 dB -8.27 dB 2:19 11-Lost In Space
DR8 -0.10 dB -10.75 dB 3:08 12-Prom Theme
DR7 -0.10 dB -8.02 dB 3:19 13-It Must Be Summer
DR8 -0.30 dB -10.84 dB 3:45 14-The Senator's Daughter
DR9 -0.21 dB -9.67 dB 3:27 15-I Know You Well

Number of tracks: 15
Official DR value: DR7

Samplerate: 44100 Hz
Channels: 2
Bits per sample: 16
Bitrate: 957 kbps
Codec: FLAC

Fountains Of Wayne - Utopia Parkway (1999) [15 tracks Edition]

Fountains Of Wayne - Utopia Parkway (1999) [15 tracks Edition]

All thanks to original releaser - stas64
Password: designol

DOWNLOAD LINKS
Buy Premium From My Links To Get Resumable Support & Max Speed & To Support Me


Links are Interchangeable - No Password - Single Extraction
Direct Download

Tags: Fountains, Utopia, Parkway, tracks

Fountains Of Wayne - Utopia Parkway (1999) [15 tracks Edition] Download via Hotfile Rapidshare Fileserve Megaupload & FileSonic, Fountains Of Wayne - Utopia Parkway (1999) [15 tracks Edition] free torrent downloads included crack, serial, keygen.Fountains Of Wayne - Utopia Parkway (1999) [15 tracks Edition] Fast Download via Rapidshare Hotfile Fileserve Filesonic Megaupload, Fountains Of Wayne - Utopia Parkway (1999) [15 tracks Edition] Torrents and Emule Download or anything related.
Leave a Comment
Your Name:
E-Mail:
Add Comments:

Enter Code: