T - 2 Studio Albums (2002-2015)

Download Now

T - 2 Studio Albums (2002-2015)

T - 2 Studio Albums (2002-2015)
EAC Rip | FLAC (image+.cue+log) - 916 MB | MP3 CBR 320 kbps (LAME 3.93) - 337 MB | Covers - 77 MB
Genre: Progressive Rock | RAR 3% Rec. | Label: Galileo Records, Progressive Promotion Records

"German project T is the creative vehicle of composer and musician Thomas Thielen, formerly of the German band Scythe, but now with a solo career that has been ongoing ever since he released his first album using the 'T' moniker in 2002. Thomas plays all the instruments, does the vocals, lyrics, engineering, producing and recording. "Fragmentropy" is his fifth full-length production, released in 2015 by Progressive Promotion Records. "Fragmentropy" comes across as a fairly eclectic and demanding production, arguably with a foundation inside modern day neo-progressive rock and post-rock, but made with an approach that makes it hard to categorize inside any of those stylistic contexts easily..."

T - 2 Studio Albums (2002-2015)

T - Naive (2002)
EAC Rip | FLAC (image+.cue+log) - 438 MB | MP3 CBR 320 kbps (LAME 3.93) - 160 MB | Covers - 27 MB
Genre: Progressive Rock | RAR 3% Rec. | Label: Galileo Records (GR006)

Tracklist:
01. She Said
02. A Night Out
03. Round Here
04. De Not Come Back
05. Mother
06. A Day Like Any Other Day
07. She is Dead
08. Tuesday Night Blues
09. Nothing More
10. The Dark
11. About Us

Total time: 01:07:56

Exact Audio Copy V1.1 from 23. June 2015

EAC extraction logfile from 30. October 2015, 13:08

T / Naive

Used drive : ASUS DRW-24B1LT Adapter: 1 ID: 2

Read mode : Secure
Utilize accurate stream : Yes
Defeat audio cache : Yes
Make use of C2 pointers : No

Read offset correction

: 6
Overread into Lead-In and Lead-Out : No
Fill up missing offset samples with silence : Yes
Delete leading and trailing silent blocks : No
Null samples used in CRC calculations : Yes
Used interface
: Native Win32 interface for Win NT & 2000

Used output format : User Defined Encoder
Selected bitrate : 1024 kBit/s
Quality : High
Add ID3 tag : Yes
Command line compressor : C:\Program Files (x86)\FLAC_1.3.1\win64\flac.exe
Additional command line options : -6 -V -T "ARTIST=%artist%" -T "TITLE=%title%" -T "ALBUM=%albumtitle%" -T "DATE=%year%" -T "TRACKNUMBER=%tracknr%" -T "GENRE=%genre%" -T "COMMENT=ripped by wurensh for rutracker.org" %source% -o %dest%

TOC of the extracted CD Track | Start | Length | Start sector | End sector
--1 | 0:00.00 | 10:38.42 | 0 | 47891 2 | 10:38.42 | 3:51.71 | 47892 | 65287 3 | 14:30.38 | 4:28.21 | 65288 | 85408 4 | 18:58.59 | 5:25.29 | 85409 | 109812 5 | 24:24.13 | 6:38.13 | 109813 | 139675 6 | 31:02.26 | 3:30.46 | 139676 | 155471 7 | 34:32.72 | 7:25.04 | 155472 | 188850 8 | 41:58.01 | 5:37.68 | 188851 | 214193 9 | 47:35.69 | 7:03.20 | 214194 | 245938
10 | 54:39.14 | 3:29.05 | 245939 | 261618
11 | 58:08.19 | 9:47.35 | 261619 | 305678

Range status and errors

Selected range Filename Y:\EAC\wurensh\T\T - Naive.wav Peak level 98.8 %
Extraction speed 8.7 X
Range quality 100.0 %
Test CRC F177168E
Copy CRC F177168E
Copy OK

No errors occurred


AccurateRip summary

Track 1 accurately ripped (confidence 2) 3C4F9B0 (AR v2)
Track 2 accurately ripped (confidence 2) [8FE08D74] (AR v2)
Track 3 accurately ripped (confidence 2) [EFC070B2] (AR v2)
Track 4 accurately ripped (confidence 2) [4260F5B5] (AR v2)
Track 5 accurately ripped (confidence 2) [C76F9D07] (AR v2)
Track 6 accurately ripped (confidence 2) [8C284D0E] (AR v2)
Track 7 accurately ripped (confidence 2) [25FD7D20] (AR v2)
Track 8 accurately ripped (confidence 2) [2591F365] (AR v2)
Track 9 accurately ripped (confidence 2) [F6FA3755] (AR v2)
Track 10 accurately ripped (confidence 2) [57129D9E] (AR v2)
Track 11 accurately ripped (confidence 2) [DD54D1AB] (AR v2)

All tracks accurately ripped

End of status report

- CUETools DB Plugin V2.1.6

[CTDB TOCID: eJF6wOaKBX056Y5_7H57W3zc.44-] found
Submit result: eJF6wOaKBX056Y5_7H57W3zc.44- has been confirmed
Track | CTDB Status
1 | (1/1) Accurately ripped
2 | (1/1) Accurately ripped
3 | (1/1) Accurately ripped
4 | (1/1) Accurately ripped
5 | (1/1) Accurately ripped
6 | (1/1) Accurately ripped
7 | (1/1) Accurately ripped
8 | (1/1) Accurately ripped
9 | (1/1) Accurately ripped
10 | (1/1) Accurately ripped
11 | (1/1) Accurately ripped

==== Log checksum F4F52609D46F60D78EFFE3FC3689DE5F1E20B1FF9328641338C4B4A44F987FAD ====

[CUETools log; Date: 30.10.2015 21:16:00; Version: 2.1.4]
[CTDB TOCID: eJF6wOaKBX056Y5_7H57W3zc.44-] found.
Track | CTDB Status
1 | (2/2) Accurately ripped
2 | (2/2) Accurately ripped
3 | (2/2) Accurately ripped
4 | (2/2) Accurately ripped
5 | (2/2) Accurately ripped
6 | (2/2) Accurately ripped
7 | (2/2) Accurately ripped
8 | (2/2) Accurately ripped
9 | (2/2) Accurately ripped
10 | (2/2) Accurately ripped
11 | (2/2) Accurately ripped
[AccurateRip ID: 001bc4b8-00ed5063-910feb0b] found.
Track [ CRC | V2 ] Status
01 [a225164c|b3c4f9b0] (0+2/2) Accurately ripped
02 [6e7290cb|8fe08d74] (0+2/2) Accurately ripped
03 [613f5ebc|efc070b2] (0+2/2) Accurately ripped
04 [a9909138|4260f5b5] (0+2/2) Accurately ripped
05 [7470c900|c76f9d07] (0+2/2) Accurately ripped
06 [0d2e6e19|8c284d0e] (0+2/2) Accurately ripped
07 [3a967e34|25fd7d20] (0+2/2) Accurately ripped
08 e047058|2591f365 (0+2/2) Accurately ripped
09 [eb50e13d|f6fa3755] (0+2/2) Accurately ripped
10 [6fc9daa2|57129d9e] (0+2/2) Accurately ripped
11 [5ce12fdc|dd54d1ab] (0+2/2) Accurately ripped

Track Peak [ CRC32 ] [W/O NULL] [ LOG ]
-- 98,8 [F177168E] [64E69311] CRC32
01 98,8 [55F360A9] 48D11AB
02 98,8 [63C7B3C0] 9899800
03 55,5 [71A43282] [4BB97555]
04 87,3 [CEAFAED7] [21392139]
05 98,8 [2EF019F1] [E2FA52B9]
06 63,6 [5109398E] [4A9936F9]
07 98,6 [6EB14A65] [014EE76F]
08 98,6 [917E661F] [D5DAA727]
09 98,6 [2C7840F2] [359CBAF6]
10 73,2 [DF4F4AE7] [2A8103D4]
11 88,0 [5444A511] [574AF393]


T - 2 Studio Albums (2002-2015)

T - Fragmentropy (2015)
EAC Rip | FLAC (image+.cue+log) - 478 MB | MP3 CBR 320 kbps (LAME 3.93) - 177 MB | Covers - 50 MB
Genre: Progressive Rock | RAR 3% Rec. | Label: Progressive Promotion Records (PPRCD031)

Tracklist:

Chapter One - Anisotropic Dances:
01. A Sky-High Pile of Anarchy
02. Brand New Mornings

Chapter Two - The Politics of Entropy:
03. Uncertainty
04. Entanglement
05. Eigenstates

Chapter Three - The Art of Double Binding:
06. The Art of Double Binding: The Black of White
07. The Art of Double Binding: Shades of Silver

Total time: 01:15:20

Exact Audio Copy V1.1 from 23. June 2015

EAC extraction logfile from 29. October 2015, 20:17

T / Fragmentropy

Used drive : ASUS DRW-24B1LT Adapter: 1 ID: 2

Read mode : Secure
Utilize accurate stream : Yes
Defeat audio cache : Yes
Make use of C2 pointers : No

Read offset correction

: 6
Overread into Lead-In and Lead-Out : No
Fill up missing offset samples with silence : Yes
Delete leading and trailing silent blocks : No
Null samples used in CRC calculations : Yes
Used interface
: Native Win32 interface for Win NT & 2000

Used output format : User Defined Encoder
Selected bitrate : 1024 kBit/s
Quality : High
Add ID3 tag : Yes
Command line compressor : C:\Program Files (x86)\FLAC_1.3.1\win64\flac.exe
Additional command line options : -6 -V -T "ARTIST=%artist%" -T "TITLE=%title%" -T "ALBUM=%albumtitle%" -T "DATE=%year%" -T "TRACKNUMBER=%tracknr%" -T "GENRE=%genre%" -T "COMMENT=ripped by wurensh for rutracker.org" %source% -o %dest%

TOC of the extracted CD Track | Start | Length | Start sector | End sector
--1 | 0:00.00 | 14:06.35 | 0 | 63484 2 | 14:06.35 | 13:03.44 | 63485 | 122253 3 | 27:10.04 | 7:17.14 | 122254 | 155042 4 | 34:27.18 | 16:38.47 | 155043 | 229939 5 | 51:05.65 | 6:38.16 | 229940 | 259805 6 | 57:44.06 | 9:15.46 | 259806 | 301476 7 | 66:59.52 | 8:20.44 | 301477 | 339020

Range status and errors

Selected range Filename Y:\EAC\wurensh\T\T - Fragmentropy.wav Peak level 100.0 %
Extraction speed 9.8 X
Range quality 100.0 %
Test CRC CA7B1B8F
Copy CRC CA7B1B8F
Copy OK

No errors occurred


AccurateRip summary

Track 1 accurately ripped (confidence 3) [E89E9384] (AR v2)
Track 2 accurately ripped (confidence 3) [C97643AE] (AR v2)
Track 3 accurately ripped (confidence 3) [AC72C5BD] (AR v2)
Track 4 accurately ripped (confidence 3) [9E4D91ED] (AR v2)
Track 5 accurately ripped (confidence 3) ED4DC24 (AR v2)
Track 6 accurately ripped (confidence 3) [09264AE8] (AR v2)
Track 7 accurately ripped (confidence 3) [3B3CE2CD] (AR v2)

All tracks accurately ripped

End of status report

- CUETools DB Plugin V2.1.6

[CTDB TOCID: 61952h6uVHQUJNr1CD960dUAbmk-] found
Submit result: 61952h6uVHQUJNr1CD960dUAbmk- has been confirmed
Track | CTDB Status
1 | (8/8) Accurately ripped
2 | (8/8) Accurately ripped
3 | (8/8) Accurately ripped
4 | (8/8) Accurately ripped
5 | (8/8) Accurately ripped
6 | (8/8) Accurately ripped
7 | (8/8) Accurately ripped

==== Log checksum 08EC5EFAE1F23B176D1995105CA8E418D64A8217EA84CDD6B39B7D4DBEB600A3 ====

[CUETools log; Date: 30.10.2015 21:16:18; Version: 2.1.4]
[CTDB TOCID: 61952h6uVHQUJNr1CD960dUAbmk-] found.
Track | CTDB Status
1 | (9/9) Accurately ripped
2 | (9/9) Accurately ripped
3 | (9/9) Accurately ripped
4 | (9/9) Accurately ripped
5 | (9/9) Accurately ripped
6 | (9/9) Accurately ripped
7 | (9/9) Accurately ripped
[AccurateRip ID: 00167232-0083e954-5d11a807] found.
Track [ CRC | V2 ] Status
01 [ccbf6a02|e89e9384] (0+3/3) Accurately ripped
02 [0f6b2d12|c97643ae] (0+3/3) Accurately ripped
03 [9ccc7274|ac72c5bd] (0+3/3) Accurately ripped
04 [25509177|9e4d91ed] (0+3/3) Accurately ripped
05 [77c2898f|bed4dc24] (0+3/3) Accurately ripped
06 [7ec78710|09264ae8] (0+3/3) Accurately ripped
07 22ee5f6|3b3ce2cd (0+3/3) Accurately ripped

Track Peak [ CRC32 ] [W/O NULL] [ LOG ]
-- 100,0 [CA7B1B8F] [A3C977B6] CRC32
01 98,8 [9F4E795E] [856B8509]
02 100,0 [F3AE97F9] [94C9495E]
03 98,8 [D4EB8DC0] [773C1691]
04 98,8 [0A5638D2] [7AB032CB]
05 98,8 [69C6F332] [41906E7C]
06 99,6 [F0F55679] [03033391]
07 98,8 [CA5745AC] [63154D21]

Thanks to wurensh

See also:
DOWNLOAD LINKS
Buy Premium From My Links To Get Resumable Support & Max Speed & To Support Me


Links are Interchangeable - No Password - Single Extraction
Direct Download

Tags: Studio, Albums

T - 2 Studio Albums (2002-2015) Download via Hotfile Rapidshare Fileserve Megaupload & FileSonic, T - 2 Studio Albums (2002-2015) free torrent downloads included crack, serial, keygen.T - 2 Studio Albums (2002-2015) Fast Download via Rapidshare Hotfile Fileserve Filesonic Megaupload, T - 2 Studio Albums (2002-2015) Torrents and Emule Download or anything related.
Leave a Comment
Your Name:
E-Mail:
Add Comments:

Enter Code: