Stefano Di Battista - Stefano Di Battista (2000) {Blue Note}

Download Now

Stefano Di Battista - Stefano Di Battista (2000) {Blue Note}

Stefano Di Battista - Stefano Di Battista (2000) {Blue Note}
EAC 1.0b3 | FLAC tracks level 8 | Cue+Log+M3U | Full Scans 600dpi | 520MB + 5% Recovery
Genre: Jazz, Post-Bop

"Blue Note's French division released Stefano Di Battista's debut, A Prima Vista, in 1998, but this self-titled disc is the alto and soprano saxophonist's first offering to be made available in the U.S. It comes on the heels of a high-profile guest appearance on Jacky Terrasson's A Paris... and, fittingly, Di Battista hired his friend Terrasson to be the pianist on his own record. Also present for the session are bassist Rosario Bonaccorso and drum legend Elvin Jones, with trumpeter Flavio Boltro sitting in on three tracks. Di Battista evinces a true melodic gift on pieces such as "Elvin's Song" and "Your Romance," but he's also capable of burning it up in a manner reminiscent of Kenny Garrett on "Nico's Dream" and "Adderley." (For those who suspect Elvin Jones' chops have lessened with age, the two latter cuts ought to dispel such notions.)"

Track List
01. Elvin's Song 7:59
02. Johnny's Time 4:04
03. Nico's Dream 2:51
04. Your Romance 7:26
05. Little Red Ribbon 3:18
06. Adderley 7:33
07. Hall 4:41
08. Song for Flavia 6:01
09. Time for a Solo 7:58
10. Anastasia 5:10
11. Chicago 1987 5:54
12. Like A Turner 4:20
13. Solo 4:50

musicians
Stefano Di Battista - alto and soprano saxes
Elvin Jones - drums
Jacky Terrasson - piano
Rosario Bonaccorso - bass
Flavio Boltro - trumpet

Produced by Yves Chamberland

Exact Audio Copy V1.0 beta 3 from 29. August 2011

EAC extraction logfile from 30. July 2015, 14:40

Stefano Di Battista / Stefano Di Battista

Used drive : hp DVD-RAM GHB0N Adapter: 0 ID: 0

Read mode : Secure
Utilize accurate stream : Yes
Defeat audio cache : Yes
Make use of C2 pointers : No

Read offset correction

: 6
Overread into Lead-In and Lead-Out : No
Fill up missing offset samples with silence : Yes
Delete leading and trailing silent blocks : No
Null samples used in CRC calculations : Yes
Used interface
: Native Win32 interface for Win NT & 2000
Gap handling
: Appended to previous track

Used output format : User Defined Encoder
Selected bitrate : 1024 kBit/s
Quality : High
Add ID3 tag : No
Command line compressor : C:\Program Files (x86)\Exact Audio Copy\FLAC\FLAC.EXE
Additional command line options : -8 -V -T "ARTIST=%artist%" -T "TITLE=%title%" -T "ALBUM=%albumtitle%" -T "DATE=%year%" -T "TRACKNUMBER=%tracknr%" -T "TOTALTRACKS=%numtracks%" -T "GENRE=%genre%" -T "ALBUM ARTIST=%albumartist%" -T "ALBUMARTIST=%albumartist%" -T "COMMENT=EAC V1.0 beta 3, Secure Mode, Test & Copy, AccurateRip, FLAC -8" %source%

TOC of the extracted CD Track | Start | Length | Start sector | End sector
--1 | 0:00.00 | 8:00.00 | 0 | 35999 2 | 8:00.00 | 4:04.21 | 36000 | 54320 3 | 12:04.21 | 2:50.74 | 54321 | 67144 4 | 14:55.20 | 7:26.70 | 67145 | 100664 5 | 22:22.15 | 3:19.09 | 100665 | 115598 6 | 25:41.24 | 7:34.03 | 115599 | 149651 7 | 33:15.27 | 4:41.00 | 149652 | 170726 8 | 37:56.27 | 6:02.07 | 170727 | 197883 9 | 43:58.34 | 7:58.27 | 197884 | 233760
10 | 51:56.61 | 5:10.50 | 233761 | 257060
11 | 57:07.36 | 5:50.71 | 257061 | 283381
12 | 62:58.32 | 4:20.29 | 283382 | 302910
13 | 67:18.61 | 4:50.14 | 302911 | 324674

Track 1 Filename C:\Users\Maison\Downloads\Rips\01 - Elvin's Song.wav Pre-gap length 0:00:02.00 Peak level 99.6 %
Extraction speed 2.0 X
Track quality 100.0 %
Test CRC D617118D
Copy CRC D617118D
Accurately ripped (confidence 4) [88E3F559] (AR v2)
Copy OK

Track 2 Filename C:\Users\Maison\Downloads\Rips\02 - Johnny's Time.wav Pre-gap length 0:00:00.59 Peak level 100.0 %
Extraction speed 2.2 X
Track quality 100.0 %
Test CRC 17F65D57
Copy CRC 17F65D57
Accurately ripped (confidence 4) [9A568F65] (AR v2)
Copy OK

Track 3 Filename C:\Users\Maison\Downloads\Rips\03 - Nico's Dream.wav Peak level 100.0 %
Extraction speed 1.5 X
Track quality 99.9 %
Test CRC C8160792
Copy CRC C8160792
Accurately ripped (confidence 4) [8B996A43] (AR v2)
Copy OK

Track 4 Filename C:\Users\Maison\Downloads\Rips\04 - Your Romance.wav Pre-gap length 0:00:00.34 Peak level 100.0 %
Extraction speed 2.7 X
Track quality 100.0 %
Test CRC D17C56DE
Copy CRC D17C56DE
Accurately ripped (confidence 4) [C54899AE] (AR v2)
Copy OK

Track 5 Filename C:\Users\Maison\Downloads\Rips\05 - Little Red Ribbon.wav Pre-gap length 0:00:00.59 Peak level 98.0 %
Extraction speed 2.6 X
Track quality 100.0 %
Test CRC 52F6656D
Copy CRC 52F6656D
Accurately ripped (confidence 4) [A60DA605] (AR v2)
Copy OK

Track 6 Filename C:\Users\Maison\Downloads\Rips\06 - Adderley.wav Pre-gap length 0:00:01.05 Peak level 100.0 %
Extraction speed 3.1 X
Track quality 100.0 %
Test CRC C86E7370
Copy CRC C86E7370
Accurately ripped (confidence 4) [566C3980] (AR v2)
Copy OK

Track 7 Filename C:\Users\Maison\Downloads\Rips\07 - Hall.wav Pre-gap length 0:00:00.50 Peak level 100.0 %
Extraction speed 3.1 X
Track quality 100.0 %
Test CRC E14069BE
Copy CRC E14069BE
Accurately ripped (confidence 4) [3755EEE8] (AR v2)
Copy OK

Track 8 Filename C:\Users\Maison\Downloads\Rips\08 - Song For Flavia.wav Peak level 100.0 %
Extraction speed 3.3 X
Track quality 100.0 %
Test CRC 8CD3C370
Copy CRC 8CD3C370
Accurately ripped (confidence 4) [240A374E] (AR v2)
Copy OK

Track 9 Filename C:\Users\Maison\Downloads\Rips\09 - Time For A Solo.wav Peak level 100.0 %
Extraction speed 3.6 X
Track quality 100.0 %
Test CRC 07511E57
Copy CRC 07511E57
Accurately ripped (confidence 4) [2A641DF0] (AR v2)
Copy OK

Track 10 Filename C:\Users\Maison\Downloads\Rips\10 - Anastasia.wav Peak level 100.0 %
Extraction speed 3.6 X
Track quality 100.0 %
Test CRC 02100C56
Copy CRC 02100C56
Accurately ripped (confidence 4) [2E17AC09] (AR v2)
Copy OK

Track 11 Filename C:\Users\Maison\Downloads\Rips\11 - Chicago 1987.wav Peak level 99.3 %
Extraction speed 3.1 X
Track quality 99.9 %
Test CRC E46ACF14
Copy CRC E46ACF14
Accurately ripped (confidence 4) [1B4A0D00] (AR v2)
Copy OK

Track 12 Filename C:\Users\Maison\Downloads\Rips\12 - Like a Turner.wav Peak level 99.3 %
Extraction speed 3.9 X
Track quality 100.0 %
Test CRC F411EE93
Copy CRC F411EE93
Accurately ripped (confidence 5) [4D159E26] (AR v2)
Copy OK

Track 13 Filename C:\Users\Maison\Downloads\Rips\13 - Solo.wav Pre-gap length 0:00:00.30 Peak level 96.7 %
Extraction speed 0.6 X
Track quality 99.9 %
Test CRC FAE5A50A
Copy CRC FAE5A50A
Accurately ripped (confidence 5) [1224DA18] (AR v2)
Copy OK

All tracks accurately ripped

No errors occurred

End of status report

==== Log checksum 27DB1C2AD3F0A5F561E056D75AC1DAFB744619635BFD59E46DAAFF964596CDAF ====

Analyzed: Stefano Di Battista / Stefano Di Battista

DR Peak RMS Duration Track

DR9 -0.03 dB -11.31 dB 8:00 01-Elvin's Song
DR11 0.00 dB -15.06 dB 4:04 02-Johnny's Time
DR12 0.00 dB -13.56 dB 2:51 03-Nico's Dream
DR9 0.00 dB -10.58 dB 7:27 04-Your Romance
DR8 -0.17 dB -13.01 dB 3:19 05-Little Red Ribbon
DR9 0.00 dB -11.24 dB 7:34 06-Adderley
DR11 0.00 dB -15.27 dB 4:41 07-Hall
DR10 0.00 dB -11.55 dB 6:02 08-Song For Flavia
DR9 0.00 dB -11.11 dB 7:58 09-Time For A Solo
DR10 0.00 dB -13.32 dB 5:11 10-Anastasia
DR13 -0.06 dB -16.87 dB 5:51 11-Chicago 1987
DR9 -0.05 dB -11.06 dB 4:20 12-Like a Turner
DR9 -0.28 dB -13.24 dB 4:50 13-Solo

Number of tracks: 13
Official DR value: DR10

Samplerate: 44100 Hz
Channels: 2
Bits per sample: 16
Bitrate: 734 kbps
Codec: FLAC

Stefano Di Battista - Stefano Di Battista (2000) {Blue Note}

Stefano Di Battista - Stefano Di Battista (2000) {Blue Note}

Stefano Di Battista - Stefano Di Battista (2000) {Blue Note}

Rip by tdelyon


DOWNLOAD LINKS
Buy Premium From My Links To Get Resumable Support & Max Speed & To Support Me


Links are Interchangeable - No Password - Single Extraction
Direct Download

Tags: Stefano, Battista, Stefano, Battista

Stefano Di Battista - Stefano Di Battista (2000) {Blue Note} Download via Hotfile Rapidshare Fileserve Megaupload & FileSonic, Stefano Di Battista - Stefano Di Battista (2000) {Blue Note} free torrent downloads included crack, serial, keygen.Stefano Di Battista - Stefano Di Battista (2000) {Blue Note} Fast Download via Rapidshare Hotfile Fileserve Filesonic Megaupload, Stefano Di Battista - Stefano Di Battista (2000) {Blue Note} Torrents and Emule Download or anything related.
Leave a Comment
Your Name:
E-Mail:
Add Comments:

Enter Code: