Stefano Di Battista - Trouble Shootin' (2007) {Blue Note}

Download Now

Stefano Di Battista - Trouble Shootin' (2007) {Blue Note}

Stefano Di Battista - Trouble Shootin' (2007) {Blue Note}
EAC 1.0b3 | FLAC tracks level 8 | Cue+Log+M3U | Full Scans 600dpi | 518MB + 5% Recovery
Genre: Jazz, Post-Bop, Neo-Bop

"Un Di Battista dal multiforme ingegno, parafrasando Omero, in veste di leader, sassofonista sia soprano che contralto e compositore di quasi tutti i brani di "Trouble Shootin'". Brani influenzati dai giganti del passato (Cannonball e il Duca su tutti), com'è giusto che sia, ma mai scontati o al sapor di "già sentito". La creatività del sassofonista romano si fa sentire sin dalla prima traccia, "I Will Love You", per poi esplodere in pezzi come "Under Her Spell" (intesa perfetta tra sax e tromba) e "Alexanderplatz Blues", in onore di uno dei locali più cari a Stefano. Solo tre le cover, omaggi a Bobby Timmons, Kenny Burrell e Horace Silver, cover (tanto per restare in sintonia col resto del disco) decisamente interessanti."

Track List
01. I Will Love You 4:13
02. Midnight Blue 4:45
03. The Serpent's Charm 8:04
04. Under Her Spell 4:56
05. The Jody Grind 4:44
06. Echoes Of Brazil 6:04
07. Alexanderplatz Blues 3:58
08. Essaouira 5:57
09. Weather Or Not 4:21
10. This Here 6:44
11. Trouble Shootin' 4:43

musicians
Stefano Di Battista - alto and soprano sax
Baptiste Trotignon - Hammond B3 organ
Eric Harland - drums
Russell Malone - guitar
Fabrizio Bosso - tpumpet
Nicola Stilo - flute
Eric Legnini - piano on 11

Produced by Nicolas Pflug

Exact Audio Copy V1.0 beta 3 from 29. August 2011

EAC extraction logfile from 30. July 2015, 10:07

Stefano Di Battista / Trouble Shootin'

Used drive : hp DVD-RAM GHB0N Adapter: 0 ID: 0

Read mode : Secure
Utilize accurate stream : Yes
Defeat audio cache : Yes
Make use of C2 pointers : No

Read offset correction

: 6
Overread into Lead-In and Lead-Out : No
Fill up missing offset samples with silence : Yes
Delete leading and trailing silent blocks : No
Null samples used in CRC calculations : Yes
Used interface
: Native Win32 interface for Win NT & 2000
Gap handling
: Appended to previous track

Used output format : User Defined Encoder
Selected bitrate : 1024 kBit/s
Quality : High
Add ID3 tag : No
Command line compressor : C:\Program Files (x86)\Exact Audio Copy\FLAC\FLAC.EXE
Additional command line options : -8 -V -T "ARTIST=%artist%" -T "TITLE=%title%" -T "ALBUM=%albumtitle%" -T "DATE=%year%" -T "TRACKNUMBER=%tracknr%" -T "TOTALTRACKS=%numtracks%" -T "GENRE=%genre%" -T "ALBUM ARTIST=%albumartist%" -T "ALBUMARTIST=%albumartist%" -T "COMMENT=EAC V1.0 beta 3, Secure Mode, Test & Copy, AccurateRip, FLAC -8" %source%

TOC of the extracted CD Track | Start | Length | Start sector | End sector
--1 | 0:00.00 | 4:15.10 | 0 | 19134 2 | 4:15.10 | 4:48.01 | 19135 | 40735 3 | 9:03.11 | 8:06.49 | 40736 | 77234 4 | 17:09.60 | 4:56.68 | 77235 | 99502 5 | 22:06.53 | 4:45.57 | 99503 | 120934 6 | 26:52.35 | 6:04.56 | 120935 | 148290 7 | 32:57.16 | 3:59.54 | 148291 | 166269 8 | 36:56.70 | 5:58.53 | 166270 | 193172 9 | 42:55.48 | 4:21.54 | 193173 | 212801
10 | 47:17.27 | 6:45.61 | 212802 | 243237
11 | 54:03.13 | 4:43.19 | 243238 | 264481

Track 1 Filename C:\Users\Maison\Downloads\Rips\01 - I Will Love You.wav Pre-gap length 0:00:02.00 Peak level 94.4 %
Extraction speed 1.8 X
Track quality 100.0 %
Test CRC 5345FEF8
Copy CRC 5345FEF8
Accurately ripped (confidence 23) [C32389AC] (AR v2)
Copy OK

Track 2 Filename C:\Users\Maison\Downloads\Rips\02 - Midnight Blue.wav Pre-gap length 0:00:01.21 Peak level 100.0 %
Extraction speed 2.0 X
Track quality 100.0 %
Test CRC 8FBF5EDA
Copy CRC 8FBF5EDA
Accurately ripped (confidence 23) 0396F8E (AR v2)
Copy OK

Track 3 Filename C:\Users\Maison\Downloads\Rips\03 - The Serpent's Charm.wav Pre-gap length 0:00:02.31 Peak level 100.0 %
Extraction speed 2.4 X
Track quality 100.0 %
Test CRC 5E8EADF0
Copy CRC 5E8EADF0
Accurately ripped (confidence 23) [21B0A5CB] (AR v2)
Copy OK

Track 4 Filename C:\Users\Maison\Downloads\Rips\04 - Under Her Spell.wav Pre-gap length 0:00:02.02 Peak level 100.0 %
Extraction speed 2.6 X
Track quality 100.0 %
Test CRC 213C491D
Copy CRC 213C491D
Accurately ripped (confidence 23) [2288D772] (AR v2)
Copy OK

Track 5 Filename C:\Users\Maison\Downloads\Rips\05 - The Jody Grind.wav Pre-gap length 0:00:00.23 Peak level 89.1 %
Extraction speed 2.7 X
Track quality 100.0 %
Test CRC 50B84B0B
Copy CRC 50B84B0B
Accurately ripped (confidence 23) [4CEFCEB7] (AR v2)
Copy OK

Track 6 Filename C:\Users\Maison\Downloads\Rips\06 - Echoes of Brazil.wav Pre-gap length 0:00:01.25 Peak level 100.0 %
Extraction speed 3.0 X
Track quality 100.0 %
Test CRC A5BEAEB4
Copy CRC A5BEAEB4
Accurately ripped (confidence 23) [45370225] (AR v2)
Copy OK

Track 7 Filename C:\Users\Maison\Downloads\Rips\07 - Alexanderplatz Blues.wav Pre-gap length 0:00:00.25 Peak level 100.0 %
Extraction speed 3.0 X
Track quality 100.0 %
Test CRC 10D8D19C
Copy CRC 10D8D19C
Accurately ripped (confidence 23) [94CDF507] (AR v2)
Copy OK

Track 8 Filename C:\Users\Maison\Downloads\Rips\08 - Essaouira.wav Pre-gap length 0:00:01.26 Peak level 89.1 %
Extraction speed 3.3 X
Track quality 100.0 %
Test CRC 428BCA3E
Copy CRC 428BCA3E
Accurately ripped (confidence 22) [A5E82979] (AR v2)
Copy OK

Track 9 Filename C:\Users\Maison\Downloads\Rips\09 - Weather Or Not.wav Pre-gap length 0:00:01.42 Peak level 100.0 %
Extraction speed 3.3 X
Track quality 100.0 %
Test CRC 4D2AA9F2
Copy CRC 4D2AA9F2
Accurately ripped (confidence 23) [A5798AFA] (AR v2)
Copy OK

Track 10 Filename C:\Users\Maison\Downloads\Rips\10 - This Here.wav Pre-gap length 0:00:00.44 Peak level 100.0 %
Extraction speed 3.6 X
Track quality 100.0 %
Test CRC 9FF8D61D
Copy CRC 9FF8D61D
Accurately ripped (confidence 23) [6E3951E5] (AR v2)
Copy OK

Track 11 Filename C:\Users\Maison\Downloads\Rips\11 - Trouble Shootin'.wav Pre-gap length 0:00:01.33 Peak level 100.0 %
Extraction speed 3.6 X
Track quality 100.0 %
Test CRC F024EFF1
Copy CRC F024EFF1
Accurately ripped (confidence 23) [3B182AA9] (AR v2)
Copy OK

All tracks accurately ripped

No errors occurred

End of status report

==== Log checksum 7D34834356605A8BA70D58864E6CAB1016A101A505BFBCB3824434EF829A00ED ====

Analyzed: Stefano Di Battista / Trouble Shootin'

DR Peak RMS Duration Track

DR10 -0.50 dB -12.82 dB 4:15 01-I Will Love You
DR11 0.00 dB -12.93 dB 4:48 02-Midnight Blue
DR10 0.00 dB -12.32 dB 8:07 03-The Serpent's Charm
DR12 0.00 dB -14.11 dB 4:57 04-Under Her Spell
DR11 -1.00 dB -13.04 dB 4:46 05-The Jody Grind
DR12 0.00 dB -13.32 dB 6:05 06-Echoes of Brazil
DR11 0.00 dB -12.12 dB 4:00 07-Alexanderplatz Blues
DR12 -1.00 dB -14.51 dB 5:59 08-Essaouira
DR11 0.00 dB -13.27 dB 4:22 09-Weather Or Not
DR10 0.00 dB -12.30 dB 6:46 10-This Here
DR11 0.00 dB -11.49 dB 4:43 11-Trouble Shootin'

Number of tracks: 11
Official DR value: DR11

Samplerate: 44100 Hz
Channels: 2
Bits per sample: 16
Bitrate: 1028 kbps
Codec: FLAC

Stefano Di Battista - Trouble Shootin' (2007) {Blue Note}

Stefano Di Battista - Trouble Shootin' (2007) {Blue Note}

Stefano Di Battista - Trouble Shootin' (2007) {Blue Note}

Rip by tdelyon


DOWNLOAD LINKS
Buy Premium From My Links To Get Resumable Support & Max Speed & To Support Me


Links are Interchangeable - No Password - Single Extraction
Direct Download

Tags: Stefano, Battista, Trouble, Shootin

Stefano Di Battista - Trouble Shootin' (2007) {Blue Note} Download via Hotfile Rapidshare Fileserve Megaupload & FileSonic, Stefano Di Battista - Trouble Shootin' (2007) {Blue Note} free torrent downloads included crack, serial, keygen.Stefano Di Battista - Trouble Shootin' (2007) {Blue Note} Fast Download via Rapidshare Hotfile Fileserve Filesonic Megaupload, Stefano Di Battista - Trouble Shootin' (2007) {Blue Note} Torrents and Emule Download or anything related.
Leave a Comment
Your Name:
E-Mail:
Add Comments:

Enter Code: