Dewa Budjana - Hasta Karma (2015) {MoonJune}

Download Now

Dewa Budjana - Hasta Karma (2015) {MoonJune}

Dewa Budjana - Hasta Karma (2015) {MoonJune}
EAC 1.0b3 | FLAC Image | Cue+Log | Full Scans 600dpi | 383MB + 5% Recovery
Genre: Fusion, World Fusion, Jazz-Rock

"Joined by a superb cast of marquee players, Dewa Budjana's new release (his 4th on MoonJune), "Hasta Karma," sets a new benchmark for modern progressive jazz excellence in the 21st century. With a vibe and feel more akin to that of a band with decades of experience together, Dewa and his stellar session-mates -- the legendary NYC vibraphonist, Joe Locke, and Pat Metheny Unity Group's rhythm core: the fabulous, articulate young upright bassist, Ben Williams, and the extraordinary maestro drummer, Antonio Sanchez -- create superlative atmospheric textures that transport listeners to destinations of soaring altitude. Augmenting proceedings further is the glowing work of the legendary Indonesian keyboardist, Indra Lesmana."

Track List
01. Saniscara. 8:01
02. Desember. 7:32
03. Jayaprana. 8:32
04. Ruang Dialisis. 11:43
05. Just Kidung. 10:01
06. Payogan Rain. 6:43

musicians
Dewa Budjana - electric & acoustic guitars, soundscapes
Joe Locke - vibraphone
Ben Williams - upright bass
Antonio Sanchez - drums
special guest:
Indra Lesmana - piano, melodica on tracks 4, 5, 6
Jro Ktut Sidemen - vocals on track 4

All compositions and arrangements by Dewa Budjana

Produced by Dewa Budjana

Exact Audio Copy V1.0 beta 3 from 29. August 2011

EAC extraction logfile from 21. February 2015, 20:24

Dewa Budjana / Hasta Karma

Used drive : ATAPI iHAS124 E Adapter: 0 ID: 0

Read mode : Secure
Utilize accurate stream : Yes
Defeat audio cache : Yes
Make use of C2 pointers : No

Read offset correction

: 6
Overread into Lead-In and Lead-Out : No
Fill up missing offset samples with silence : Yes
Delete leading and trailing silent blocks : No
Null samples used in CRC calculations : Yes
Used interface
: Native Win32 interface for Win NT & 2000

Used output format : Internal WAV Routines
Sample format : 44.100 Hz; 16 Bit; Stereo

TOC of the extracted CD Track | Start | Length | Start sector | End sector
--1 | 0:00.00 | 8:02.66 | 0 | 36215 2 | 8:02.66 | 7:32.44 | 36216 | 70159 3 | 15:35.35 | 8:33.47 | 70160 | 108681 4 | 24:09.07 | 11:44.21 | 108682 | 161502 5 | 35:53.28 | 10:04.24 | 161503 | 206826 6 | 45:57.52 | 6:41.69 | 206827 | 236970

Range status and errors

Selected range Filename C:\_EAC\Dewa Budjana - Hasta Karma.wav Peak level 100.0 %
Extraction speed 1.8 X
Range quality 100.0 %
Copy CRC 35491A5E
Copy OK

No errors occurred


AccurateRip summary

Track 1 not present in database
Track 2 not present in database
Track 3 not present in database
Track 4 not present in database
Track 5 not present in database
Track 6 not present in database

None of the tracks are present in the AccurateRip database

End of status report

Analyzed: Dewa Budjana / Hasta Karma

DR Peak RMS Duration Track

DR8 0.00 dB -9.99 dB 8:03 01-Saniscara
DR9 0.00 dB -10.03 dB 7:33 02-Desember
DR8 0.00 dB -9.91 dB 8:34 03-Jayaprana
DR8 0.00 dB -9.76 dB 11:44 04-Ruang Dialisis
DR8 0.00 dB -9.94 dB 10:04 05-Just Kidung
DR7 0.00 dB -9.54 dB 6:42 06-Payogan Rain

Number of tracks: 6
Official DR value: DR8

Samplerate: 44100 Hz
Channels: 2
Bits per sample: 16
Bitrate: 921 kbps
Codec: FLAC

Dewa Budjana - Hasta Karma (2015) {MoonJune}

Dewa Budjana - Hasta Karma (2015) {MoonJune}

Dewa Budjana - Hasta Karma (2015) {MoonJune}



DOWNLOAD LINKS
Buy Premium From My Links To Get Resumable Support & Max Speed & To Support Me


Links are Interchangeable - No Password - Single Extraction
Direct Download

Tags: Budjana, MoonJune

Dewa Budjana - Hasta Karma (2015) {MoonJune} Download via Hotfile Rapidshare Fileserve Megaupload & FileSonic, Dewa Budjana - Hasta Karma (2015) {MoonJune} free torrent downloads included crack, serial, keygen.Dewa Budjana - Hasta Karma (2015) {MoonJune} Fast Download via Rapidshare Hotfile Fileserve Filesonic Megaupload, Dewa Budjana - Hasta Karma (2015) {MoonJune} Torrents and Emule Download or anything related.
Leave a Comment
Your Name:
E-Mail:
Add Comments:

Enter Code: