Dan Lacksman - Electric Dreams (2013)

Download Now

Dan Lacksman - Electric Dreams (2013)

Dan Lacksman - Electric Dreams (2013)
EAC Rip | FLAC (Img) + Cue + Log ~ 284 Mb | MP3 CBR320 ~ 107 Mb
Scans (JPG, 600 dpi) ~ 84 Mb | RAR 5% Recovery
Electronic, Synth-Pop, Post-Disco | 77 Recordings #77CD154

"Dan Lacksman is a Belgian composer and sound engineer, artist and member of Telex, director of numerous acoustic albums, pop or jazz. He released the album Electric Dreams, on 17 May 2013. Dan recorded an album and several singles under his name, and also several instrumental albums of electronic music, using mainly a big Moog modular system, under the name Electronic System. In 1978, he founded the then avant-garde electronic Telex together with Marc Moulin and Michel Moers. They had some international hits like "Moskow Diskow", "Spike Jones" and "Peanuts". In 1993 Dan produced the first album of Deep Forest which became a huge hit worldwide. In 1996, he produced, the first album of Ozark Henry, I'm Seeking Something That Has Already Found Me..."

Wiki | Discogs
***************

Dan Lacksman - Electric Dreams (2013)

Track List:

01. A=440 [04:41]
02. Electric Dreams [03:30]
03. Mac Or PC [03:19]
04. I Want My Space [04:20]
05. Barcelona [03:58]
06. Keep Quiet [03:46]
07. Hong Kong Love [03:42]
08. Surrounded By Fields [04:03]
09. Where Am I [03:17]
10. Bonjour Monsieur Hulot [02:55]
11. Number Eleven [03:26]
12. Forbidden Planet [03:23]

Exact Audio Copy V1.0 beta 3 from 29. August 2011

Отчёт EAC об извлечении, выполненном 25. января 2015, 0:46

Dan Lacksman / Electric Dreams

Дисковод: PIONEER BD-RW BDR-S09 Adapter: 0 ID: 0

Режим чтения : Достоверность
Использование точного потока : Да
Отключение кэша аудио : Да
Использование указателей C2 : Нет

Коррекция смещения при чтении : 667
Способность читать области Lead-in и Lead-out : Нет
Заполнение пропущенных сэмплов тишиной : Да
Удаление блоков с тишиной в начале и конце : Нет
При вычислениях CRC использовались нулевые сэмплы : Да
Интерфейс : Встроенный Win32-интерфейс для Win NT/2000

Выходной формат : Пользовательский кодировщик
Выбранный битрейт : 768 kBit/s
Качество : Высокий
Добавление ID3-тега : Нет
Утилита сжатия : C:\Program Files (x86)\Exact Audio Copy\FLAC\FLAC.EXE
Дополнительные параметры : -6 -V -T "ARTIST=%artist%" -T "TITLE=%title%" -T "ALBUM=%albumtitle%" -T "DATE=%year%" -T "TRACKNUMBER=%tracknr%" -T "GENRE=%genre%" -T "COMMENT=%comment%" -T "BAND=%albuminterpret%" -T "ALBUMARTIST=%albuminterpret%" -T "COMPOSER=%composer%" %haslyrics%--tag-from-file=LYRICS="%lyricsfile%"%haslyrics% -T "DISCNUMBER=%cdnumber%" -T "TOTALDISCS=%totalcds%" -T "TOTALTRACKS=%numtracks%" %hascover%--picture="%coverfile%"%hascover% %source% -o %dest%

TOC извлечённого CD Трек | Старт | Длительность | Начальный сектор | Конечный сектор

1 | 0:00.00 | 4:41.00 | 0 | 21074
2 | 4:41.00 | 3:29.16 | 21075 | 36765
3 | 8:10.16 | 3:18.16 | 36766 | 51631
4 | 11:28.32 | 4:19.01 | 51632 | 71057
5 | 15:47.33 | 3:57.73 | 71058 | 88905
6 | 19:45.31 | 3:45.04 | 88906 | 105784
7 | 23:30.35 | 3:41.58 | 105785 | 122417
8 | 27:12.18 | 4:02.56 | 122418 | 140623
9 | 31:14.74 | 3:16.73 | 140624 | 155396
10 | 34:31.72 | 2:54.13 | 155397 | 168459
11 | 37:26.10 | 3:25.05 | 168460 | 183839
12 | 40:51.15 | 3:22.22 | 183840 | 199011

Характеристики диапазона извлечения и сообщения об ошибках

Выбранный диапазон Имя файла C:\Users\AZ\Desktop\P\CD\For AZ\Dan Lacksman - Electric Dreams\Dan Lacksman - Electric Dreams.wav Пиковый уровень 100.0 %
Скорость извлечения 7.5 X
Качество диапазона 100.0 %
CRC теста 7AD191A8
CRC копии 7AD191A8
Копирование... OK

Ошибок не произошло


AccurateRip: сводка

Трек 1 : извлечено точно (доверие 1) [84ACD25A] (AR v2)
Трек 2 : извлечено точно (доверие 1) [6E2DE12D] (AR v2)
Трек 3 : извлечено точно (доверие 1) [DF207F1E] (AR v2)
Трек 4 : извлечено точно (доверие 1) FBE208F (AR v2)
Трек 5 : извлечено точно (доверие 1) [116E16C0] (AR v2)
Трек 6 : извлечено точно (доверие 1) [A06BFBE8] (AR v2)
Трек 7 : извлечено точно (доверие 1) [C8E5E1A8] (AR v2)
Трек 8 : извлечено точно (доверие 1) [81BA2163] (AR v2)
Трек 9 : извлечено точно (доверие 1) [8DF04C68] (AR v2)
Трек 10 : извлечено точно (доверие 1) [15E6F457] (AR v2)
Трек 11 : извлечено точно (доверие 1) [C3A4D2F8] (AR v2)
Трек 12 : извлечено точно (доверие 1) [5BA6C2DA] (AR v2)

Все треки извлечены точно

Конец отчёта

- CUETools DB Plugin V2.1.3

[CTDB TOCID: GkZ7GhkOVvmiaQZnUTDXP1crJ_c-] found, Submit result: GkZ7GhkOVvmiaQZnUTDXP1crJ_c- has been confirmed
[174e17a8] (1/1) Accurately ripped

foobar2000 1.2.6 / Dynamic Range Meter 1.1.1
log date: 2015-10-23 13:31:18

Analyzed: Dan Lacksman / Electric Dreams

DR Peak RMS Duration Track

DR7 0.00 dB -7.78 dB 4:41 01-A=440
DR6 0.00 dB -7.63 dB 3:29 02-Electric Dreams
DR7 0.00 dB -7.72 dB 3:18 03-Mac Or PC
DR6 0.00 dB -8.03 dB 4:19 04-I Want My Space
DR7 0.00 dB -7.84 dB 3:58 05-Barcelona
DR8 0.00 dB -8.97 dB 3:45 06-Keep Quiet
DR7 0.00 dB -8.88 dB 3:42 07-Hong Kong Love
DR6 0.00 dB -7.88 dB 4:03 08-Surrounded By Fields
DR8 0.00 dB -9.65 dB 3:17 09-Where Am I
DR10 0.00 dB -10.81 dB 2:54 10-Bonjour Monsieur Hulot
DR7 0.00 dB -8.02 dB 3:25 11-Number Eleven
DR7 0.00 dB -8.42 dB 3:22 12-Forbidden Planet

Number of tracks: 12
Official DR value: DR7

Samplerate: 44100 Hz
Channels: 2
Bits per sample: 16
Bitrate: 853 kbps
Codec: FLAC

[CUETools log; Date: 23.10.2015 13:31:04; Version: 2.1.5]
[CTDB TOCID: GkZ7GhkOVvmiaQZnUTDXP1crJ_c-] found.
Track | CTDB Status
1 | (2/2) Accurately ripped
2 | (2/2) Accurately ripped
3 | (2/2) Accurately ripped
4 | (2/2) Accurately ripped
5 | (2/2) Accurately ripped
6 | (2/2) Accurately ripped
7 | (2/2) Accurately ripped
8 | (2/2) Accurately ripped
9 | (2/2) Accurately ripped
10 | (2/2) Accurately ripped
11 | (2/2) Accurately ripped
12 | (2/2) Accurately ripped
[AccurateRip ID: 001485cd-00bdb810-aa0a5d0c] found.
Track [ CRC | V2 ] Status
01 [d1433983|84acd25a] (2+0/2) Accurately ripped
02 [dda2e110|6e2de12d] (2+0/2) Accurately ripped
03 [22a73359|df207f1e] (2+0/2) Accurately ripped
04 [5e62601d|bfbe208f] (2+0/2) Accurately ripped
05 [6b3ab439|116e16c0] (2+0/2) Accurately ripped
06 [6c5d2655|a06bfbe8] (2+0/2) Accurately ripped
07 [9883c380|c8e5e1a8] (2+0/2) Accurately ripped
08 [5d6d9f55|81ba2163] (2+0/2) Accurately ripped
09 [7155c18b|8df04c68] (2+0/2) Accurately ripped
10 [388fc94d|15e6f457] (2+0/2) Accurately ripped
11 [d07b8585|c3a4d2f8] (2+0/2) Accurately ripped
12 [7648b4e1|5ba6c2da] (1+1/3) Accurately ripped

Track Peak [ CRC32 ] [W/O NULL] [ LOG ]
-- 100,0 [7AD191A8] [1E397CF9] CRC32
01 100,0 [8E54F74B] [E4BC1E08]
02 100,0 [6FD51D7B] [116E71DA]
03 100,0 [72D16F6E] [7DF9CE98]
04 100,0 [F354F53C] [75A26947]
05 100,0 [0296B453] [06D0C7F2]
06 100,0 [326F79B7] [486EB3AB]
07 100,0 [C233F23E] [F1F8CA4E]
08 100,0 [6B25EBAE] A286C9E
09 100,0 [3CC8172D] 58FD9A6
10 100,0 [706D6C40] [51556C7F]
11 100,0 [7E9C1E9E] [7D63CA6F]
12 100,0 [1D76DE0D] [F3763D7B]

Dan Lacksman - Electric Dreams (2013)


DOWNLOAD LINKS:


No Password
Direct Download

Tags: Lacksman, Electric, Dreams

Dan Lacksman - Electric Dreams (2013) Download via Hotfile Rapidshare Fileserve Megaupload & FileSonic, Dan Lacksman - Electric Dreams (2013) free torrent downloads included crack, serial, keygen.Dan Lacksman - Electric Dreams (2013) Fast Download via Rapidshare Hotfile Fileserve Filesonic Megaupload, Dan Lacksman - Electric Dreams (2013) Torrents and Emule Download or anything related.
Leave a Comment
Your Name:
E-Mail:
Add Comments:

Enter Code: