Banco - Buone Notizie (1981)

Download Now

Banco - Buone Notizie (1981)

Banco - Buone Notizie (1981)
Rock | 1cd | XLD Rip | Flac + Cue + Log | covers
Sony MHCP 1317 | rem: 2007 | 490Mb

That album this Buone Notizie for Banco. Ok, Buone Notizie is only a POP album but... Extreme consistent. And with 5 80's Banco ecergreen Taxi, Si, Ma Si, Buonanotte, Sogni D'Oro, Baciami Alfredo and Buone Notizie. Extreme good the production and song writing and inspired francesco Di Giacomo. Today Buone Notizie is one of my preferred 80's Italian albums, also if isn't Prog. But the sound of Buone Notizie (another not Prog situation) is very good to the time test. So Buone Notizie is a superior POP album.
~progarchives

Track listing
01. Taxi (4:46)
02. Canzone D'Amore (5:13)
03. Si, Ma Si (4:41)
04. Bounanotte, Sogni D'Oro (5:14)
05. Baciami Alfredo (5:24)
06. Michele E Il Treno (6:04)
07. AmFm (2:39)
08. Boune Notizie (4:43)
~ (38:43)

Personnel
- Francesco Di Giacomo / lead vocals
- Vittorio Nocenzi / piano Yamaha CP 80, grand piano, Synth. Jupiter Roland, vocoder, vocals
- Gianni Nocenzi / Synth. Jupiter 4 Roland - Promars Roland, piano Yamaha CS 80
- Rodolfo Maltese / guitars Ibanez and EKO M 24, trumpet, vocals
- Pierluigi Calderoni / Premier drums
- Gianni Colaiacomo / bass

X Lossless Decoder version 20091129 (114.3)

XLD extraction logfile from 2010-05-30 14:16:23 +0100

Banco / Boune Notizie

Used drive : PIONEER DVD-RW DVR-218L (revision 1.02)

Use cdparanoia mode : YES (CDParanoia III 10.2 engine)
Disable audio cache : OK for the drive with cache less than 2750KB
Make use of C2 pointers : NO
Read offset correction : 6
Max retry count : 100

TOC of the extracted CD
Track | Start | Length | Start sector | End sector
--1 | 00:00:00 | 04:45:56 | 0 | 21430 2 | 04:45:56 | 05:12:69 | 21431 | 44899 3 | 09:58:50 | 04:40:70 | 44900 | 65969 4 | 14:39:45 | 05:13:72 | 65970 | 89516 5 | 19:53:42 | 05:24:28 | 89517 | 113844 6 | 25:17:70 | 06:03:67 | 113845 | 141136 7 | 31:21:62 | 02:39:08 | 141137 | 153069 8 | 34:00:70 | 04:42:41 | 153070 | 174260

All Tracks
Filename : /Volumes/DATA/Music/Pre Releases/Banco Del Mutuo Soccorso/Banco del Mutuo Soccorso - Boune Notizie - 1981/Boune Notizie.aiff
CRC32 hash : FC383E36
CRC32 hash (skip zero) : D4448717
StatisticsRead error : 0Skipped (treated as error) : 0Edge jitter error (maybe fixed) : 0Atom jitter error (maybe fixed) : 0Drift error (maybe fixed) : 0Dropped bytes error (maybe fixed) : 0Duplicated bytes error (maybe fixed) : 0

Track 01
CRC32 hash : 7CC3188C
CRC32 hash (skip zero) : 26D5735D
StatisticsRead error : 0Skipped (treated as error) : 0Edge jitter error (maybe fixed) : 0Atom jitter error (maybe fixed) : 0Drift error (maybe fixed) : 0Dropped bytes error (maybe fixed) : 0Duplicated bytes error (maybe fixed) : 0

Track 02
CRC32 hash : D80E46E2
CRC32 hash (skip zero) : CAD76A09
StatisticsRead error : 0Skipped (treated as error) : 0Edge jitter error (maybe fixed) : 0Atom jitter error (maybe fixed) : 0Drift error (maybe fixed) : 0Dropped bytes error (maybe fixed) : 0Duplicated bytes error (maybe fixed) : 0

Track 03
CRC32 hash : 3B88B0D6
CRC32 hash (skip zero) : 768BD131
StatisticsRead error : 0Skipped (treated as error) : 0Edge jitter error (maybe fixed) : 0Atom jitter error (maybe fixed) : 0Drift error (maybe fixed) : 0Dropped bytes error (maybe fixed) : 0Duplicated bytes error (maybe fixed) : 0

Track 04
CRC32 hash : 0DAFB4BF
CRC32 hash (skip zero) : 57069D68
StatisticsRead error : 0Skipped (treated as error) : 0Edge jitter error (maybe fixed) : 0Atom jitter error (maybe fixed) : 0Drift error (maybe fixed) : 0Dropped bytes error (maybe fixed) : 0Duplicated bytes error (maybe fixed) : 0

Track 05
CRC32 hash : 22A410CF
CRC32 hash (skip zero) : 3D8D3DD3
StatisticsRead error : 0Skipped (treated as error) : 0Edge jitter error (maybe fixed) : 0Atom jitter error (maybe fixed) : 0Drift error (maybe fixed) : 0Dropped bytes error (maybe fixed) : 0Duplicated bytes error (maybe fixed) : 0

Track 06
CRC32 hash : 9D58C1D4
CRC32 hash (skip zero) : 3B468F6E
StatisticsRead error : 0Skipped (treated as error) : 0Edge jitter error (maybe fixed) : 0Atom jitter error (maybe fixed) : 0Drift error (maybe fixed) : 0Dropped bytes error (maybe fixed) : 0Duplicated bytes error (maybe fixed) : 0

Track 07
CRC32 hash : F7B1E5B5
CRC32 hash (skip zero) : 2489B31E
StatisticsRead error : 0Skipped (treated as error) : 0Edge jitter error (maybe fixed) : 0Atom jitter error (maybe fixed) : 0Drift error (maybe fixed) : 0Dropped bytes error (maybe fixed) : 0Duplicated bytes error (maybe fixed) : 0

Track 08
CRC32 hash : F7F6A8D4
CRC32 hash (skip zero) : 652DCD83
StatisticsRead error : 0Skipped (treated as error) : 0Edge jitter error (maybe fixed) : 0Atom jitter error (maybe fixed) : 0Drift error (maybe fixed) : 0Dropped bytes error (maybe fixed) : 0Duplicated bytes error (maybe fixed) : 0

No errors occurred

End of status report

[CUETools log; Date: 2015.11.01. 21:55:36; Version: 2.1.5]
[AccurateRip ID: 000c4523-0051ae06-66091308] found.
Track [ CRC | V2 ] Status
01 [5235c36c|1217baf4] (3+2/5) Accurately ripped
02 [2d07e0f4|33fac509] (3+2/5) Accurately ripped
03 [07686b27|481daa4c] (3+2/5) Accurately ripped
04 [e01b8cda|483e9499] (3+2/5) Accurately ripped
05 [2e0280d3|999df224] (3+2/5) Accurately ripped
06 [dfe084d6|048f1119] (3+2/5) Accurately ripped
07 [adb06f4e|8a12c75e] (3+2/5) Accurately ripped
08 [970c7f10|7a8c84e2] (3+2/5) Accurately ripped

Track Peak [ CRC32 ] [W/O NULL]
-- 99,9 [FC383E36] [D4448717]
01 99,9 [7CC3188C] [26D5735D]
02 99,9 [D80E46E2] [CAD76A09]
03 99,9 [3B88B0D6] [768BD131]
04 99,9 [0DAFB4BF] [57069D68]
05 97,6 [22A410CF] [3D8D3DD3]
06 99,9 [9D58C1D4] [3B468F6E]
07 99,9 [F7B1E5B5] [2489B31E]
08 99,9 [F7F6A8D4] [652DCD83]

original uploader unknown
password: asd
DOWNLOAD LINKS
Buy Premium From My Links To Get Resumable Support & Max Speed & To Support Me


Links are Interchangeable - No Password - Single Extraction
Direct Download

Tags: Notizie

Banco - Buone Notizie (1981) Download via Hotfile Rapidshare Fileserve Megaupload & FileSonic, Banco - Buone Notizie (1981) free torrent downloads included crack, serial, keygen.Banco - Buone Notizie (1981) Fast Download via Rapidshare Hotfile Fileserve Filesonic Megaupload, Banco - Buone Notizie (1981) Torrents and Emule Download or anything related.
Leave a Comment
Your Name:
E-Mail:
Add Comments:

Enter Code: